osu file format v14

[General]
AudioFilename: Connect.mp3
AudioLeadIn: 500
PreviewTime: 74268
Countdown: 0
SampleSet: Soft
StackLeniency: 0.7
Mode: 0
LetterboxInBreaks: 1
WidescreenStoryboard: 0

[Editor]
Bookmarks: 1695,21696,48362,67948,92807,101696,137251,155029,163918,172807,183918,201696
DistanceSpacing: 1.2
BeatDivisor: 4
GridSize: 4
TimelineZoom: 2.200001

[Metadata]
Title:Connect (Nightcore Trance Remix)
TitleUnicode:コネクト (Nightcore Trance Remix)
Artist:ClariS
ArtistUnicode:ClariS
Creator:Naryuga
Version:Insane
Source:Puella Magi Madoka Magica
Tags:Konekuto Mahou Shoujo Madoka Magica opening 魔法少女まどか☆マギカ testmx1
BeatmapID:178236
BeatmapSetID:59482

[Difficulty]
HPDrainRate:7
CircleSize:4
OverallDifficulty:7
ApproachRate:9
SliderMultiplier:1.8
SliderTickRate:2

[Events]
//Background and Video events
0,0,"bg.jpg",0,0
//Break Periods
2,39537,45404
2,95093,100960
2,157315,163182
2,173084,176515
//Storyboard Layer 0 (Background)
//Storyboard Layer 1 (Fail)
//Storyboard Layer 2 (Pass)
//Storyboard Layer 3 (Foreground)
//Storyboard Sound Samples

[TimingPoints]
1560,277.777777777778,4,2,1,90,1,0
10448,-125,4,2,1,70,0,0
10518,-125,4,2,1,50,0,0
19337,-125,4,2,1,60,0,0
20448,-125,4,2,1,75,0,0
21560,-100,4,2,1,90,0,0
29823,-100,4,2,1,100,0,0
30518,-100,4,2,1,90,0,0
46004,-100,4,2,1,30,0,0
48087,-100,4,2,1,60,0,0
52810,-100,4,2,1,70,0,0
53851,-100,4,2,1,80,0,0
54823,-100,4,2,1,90,0,0
55518,-100,4,2,2,75,0,0
55657,-100,4,2,1,90,0,0
56212,-133.333333333333,4,2,1,80,0,0
56490,-133.333333333333,4,2,1,60,0,0
56976,-100,4,2,1,90,0,0
58435,-100,4,2,2,80,0,0
58573,-100,4,2,1,90,0,0
65379,-100,4,2,1,100,0,0
66073,-100,4,2,1,90,0,0
74893,-100,4,2,1,90,0,1
83157,-100,4,2,1,100,0,1
83851,-100,4,2,1,90,0,1
92671,-100,4,2,1,90,0,0
94893,-100,4,2,1,50,0,0
95171,-100,4,2,1,90,0,0
118539,-100,4,2,1,60,0,0
118678,-100,4,2,1,50,0,0
118747,-100,4,2,1,90,0,0
118816,-100,4,2,1,60,0,0
118955,-100,4,2,1,50,0,0
119025,-100,4,2,1,90,0,0
127601,-100,4,2,1,100,0,0
128296,-100,4,2,1,90,0,0
137115,-100,4,2,1,90,0,1
145379,-100,4,2,1,100,0,1
146073,-100,4,2,1,90,0,1
154893,-100,4,2,1,90,0,0
157115,-100,4,2,1,50,0,0
157393,-100,4,2,1,90,0,0
183782,-100,4,2,1,90,0,1
192046,-100,4,2,1,100,0,1
192740,-100,4,2,1,90,0,1
201560,-100,4,2,1,90,0,0
209823,-100,4,2,1,100,0,0

[Colours]
Combo1 : 255,255,0
Combo2 : 255,0,0
Combo3 : 64,0,128
Combo4 : 255,128,255
Combo5 : 64,192,255

[HitObjects]
64,188,1559,6,0,P|112:112|192:76,1,180,4|8,0:0|0:0,0:0:0:0:
284,76,1976,1,0,0:0:0:0:
284,76,2115,2,0,B|380:76,1,90,0|2,0:0|0:0,0:0:0:0:
420,156,2393,2,0,B|328:156,1,90,8|0,0:0|0:0,0:0:0:0:
368,236,2671,5,0,0:0:0:0:
296,288,2810,1,2,0:0:0:0:
256,208,2948,1,8,0:0:0:0:
188,264,3087,1,2,0:0:0:0:
148,184,3226,2,0,B|136:140|156:96,1,90,2|0,0:0|0:0,0:0:0:0:
276,36,3504,2,0,B|288:80|268:124,1,90,8|0,0:0|0:0,0:0:0:0:
148,184,3782,6,0,B|104:196|80:240,1,90
172,340,4060,2,0,B|216:328|240:284,1,90,8|0,0:0|0:0,0:0:0:0:
280,204,4337,1,0,0:0:0:0:
272,58,4476,1,2,0:0:0:0:
364,171,4615,1,8,0:0:0:0:
223,134,4754,1,0,0:0:0:0:
359,81,4892,5,0,0:0:0:0:
435,127,5032,2,0,P|447:170|435:213,1,90,2|8,0:0|0:0,0:0:0:0:
359,259,5310,1,2,0:0:0:0:
292,168,5448,1,2,0:0:0:0:
48,260,5726,1,8,0:0:0:0:
48,48,6004,6,0,B|48:140,1,90,8|8,0:0|0:0,0:0:0:0:
136,108,6282,2,0,B|136:200,1,90,8|8,0:0|0:0,0:0:0:0:
224,168,6560,2,0,B|224:260,1,90,8|8,0:0|0:0,0:0:0:0:
312,228,6838,2,0,B|312:320,1,90,8|8,0:0|0:0,0:0:0:0:
412,228,7115,5,8,0:0:0:0:
412,228,7254,1,8,0:0:0:0:
384,144,7393,1,8,0:0:0:0:
384,144,7532,1,8,0:0:0:0:
320,80,7671,1,8,0:0:0:0:
320,80,7810,1,8,0:0:0:0:
232,56,7948,1,8,0:0:0:0:
232,56,8087,1,8,0:0:0:0:
112,120,8226,6,0,B|68:120,2,45,8|8|8,0:0|0:0|0:0,0:0:0:0:
232,188,8504,2,0,B|280:188,2,45,8|8|8,0:0|0:0|0:0,0:0:0:0:
112,252,8782,2,0,B|112:297,2,45,8|8|8,0:0|0:0|0:0,0:0:0:0:
232,316,9060,2,0,B|232:268,2,45,8|8|8,0:0|0:0|0:0,0:0:0:0:
352,252,9337,5,8,0:0:0:0:
376,240,9407,1,8,0:0:0:0:
392,220,9476,1,8,0:0:0:0:
404,196,9546,1,8,0:0:0:0:
411,170,9615,1,8,0:0:0:0:
404,144,9685,1,8,0:0:0:0:
392,120,9755,1,8,0:0:0:0:
376,100,9824,1,8,0:0:0:0:
352,88,9893,2,8,B|332:76|304:72,3,45
284,72,10171,2,8,B|240:72,3,45
212,72,10448,6,0,B|92:104|68:216,1,216,4|0,0:0|0:0,0:0:0:0:
152,240,11004,1,0,0:0:0:0:
176,324,11143,2,0,B|252:312|288:240,1,144
284,156,11560,5,2,0:0:0:0:
356,112,11698,2,0,B|392:96|432:96,1,72
452,200,11976,2,0,B|416:216|376:216,1,72,2|0,0:0|0:0,0:0:0:0:
348,80,12254,2,0,B|284:40|208:64,1,144,2|0,0:0|0:0,0:0:0:0:
124,84,12671,6,0,B|72:188|124:292,1,216,2|0,0:0|0:0,0:0:0:0:
208,192,13226,1,0,0:0:0:0:
124,84,13365,2,0,B|180:32|256:40,1,144,2|0,0:0|0:0,0:0:0:0:
328,88,13782,5,2,0:0:0:0:
232,140,13921,1,0,0:0:0:0:
352,192,14060,1,0,0:0:0:0:
200,244,14198,1,2,0:0:0:0:
200,244,14476,5,2,0:0:0:0:
352,192,14615,1,0,0:0:0:0:
232,140,14754,1,0,0:0:0:0:
328,88,14893,6,0,P|424:116|452:224,1,216,2|0,0:0|0:0,0:0:0:0:
368,224,15448,1,0,0:0:0:0:
424,288,15587,2,0,P|384:324|296:324,1,144,2|0,0:0|0:0,0:0:0:0:
216,300,16004,5,2,0:0:0:0:
136,268,16143,2,0,B|70:237,1,72
136,116,16421,2,0,B|70:146,1,72
184,192,16698,2,0,B|260:192,1,72,2|0,0:0|0:0,0:0:0:0:
352,192,16976,2,0,B|396:192,2,36,0|0|2,0:0|0:0|0:0,0:0:0:0:
256,192,18226,12,2,21282,0:0:0:0:
152,284,21560,6,0,P|104:204|136:128,1,180,4|8,0:0|0:0,0:0:0:0:
212,84,21976,1,0,0:0:0:0:
300,72,22115,2,0,B|348:68|384:96,1,90,0|2,0:0|0:0,0:0:0:0:
284,188,22393,2,0,B|236:192|200:164,1,90,8|0,0:0|0:0,0:0:0:0:
120,116,22671,5,0,0:0:0:0:
120,208,22810,1,2,0:0:0:0:
192,84,22948,1,8,0:0:0:0:
192,240,23087,1,0,0:0:0:0:
252,40,23226,2,0,B|292:76|291:117,1,90,2|0,0:0|0:0,0:0:0:0:
252,288,23504,2,0,B|292:252|291:210,1,90,8|0,0:0|0:0,0:0:0:0:
420,168,23782,6,0,B|240:168,1,180,2|8,0:0|0:0,0:0:0:0:
156,132,24198,2,0,B|124:96|72:104,1,90
76,248,24476,1,2,0:0:0:0:
164,228,24615,2,0,L|214:303,1,90,8|0,0:0|0:0,0:0:0:0:
300,252,24893,6,0,B|336:216|384:216,1,90,0|2,0:0|0:0,0:0:0:0:
456,164,25171,2,0,B|411:164|375:128,1,90,8|0,0:0|0:0,0:0:0:0:
448,72,25448,1,2,0:0:0:0:
176,72,25726,1,8,0:0:0:0:
36,304,26004,6,0,B|96:228|188:216,1,180,2|8,0:0|0:0,0:0:0:0:
300,296,26421,1,0,0:0:0:0:
256,168,26560,1,0,0:0:0:0:
216,296,26698,1,2,0:0:0:0:
324,216,26837,2,0,B|376:212|408:180,1,90,8|0,0:0|0:0,0:0:0:0:
368,100,27115,5,0,0:0:0:0:
368,100,27254,1,0,0:0:0:0:
280,72,27393,2,0,B|240:48|192:56,1,90,8|0,0:0|0:0,0:0:0:0:
104,116,27671,2,0,B|80:164|96:204,1,90,2|0,0:0|0:0,0:0:0:0:
200,236,27948,2,0,B|248:216|268:180,1,90,8|0,0:0|0:0,0:0:0:0:
376,152,28226,5,2,0:0:0:0:
408,236,28365,1,0,0:0:0:0:
340,296,28504,2,0,B|308:328|256:324,1,90,8|0,0:0|0:0,0:0:0:0:
168,312,28782,1,0,0:0:0:0:
96,260,28921,1,2,0:0:0:0:
76,172,29060,2,0,B|76:128|116:96,1,90,8|0,0:0|0:0,0:0:0:0:
204,68,29337,5,8,0:0:0:0:
204,68,29476,1,8,0:0:0:0:
204,68,29754,1,8,0:0:0:0:
308,68,29893,2,0,B|356:68,2,45,2|8|0,0:0|0:0|0:0,0:0:0:0:
344,172,30171,2,0,B|348:211|378:207|384:250,1,90,8|8,0:0|0:0,0:0:0:0:
304,320,30448,6,0,B|204:332|144:256,1,180,4|8,0:0|0:0,0:0:0:0:
96,180,30865,1,0,0:0:0:0:
124,96,31004,2,0,B|56:36,2,90,0|2|8,0:0|0:0|0:0,0:0:0:0:
192,156,31421,1,0,0:0:0:0:
276,188,31560,6,0,B|320:208|368:192,1,90,0|2,0:0|0:0,0:0:0:0:
412,116,31837,2,0,B|368:96|320:112,1,90,8|0,0:0|0:0,0:0:0:0:
296,236,32115,2,0,B|340:256|388:240,1,90,2|0,0:0|0:0,0:0:0:0:
396,68,32393,2,0,B|352:48|304:64,1,90,8|0,0:0|0:0,0:0:0:0:
200,84,32671,6,0,B|144:88|144:144|144:200|84:208,1,180,2|8,0:0|0:0,0:0:0:0:
124,288,33087,1,0,0:0:0:0:
248,332,33226,1,0,0:0:0:0:
208,252,33365,1,2,0:0:0:0:
332,300,33504,2,0,B|424:264|440:164,1,180,8|0,0:0|0:0,0:0:0:0:
412,80,33921,5,2,0:0:0:0:
320,80,34060,2,0,B|224:80,1,90,8|2,0:0|0:0,0:0:0:0:
178,156,34337,2,0,B|268:156,2,90,2|0|8,0:0|0:0|0:0,0:0:0:0:
132,80,34754,1,0,0:0:0:0:
84,156,34893,6,0,B|104:256|196:284,1,180,2|8,0:0|0:0,0:0:0:0:
284,304,35310,1,0,0:0:0:0:
372,288,35448,2,0,B|320:212,1,90,0|2,0:0|0:0,0:0:0:0:
444,240,35726,2,0,B|392:164,1,90,8|0,0:0|0:0,0:0:0:0:
328,100,36004,5,0,0:0:0:0:
240,80,36143,1,2,0:0:0:0:
152,100,36282,2,0,B|104:116|84:156,1,90,8|0,0:0|0:0,0:0:0:0:
80,248,36560,1,2,0:0:0:0:
212,168,36698,1,0,0:0:0:0:
204,256,36837,2,0,B|184:296|136:312,1,90,8|0,0:0|0:0,0:0:0:0:
204,256,37115,6,0,B|248:236|292:244,1,90,2|0,0:0|0:0,0:0:0:0:
400,184,37393,2,0,B|356:164|312:172,1,90,8|0,0:0|0:0,0:0:0:0:
204,88,37671,2,0,B|248:108|292:100,2,90,0|2|8,0:0|0:0|0:0,0:0:0:0:
100,32,38087,1,0,0:0:0:0:
116,148,38226,5,0,0:0:0:0:
200,240,38365,1,0,0:0:0:0:
138,86,38504,1,8,0:0:0:0:
272,32,38643,1,2,0:0:0:0:
272,32,38782,2,0,B|296:72|348:84|400:72|424:32,2,180,2|8|4,0:0|0:0|0:1,0:0:0:0:
256,192,46004,12,0,47671,0:0:0:0:
256,192,48226,5,8,0:0:0:0:
256,192,48365,1,0,0:0:0:0:
256,100,48504,2,0,B|360:88|416:168,1,180,0|0,0:0|0:0,0:0:0:0:
444,252,48921,2,0,B|468:340,2,90,8|0|0,0:0|0:0|0:0,0:0:0:0:
360,288,49337,5,8,0:0:0:0:
272,304,49476,2,0,B|224:304|188:268,1,90,0|0,0:0|0:0,0:0:0:0:
132,200,49754,1,0,0:0:0:0:
148,184,49823,1,0,0:0:0:0:
164,168,49893,2,0,L|192:128,3,45,0|0|8|0,0:0|0:0|0:0|0:0,0:0:0:0:
236,128,50171,2,0,L|264:88,3,45
304,76,50448,5,8,0:0:0:0:
132,200,50726,2,0,P|192:252|248:256,1,135
268,248,51004,2,0,P|312:220|336:192,1,90,0|8,0:0|0:0,0:0:0:0:
428,264,51282,1,0,0:0:0:0:
428,264,51421,2,0,P|384:292|360:320,1,90,0|8,0:0|0:0,0:0:0:0:
268,336,51698,6,0,B|180:336,1,90,2|0,0:0|0:0,0:0:0:0:
38,260,51976,2,0,B|128:260,1,90,0|2,0:0|0:0,0:0:0:0:
192,196,52254,1,8,0:0:0:0:
192,196,52323,1,0,0:0:0:0:
192,196,52393,2,0,L|136:124,1,90
176,44,52671,5,8,0:0:0:0:
392,76,52948,2,0,B|468:132|456:235,1,180
336,348,53365,2,0,B|372:320|420:320,1,90,8|0,0:0|0:0,0:0:0:0:
288,224,53643,2,0,B|252:252|204:252,1,90,0|8,0:0|0:0,0:0:0:0:
216,140,53921,5,0,0:0:0:0:
180,40,54060,1,0,0:0:0:0:
144,140,54198,1,0,0:0:0:0:
248,80,54337,1,0,0:0:0:0:
248,80,54407,1,0,0:0:0:0:
248,80,54476,2,0,L|340:80,1,90,8|0,0:0|0:0,0:0:0:0:
444,108,54754,1,0,0:0:0:0:
432,216,54893,2,0,B|478:249|478:298|451:335|405:347|363:329|339:286|362:234,2,270,8|0|0,0:0|0:0|0:0,0:0:0:0:
256,120,56004,5,2,0:0:0:0:
256,120,56143,1,2,0:0:0:0:
256,120,56282,2,0,B|256:260,2,135.000005149842,0|2|0,0:0|0:0|0:0,0:0:0:0:
84,64,57115,6,0,B|44:144,1,90,4|0,0:0|0:0,0:0:0:0:
128,172,57393,2,0,B|148:268,1,90,8|0,0:0|0:0,0:0:0:0:
216,316,57671,1,0,0:0:0:0:
364,216,57810,1,0,0:0:0:0:
308,316,57948,1,8,0:0:0:0:
272,216,58087,6,0,P|332:130|403:132,2,180
232,100,58782,1,0,0:0:0:0:
172,168,58921,1,0,0:0:0:0:
112,236,59060,2,0,P|87:198|84:152,1,90,8|0,0:0|0:0,0:0:0:0:
180,304,59337,6,0,B|244:308|256:272|272:232|340:240,1,180,0|8,0:0|0:0,0:0:0:0:
340,144,59754,2,0,B|272:152|256:111|244:76|180:80,1,180,0|0,0:0|0:0,0:0:0:0:
112,148,60171,2,0,B|96:192|112:236,1,90,8|0,0:0|0:0,0:0:0:0:
180,304,60448,5,0,0:0:0:0:
256,256,60587,1,2,0:0:0:0:
288,172,60726,2,0,B|300:128|348:104,1,90,8|0,0:0|0:0,0:0:0:0:
280,44,61004,2,0,B|200:104|192:196,1,180,2|8,0:0|0:0,0:0:0:0:
256,312,61421,5,0,0:0:0:0:
292,228,61560,2,0,B|372:156|452:228,1,180,0|8,0:0|0:0,0:0:0:0:
336,100,61976,2,0,B|255:172|175:100,1,180,0|0,0:0|0:0,0:0:0:0:
59,228,62393,2,0,B|140:156|220:228,1,180,8|0,0:0|0:0,0:0:0:0:
344,304,62810,5,0,0:0:0:0:
168,304,62948,1,8,0:0:0:0:
256,356,63087,1,0,0:0:0:0:
336,216,63226,2,0,B|292:152|336:92|336:92|300:64,1,180,0|8,0:0|0:0,0:0:0:0:
212,64,63643,2,0,B|176:92|176:92|220:152|176:216,1,180,2|0,0:0|0:0,0:0:0:0:
192,304,64060,6,0,B|236:284|256:244|256:244|276:284|320:304,1,180,8|0,0:0|0:0,0:0:0:0:
408,284,64476,1,0,0:0:0:0:
460,212,64615,2,0,B|464:160|436:128,1,90,8|0,0:0|0:0,0:0:0:0:
356,84,64893,5,0,0:0:0:0:
304,156,65032,1,2,0:0:0:0:
260,56,65171,1,8,0:0:0:0:
206,152,65310,1,0,0:0:0:0:
160,36,65448,2,0,B|120:60|72:60,1,90,2|0,0:0|0:0,0:0:0:0:
120,176,65726,2,0,B|160:152|208:152,1,90,8|0,0:0|0:0,0:0:0:0:
304,156,66004,6,0,B|404:164|444:256,1,180,4|8,0:0|0:0,0:0:0:0:
464,344,66421,2,0,B|364:336|324:244,1,180,0|0,0:0|0:0,0:0:0:0:
304,156,66837,1,8,0:0:0:0:
280,68,66976,2,0,P|224:52|192:52,1,90
60,144,67254,1,0,0:0:0:0:
60,144,67393,2,0,P|116:160|148:160,1,90,8|0,0:0|0:0,0:0:0:0:
324,221,67671,2,0,P|341:263|348:308,1,90
164,308,67948,2,0,P|172:260|188:220,1,90,8|0,0:0|0:0,0:0:0:0:
256,128,68226,6,0,B|256:312,1,180,0|8,0:0|0:0,0:0:0:0:
368,236,68643,2,0,P|380:160|324:72,1,180
256,128,69060,1,8,0:0:0:0:
183,75,69198,2,0,P|134:148|144:236,1,180,0|2,0:0|0:0,0:0:0:0:
216,296,69615,2,0,B|256:316|256:316|296:296,1,90,8|0,0:0|0:0,0:0:0:0:
256,212,69893,2,0,B|256:32,1,180,2|8,0:0|0:0,0:0:0:0:
432,236,70448,6,0,B|432:326,1,90,8|8,0:0|0:0,0:0:0:0:
352,176,70726,2,0,B|352:86,1,90,8|8,0:0|0:0,0:0:0:0:
244,84,71004,2,0,B|168:36,1,90,8|8,0:0|0:0,0:0:0:0:
36,64,71282,2,0,B|112:112,1,90,8|8,0:0|0:0,0:0:0:0:
124,200,71560,5,8,0:0:0:0:
176,276,71698,1,8,0:0:0:0:
256,320,71837,2,8,B|272:276|272:276|272:232,1,90
388,184,72115,5,8,0:0:0:0:
336,108,72254,1,8,0:0:0:0:
256,64,72393,2,8,B|240:108|240:108|240:152,1,90
332,204,72671,6,0,B|376:224,2,45,8|8|8,0:0|0:0|0:0,0:0:0:0:
180,204,72948,2,0,B|136:224,2,45,8|8|8,0:0|0:0|0:0,0:0:0:0:
336,276,73226,5,8,0:0:0:0:
318,296,73295,1,8,0:0:0:0:
295,310,73364,1,8,0:0:0:0:
269,318,73434,1,8,0:0:0:0:
242,318,73503,1,8,0:0:0:0:
216,310,73573,1,8,0:0:0:0:
194,296,73642,1,8,0:0:0:0:
176,276,73712,1,8,0:0:0:0:
164,252,73782,6,0,B|140:208|140:160,1,90,8|0,0:0|0:0,0:0:0:0:
440,44,74337,2,0,B|464:88|464:136,1,90,0|2,0:0|0:0,0:0:0:0:
376,108,74615,2,0,B|375:149|399:193,1,90
416,284,74893,6,0,B|344:348|248:312,1,180,4|8,0:0|0:0,0:0:0:0:
164,276,75310,1,0,0:0:0:0:
164,276,75448,2,0,B|116:252|100:212,1,90,0|0,0:0|0:0,0:0:0:0:
240,228,75726,1,8,0:0:0:0:
220,86,75865,1,0,0:0:0:0:
220,86,76004,6,0,B|268:110|284:148,1,90,0|0,0:0|0:0,0:0:0:0:
336,220,76282,1,8,0:0:0:0:
396,288,76421,2,0,B|432:320|480:320,1,90
476,184,76698,2,0,B|440:152|392:152,1,90,0|8,0:0|0:0,0:0:0:0:
304,144,76976,6,0,B|204:120|156:48,1,180,0|0,0:0|0:0,0:0:0:0:
144,168,77393,1,8,0:0:0:0:
212,228,77532,1,0,0:0:0:0:
212,228,77601,1,0,0:0:0:0:
212,228,77671,2,0,P|164:240|132:268,2,90,0|0|8,0:0|0:0|0:0,0:0:0:0:
300,256,78087,5,0,0:0:0:0:
300,256,78157,1,0,0:0:0:0:
300,256,78226,1,2,0:0:0:0:
232,316,78365,1,0,0:0:0:0:
212,228,78504,1,8,0:0:0:0:
300,256,78643,2,0,P|348:244|380:216,1,90,0|2,0:0|0:0,0:0:0:0:
304,164,78921,6,0,P|272:132|228:116,2,90,0|8|0,0:0|0:0|0:0,0:0:0:0:
300,256,79337,2,0,B|200:236|152:160,1,180,2|8,0:0|0:0,0:0:0:0:
100,88,79754,5,0,0:0:0:0:
64,172,79893,1,0,0:0:0:0:
154,161,80032,2,0,B|202:157|234:125,1,90,0|8,0:0|0:0,0:0:0:0:
304,68,80310,5,0,0:0:0:0:
220,36,80448,1,0,0:0:0:0:
234,125,80587,2,0,B|266:157|314:161,1,90,0|8,0:0|0:0,0:0:0:0:
388,212,80865,2,0,B|356:244|308:248,1,90,0|0,0:0|0:0,0:0:0:0:
176,276,81143,2,0,P|188:220|212:188,1,90,0|8,0:0|0:0,0:0:0:0:
288,152,81421,6,0,B|352:220|348:316,1,180
256,316,81837,2,0,B|208:304|180:272,1,90,8|0,0:0|0:0,0:0:0:0:
132,196,82115,1,0,0:0:0:0:
280,80,82254,1,0,0:0:0:0:
184,112,82393,1,8,0:0:0:0:
304,232,82532,1,0,0:0:0:0:
384,84,82671,5,8,0:0:0:0:
384,84,82810,1,8,0:0:0:0:
384,84,83087,1,8,0:0:0:0:
408,192,83226,2,0,B|452:192,2,45,0|8|0,0:0|0:0|0:0,0:0:0:0:
332,276,83504,2,0,B|300:312|256:324,1,90,8|8,0:0|0:0,0:0:0:0:
168,320,83782,6,0,B|112:236|168:152,1,180,4|8,0:0|0:0,0:0:0:0:
260,152,84198,2,0,B|260:196|220:232,1,90
68,232,84476,2,0,B|29:197|29:153,1,90,0|8,0:0|0:0,0:0:0:0:
104,100,84754,6,0,B|72:60|24:60,2,90
184,140,85171,1,8,0:0:0:0:
248,40,85310,2,0,B|292:32|340:40,1,90
392,144,85587,2,0,B|346:151|302:143,1,90,0|8,0:0|0:0,0:0:0:0:
184,140,85865,6,0,B|240:224|184:308,1,180
84,264,86282,1,8,0:0:0:0:
56,160,86421,1,0,0:0:0:0:
56,160,86490,1,0,0:0:0:0:
55,161,86560,1,0,0:0:0:0:
120,76,86698,2,0,B|156:44|204:52,1,90,0|8,0:0|0:0,0:0:0:0:
312,68,86976,5,0,0:0:0:0:
312,68,87046,1,0,0:0:0:0:
312,68,87115,1,2,0:0:0:0:
392,188,87254,1,0,0:0:0:0:
392,108,87393,1,8,0:0:0:0:
312,228,87532,2,0,B|228:284|144:228,1,180,2|0,0:0|0:0,0:0:0:0:
228,160,87948,2,0,B|228:72,2,90,8|0|2,0:0|0:0|0:0,0:0:0:0:
56,292,88504,1,8,0:0:0:0:
60,76,88782,6,0,B|124:104|112:148|100:192|160:216,1,180,0|8,0:0|0:0,0:0:0:0:
240,284,89198,1,0,0:0:0:0:
324,216,89337,2,0,B|381:192|369:148|357:104|421:76,1,180,0|8,0:0|0:0,0:0:0:0:
448,184,89754,2,0,B|388:188|376:144|360:100|296:104,1,180
187,101,90171,2,0,B|143:101|99:113,2,90,8|0|0,0:0|0:0|0:0,0:0:0:0:
187,317,90726,1,8,0:0:0:0:
403,317,91004,5,0,0:0:0:0:
443,209,91143,1,0,0:0:0:0:
403,101,91282,1,8,0:0:0:0:
295,61,91421,1,0,0:0:0:0:
187,101,91560,5,8,0:0:0:0:
187,101,91698,1,2,0:0:0:0:
295,159,91837,2,0,B|295:249,2,90,0|2|2,0:0|0:0|0:0,0:0:0:0:
187,73,92254,1,8,0:0:0:0:
115,189,92393,1,2,0:0:0:0:
115,189,92462,1,0,0:0:0:0:
115,189,92532,1,0,0:0:0:0:
256,192,92671,12,4,94893,0:0:0:0:
172,100,101560,6,0,B|256:44|340:100,2,180,4|8|0,0:0|0:0|0:0,0:0:0:0:
96,148,102254,1,0,0:0:0:0:
96,240,102393,1,8,0:0:0:0:
172,288,102532,2,0,B|256:344|340:288,1,180,0|0,0:0|0:0,0:0:0:0:
416,240,102948,1,8,0:0:0:0:
388,152,103087,2,0,B|360:112|316:100,1,90
232,128,103365,2,0,B|188:116|160:76,1,90,0|8,0:0|0:0,0:0:0:0:
72,56,103643,6,0,B|72:236,1,180,2|0,0:0|0:0,0:0:0:0:
164,236,104060,2,0,B|164:140,1,90,8|0,0:0|0:0,0:0:0:0:
236,92,104337,1,0,0:0:0:0:
324,68,104476,1,0,0:0:0:0:
396,120,104615,1,8,0:0:0:0:
408,208,104754,6,0,B|388:300|288:332,1,180,0|2,0:0|0:0,0:0:0:0:
200,332,105171,2,0,B|108:332,2,90,8|0|2,0:0|0:0|0:0,0:0:0:0:
200,180,105587,1,0,0:0:0:0:
252,256,105726,2,0,B|164:256,1,90,8|0,0:0|0:0,0:0:0:0:
116,180,106004,6,0,B|144:80|236:60,2,180,2|8|0,0:0|0:0|0:0,0:0:0:0:
136,268,106698,1,0,0:0:0:0:
216,308,106837,1,8,0:0:0:0:
296,268,106976,2,0,B|384:228|420:140,1,180
268,180,107393,2,0,B|312:164|332:120,1,90,8|0,0:0|0:0,0:0:0:0:
244,92,107671,1,0,0:0:0:0:
180,212,107810,6,0,B|204:256|248:268,2,90,0|8|0,0:0|0:0|0:0,0:0:0:0:
268,180,108226,2,0,B|316:180|344:228|344:228|428:208,1,180,2|8,0:0|0:0,0:0:0:0:
384,128,108643,1,0,0:0:0:0:
428,48,108782,2,0,B|344:28|344:28|316:76|268:76,1,180,0|8,0:0|0:0,0:0:0:0:
180,88,109198,1,0,0:0:0:0:
112,148,109337,6,0,B|76:184|76:232,1,90,0|2,0:0|0:0,0:0:0:0:
168,316,109615,2,0,B|204:280|204:232,1,90,8|0,0:0|0:0,0:0:0:0:
292,144,109893,1,8,0:0:0:0:
412,104,110032,1,8,0:0:0:0:
292,144,110171,1,2,0:0:0:0:
412,184,110310,1,8,0:0:0:0:
412,184,110448,1,2,0:0:0:0:
412,184,110726,6,0,B|368:268|264:280,1,180,4|0,0:0|0:0,0:0:0:0:
180,268,111143,1,0,0:0:0:0:
136,188,111282,1,8,0:0:0:0:
180,108,111421,2,0,B|260:180|340:108,1,180
260,52,111837,1,8,0:0:0:0:
260,52,111976,2,0,B|260:232,1,180
344,264,112393,1,8,0:0:0:0:
340,172,112532,6,0,B|260:100|180:172,1,180,2|0,0:0|0:0,0:0:0:0:
96,136,112948,2,0,B|80:96|87:47,1,90,8|0,0:0|0:0,0:0:0:0:
100,228,113226,1,0,0:0:0:0:
100,228,113365,2,0,B|104:272|76:312,1,90,0|8,0:0|0:0,0:0:0:0:
168,312,113643,1,0,0:0:0:0:
248,268,113782,6,0,B|296:260|332:220,1,90,0|2,0:0|0:0,0:0:0:0:
296,120,114060,2,0,B|248:128|212:168,1,90,8|0,0:0|0:0,0:0:0:0:
326,226,114337,2,0,B|363:195|374:142,1,90,2|0,0:0|0:0,0:0:0:0:
218,162,114615,2,0,B|180:192|169:245,1,90,8|0,0:0|0:0,0:0:0:0:
124,160,114893,6,0,B|168:76|264:56,2,180,2|8|0,0:0|0:0|0:0,0:0:0:0:
100,248,115587,1,0,0:0:0:0:
178,285,115726,2,0,B|156:328|108:336,1,90,8|0,0:0|0:0,0:0:0:0:
268,264,116004,5,0,0:0:0:0:
356,276,116143,1,0,0:0:0:0:
232,181,116282,1,8,0:0:0:0:
212,335,116421,1,0,0:0:0:0:
356,276,116560,2,0,B|440:244|388:176|464:140,1,180,0|8,0:0|0:0,0:0:0:0:
352,64,116976,1,0,0:0:0:0:
252,104,117115,6,0,B|164:104|80:44,1,180,2|8,0:0|0:0,0:0:0:0:
136,172,117532,2,0,B|224:172|308:232,1,180
420,296,117948,2,0,B|420:208,1,90,8|0,0:0|0:0,0:0:0:0:
368,80,118226,5,8,0:0:0:0:
368,80,118365,1,8,0:0:0:0:
217,21,118504,1,2,0:0:0:0:
217,21,118573,2,0,L|248:105,1,90,8|8,0:0|0:0,0:0:0:0:
196,148,118782,2,0,B|212:189,3,45,2|8|0|8,0:0|0:0|0:0|0:0,0:0:0:0:
159,232,119060,2,0,P|167:276|198:307,1,90,8|8,0:0|0:0,0:0:0:0:
288,316,119337,6,0,B|472:316,2,180,4|8|0,0:0|0:0|0:0,0:0:0:0:
244,236,120032,1,0,0:0:0:0:
280,152,120171,1,8,0:0:0:0:
280,152,120310,2,0,B|248:116|204:108,1,90,0|0,0:0|0:0,0:0:0:0:
126,153,120587,1,0,0:0:0:0:
80,76,120726,1,8,0:0:0:0:
152,280,121004,5,0,0:0:0:0:
224,76,121282,1,8,0:0:0:0:
316,76,121421,1,0,0:0:0:0:
408,76,121560,6,0,B|456:152|456:152|412:176|392:216,1,180,0|8,0:0|0:0,0:0:0:0:
456,276,121976,2,0,B|416:312|360:308|320:280|312:236,1,180
272,152,122393,2,0,B|236:176|220:224|220:224|204:176|168:152,2,180,8|2|8,0:0|0:0|0:0,0:0:0:0:
356,120,123087,1,0,0:0:0:0:
436,164,123226,2,0,B|464:204|444:248,1,90,2|0,0:0|0:0,0:0:0:0:
356,120,123504,5,8,0:0:0:0:
272,84,123643,1,0,0:0:0:0:
183,84,123782,2,0,P|137:155|182:227,1,180,0|8,0:0|0:0,0:0:0:0:
288,300,124198,2,0,B|296:328|276:348|228:364|176:348|160:328|168:300,1,180
272,228,124615,2,0,P|317:155|271:84,1,180,8|0,0:0|0:0,0:0:0:0:
360,64,125032,5,0,0:0:0:0:
396,156,125171,1,8,0:0:0:0:
360,248,125310,1,0,0:0:0:0:
396,156,125448,2,0,B|216:156,1,180,0|8,0:0|0:0,0:0:0:0:
280,68,125865,6,0,B|280:248,1,180,2|0,0:0|0:0,0:0:0:0:
220,316,126282,2,0,B|184:292|160:248,1,90,8|0,0:0|0:0,0:0:0:0:
88,192,126560,1,0,0:0:0:0:
160,136,126698,2,0,B|184:92|220:68,2,90,0|8|0,0:0|0:0|0:0,0:0:0:0:
228,192,127115,5,0,0:0:0:0:
296,264,127254,1,2,0:0:0:0:
376,136,127393,2,0,B|355:91|319:67,1,90,8|0,0:0|0:0,0:0:0:0:
191,255,127671,2,0,B|212:300|248:324,1,90,2|0,0:0|0:0,0:0:0:0:
336,204,127948,1,8,0:0:0:0:
272,128,128087,1,0,0:0:0:0:
180,96,128226,6,0,B|80:116|64:220,1,180,4|8,0:0|0:0,0:0:0:0:
160,316,128643,2,0,B|260:296|276:192,1,180,0|0,0:0|0:0,0:0:0:0:
308,108,129060,1,8,0:0:0:0:
388,68,129198,2,0,B|436:72|468:112,2,90
388,160,129615,1,8,0:0:0:0:
388,252,129754,1,0,0:0:0:0:
388,344,129893,2,0,B|340:340|308:300,1,90
272,220,130171,2,0,B|224:224|192:264,1,90,8|0,0:0|0:0,0:0:0:0:
116,304,130448,6,0,B|60:220|116:136,1,180,0|8,0:0|0:0,0:0:0:0:
230,45,130865,2,0,B|286:129|230:213,1,180
364,268,131282,1,8,0:0:0:0:
364,268,131421,2,0,B|408:288|432:328,1,90
360,176,131698,2,0,B|416:192|438:218,1,90,2|8,0:0|0:0,0:0:0:0:
332,88,131976,1,0,0:0:0:0:
332,88,132115,2,0,B|380:92|417:114,1,90,2|0,0:0|0:0,0:0:0:0:
252,124,132393,2,0,B|204:128|167:150,1,90,8|0,0:0|0:0,0:0:0:0:
120,230,132671,6,0,B|120:320,1,90,8|8,0:0|0:0,0:0:0:0:
304,320,132948,2,0,B|304:230,1,90,8|8,0:0|0:0,0:0:0:0:
208,230,133226,2,0,B|208:320,1,90,8|8,0:0|0:0,0:0:0:0:
392,320,133504,2,0,B|392:230,1,90,8|8,0:0|0:0,0:0:0:0:
388,140,133782,5,8,0:0:0:0:
300,72,133921,2,0,P|256:64|212:72,1,90,8|8,0:0|0:0,0:0:0:0:
124,140,134198,1,8,0:0:0:0:
180,232,134337,5,8,0:0:0:0:
300,311,134476,2,0,P|256:320|212:312,1,90,8|8,0:0|0:0,0:0:0:0:
332,232,134754,1,8,0:0:0:0:
256,104,134893,6,8,B|256:60,2,45,8|8|8,0:0|0:0|0:0,0:0:0:0:
256,280,135171,2,8,B|256:324,2,45
158,192,135448,5,8,0:0:0:0:
186,192,135518,1,8,0:0:0:0:
214,192,135587,1,8,0:0:0:0:
242,192,135657,1,8,0:0:0:0:
270,192,135726,1,8,0:0:0:0:
298,192,135796,1,8,0:0:0:0:
324,192,135865,1,8,0:0:0:0:
352,192,135935,1,8,0:0:0:0:
380,192,136004,6,0,L|474:192,1,90,8|0,0:0|0:0,0:0:0:0:
43,282,136560,1,0,0:0:0:0:
16,204,136698,2,0,P|66:200|98:221,1,90,2|0,0:0|0:0,0:0:0:0:
172,272,136976,1,0,0:0:0:0:
172,272,137115,6,0,B|256:328|340:272,1,180,4|8,0:0|0:0,0:0:0:0:
408,212,137532,1,0,0:0:0:0:
376,128,137671,1,0,0:0:0:0:
308,188,137810,2,0,P|260:216|224:208,1,90,0|8,0:0|0:0,0:0:0:0:
148,172,138087,1,0,0:0:0:0:
148,172,138226,2,0,B|116:140|64:152,1,90
48,240,138504,1,8,0:0:0:0:
212,100,138643,6,0,P|128:60|40:64,1,180
48,240,139060,1,8,0:0:0:0:
48,240,139198,2,0,P|132:280|220:276,1,180
212,100,139615,5,8,0:0:0:0:
148,196,139754,1,0,0:0:0:0:
308,220,139893,1,0,0:0:0:0:
308,220,140032,2,0,L|276:132,1,90,0|8,0:0|0:0,0:0:0:0:
144,104,140310,5,0,0:0:0:0:
60,172,140448,1,0,0:0:0:0:
90,276,140587,1,2,0:0:0:0:
198,276,140726,1,8,0:0:0:0:
228,172,140865,2,0,B|257:135|266:89|266:89|298:120|348:128,1,180,2|0,0:0|0:0,0:0:0:0:
452,116,141282,5,8,0:0:0:0:
412,208,141421,1,0,0:0:0:0:
340,276,141560,2,0,B|312:240|316:192|316:192|228:172,1,180,2|8,0:0|0:0,0:0:0:0:
198,276,141976,5,0,0:0:0:0:
92,308,142115,1,0,0:0:0:0:
96,200,142254,2,0,P|84:156|100:116,1,90,0|8,0:0|0:0,0:0:0:0:
192,56,142532,6,0,B|232:32|280:48,1,90
368,72,142810,1,0,0:0:0:0:
436,128,142948,1,8,0:0:0:0:
436,296,143087,6,0,B|379:212|436:127,1,180
368,72,143504,1,8,0:0:0:0:
278,47,143643,6,0,B|232:32|192:56,1,90
99,116,143921,2,0,P|83:157|96:200,1,90,0|8,0:0|0:0,0:0:0:0:
208,288,144198,1,0,0:0:0:0:
308,216,144337,1,0,0:0:0:0:
408,272,144476,5,0,0:0:0:0:
308,184,144615,1,8,0:0:0:0:
208,256,144754,1,0,0:0:0:0:
308,148,144893,5,8,0:0:0:0:
308,148,145032,1,8,0:0:0:0:
308,148,145310,1,8,0:0:0:0:
208,92,145448,2,0,B|200:48,2,45,0|8|0,0:0|0:0|0:0,0:0:0:0:
116,168,145726,1,8,0:0:0:0:
292,264,145865,1,8,0:0:0:0:
156,276,146004,6,0,B|212:352|316:336,1,180,4|8,0:0|0:0,0:0:0:0:
396,296,146421,1,0,0:0:0:0:
396,296,146560,2,0,B|412:252|396:204,1,90,0|0,0:0|0:0,0:0:0:0:
301,66,146837,2,0,B|285:110|299:154,1,90,8|0,0:0|0:0,0:0:0:0:
192,304,147115,5,0,0:0:0:0:
192,304,147254,2,0,B|208:260|192:212,1,90,0|8,0:0|0:0,0:0:0:0:
96,88,147532,2,0,B|48:176|96:260,1,180
304,260,147948,1,8,0:0:0:0:
304,260,148087,2,0,B|352:176|304:88,1,180,0|0,0:0|0:0,0:0:0:0:
200,56,148504,5,8,0:0:0:0:
200,200,148643,1,0,0:0:0:0:
200,128,148782,1,0,0:0:0:0:
200,272,148921,2,0,B|200:364,2,90,0|8|0,0:0|0:0|0:0,0:0:0:0:
92,176,149337,6,0,B|92:132|112:88,1,90,2|0,0:0|0:0,0:0:0:0:
288,92,149615,2,0,B|308:136|308:180,1,90,8|0,0:0|0:0,0:0:0:0:
396,304,149893,1,2,0:0:0:0:
416,196,150032,1,0,0:0:0:0:
288,284,150171,1,8,0:0:0:0:
308,179,150310,2,0,B|240:179|220:252|143:233,1,180,0|0,0:0|0:0,0:0:0:0:
76,172,150726,5,8,0:0:0:0:
112,88,150865,1,0,0:0:0:0:
200,60,151004,2,0,B|288:44,1,90
388,136,151282,2,0,B|300:120,1,90,8|0,0:0|0:0,0:0:0:0:
212,148,151560,2,0,B|256:240|364:220,1,180,0|8,0:0|0:0,0:0:0:0:
212,320,151976,2,0,B|168:228|60:248,1,180,0|0,0:0|0:0,0:0:0:0:
64,48,152393,5,8,0:0:0:0:
63,136,152532,2,0,B|168:156|212:64,1,180,0|0,0:0|0:0,0:0:0:0:
300,64,152948,2,0,B|348:80|376:120,1,90,8|0,0:0|0:0,0:0:0:0:
308,180,153226,2,0,B|340:216|332:268,1,90
244,276,153504,2,0,B|236:320|188:340,2,90,8|0|8,0:0|0:0|0:0,0:0:0:0:
332,264,153921,5,0,0:0:0:0:
308,180,154060,2,0,L|372:116,1,90
300,64,154337,2,0,B|208:40|120:64,1,180,0|2,0:0|0:0,0:0:0:0:
256,192,154893,12,4,157115,0:0:0:0:
128,84,163782,6,0,B|212:28|296:84,2,180,4|8|0,0:0|0:0|0:0,0:0:0:0:
72,156,164476,1,2,0:0:0:0:
84,296,164615,2,0,B|124:272|132:224,1,90,8|0,0:0|0:0,0:0:0:0:
220,192,164893,5,0,0:0:0:0:
220,192,165032,1,0,0:0:0:0:
336,284,165171,2,0,L|336:192,1,90,8|0,0:0|0:0,0:0:0:0:
336,68,165448,2,0,L|244:68,1,90,2|0,0:0|0:0,0:0:0:0:
120,68,165726,2,0,L|120:159,1,90,8|0,0:0|0:0,0:0:0:0:
124,284,166004,6,0,B|224:260|252:168,1,180,2|8,0:0|0:0,0:0:0:0:
268,296,166421,2,0,B|340:224|344:136,1,180,2|0,0:0|0:0,0:0:0:0:
288,68,166837,1,8,0:0:0:0:
200,48,166976,1,2,0:0:0:0:
132,108,167115,6,0,B|68:172,1,90,0|2,0:0|0:0,0:0:0:0:
16,316,167393,2,0,B|80:252,1,90,8|2,0:0|0:0,0:0:0:0:
196,152,167671,2,0,B|260:216,1,90,2|0,0:0|0:0,0:0:0:0:
336,312,167948,1,8,0:0:0:0:
336,312,168226,6,0,B|252:368|168:312,1,180,2|8,0:0|0:0,0:0:0:0:
76,200,168643,2,0,B|160:144|244:200,1,180,2|0,0:0|0:0,0:0:0:0:
332,224,169060,2,0,B|376:236|420:224,1,90,8|0,0:0|0:0,0:0:0:0:
376,144,169337,5,0,0:0:0:0:
300,92,169476,2,0,P|264:72|216:72,1,90,0|8,0:0|0:0,0:0:0:0:
196,160,169754,1,0,0:0:0:0:
132,92,169893,2,0,P|168:72|216:72,1,90,2|0,0:0|0:0,0:0:0:0:
256,228,170171,2,0,B|216:256|170:248,1,90,8|0,0:0|0:0,0:0:0:0:
112,164,170448,5,8,0:0:0:0:
112,164,170587,1,8,0:0:0:0:
216,72,170726,1,8,0:0:0:0:
216,72,170865,1,8,0:0:0:0:
320,164,171004,1,8,0:0:0:0:
320,164,171143,1,8,0:0:0:0:
216,256,171282,1,8,0:0:0:0:
216,256,171421,1,8,0:0:0:0:
216,72,171560,6,8,B|264:72,2,45
216,256,171837,2,8,B|172:256,2,45
392,304,172115,5,8,0:0:0:0:
404,280,172185,1,8,0:0:0:0:
416,256,172254,1,8,0:0:0:0:
428,232,172323,1,8,0:0:0:0:
440,208,172393,2,0,L|440:164,4,45,8|8|8|8|4,0:0|0:0|0:0|0:0|0:0,0:0:0:0:
144,76,177115,6,0,B|104:104|104:152,1,90,4|8,0:0|0:0,0:0:0:0:
184,300,177393,2,0,B|224:272|224:224,1,90,8|8,0:0|0:0,0:0:0:0:
276,76,177671,1,8,0:0:0:0:
336,196,177810,1,8,0:0:0:0:
464,156,177948,1,8,0:0:0:0:
404,276,178087,1,8,0:0:0:0:
332,356,178226,6,0,B|316:312|276:288,1,90,8|8,0:0|0:0,0:0:0:0:
156,280,178504,2,0,B|200:264|224:224,1,90,8|8,0:0|0:0,0:0:0:0:
396,168,178782,2,0,B|352:184|328:224,1,90,8|8,0:0|0:0,0:0:0:0:
220,96,179060,2,0,B|236:140|276:164,1,90,8|8,0:0|0:0,0:0:0:0:
120,232,179337,6,0,B|96:196|88:148,1,90,8|8,0:0|0:0,0:0:0:0:
212,100,179615,2,0,B|248:76|296:68,1,90,8|8,0:0|0:0,0:0:0:0:
376,148,179893,2,0,B|400:184|408:232,1,90,8|8,0:0|0:0,0:0:0:0:
300,284,180171,2,0,B|264:308|216:316,1,90,8|8,0:0|0:0,0:0:0:0:
208,224,180448,6,0,B|176:188|124:180,1,90,8|8,0:0|0:0,0:0:0:0:
124,284,180726,1,8,0:0:0:0:
192,128,180865,1,8,0:0:0:0:
304,224,181004,2,0,B|336:188|388:180,1,90,8|8,0:0|0:0,0:0:0:0:
388,284,181282,1,8,0:0:0:0:
320,128,181421,1,8,0:0:0:0:
176,48,181560,6,8,L|128:64,2,45,8|8|8,0:0|0:0|0:0,0:0:0:0:
336,48,181837,2,8,L|384:64,2,45,8|8|8,0:0|0:0|0:0,0:0:0:0:
168,204,182116,5,8,0:0:0:0:
183,226,182185,1,8,0:0:0:0:
203,244,182254,1,8,0:0:0:0:
228,256,182324,1,8,0:0:0:0:
255,259,182393,1,8,0:0:0:0:
282,256,182463,1,8,0:0:0:0:
307,244,182532,1,8,0:0:0:0:
328,227,182602,1,8,0:0:0:0:
343,204,182672,6,0,P|350:155|336:112,1,90,4|0,0:1|0:0,0:0:0:0:
68,115,183226,1,0,0:0:0:0:
28,196,183365,1,2,0:0:0:0:
52,285,183504,1,0,0:0:0:0:
128,336,183643,1,0,0:0:0:0:
208,292,183782,6,0,B|268:212|368:240,1,180,4|8,0:0|0:0,0:0:0:0:
428,176,184198,2,0,B|464:144|468:96,2,90
376,100,184615,1,8,0:0:0:0:
288,76,184754,2,0,B|240:72|200:96,1,90
132,156,185032,1,0,0:0:0:0:
124,244,185171,1,8,0:0:0:0:
192,304,185310,2,0,B|228:336|276:336,1,90
408,308,185587,2,0,B|372:276|324:276,1,90,0|8,0:0|0:0,0:0:0:0:
200,228,185865,6,0,B|284:192|376:208,1,180
332,128,186282,1,8,0:0:0:0:
388,56,186421,1,0,0:0:0:0:
388,56,186490,1,0,0:0:0:0:
388,56,186560,2,0,B|420:88|424:136,1,90,0|0,0:0|0:0,0:0:0:0:
392,220,186837,1,8,0:0:0:0:
320,276,186976,5,0,0:0:0:0:
320,276,187046,1,0,0:0:0:0:
320,276,187115,2,0,B|288:308|232:300,1,90,0|2,0:0|0:0,0:0:0:0:
192,172,187393,2,0,B|224:140|280:148,2,90,8|2|2,0:0|0:0|0:0,0:0:0:0:
72,64,187810,5,0,0:0:0:0:
32,144,187948,1,8,0:0:0:0:
68,228,188087,1,0,0:0:0:0:
156,248,188226,2,0,B|212:240|236:280|236:280|320:244,1,180,2|8,0:0|0:0,0:0:0:0:
352,164,188643,1,0,0:0:0:0:
352,164,188782,2,0,B|320:80,2,90,0|0|8,0:0|0:0|0:0,0:0:0:0:
248,60,189198,5,0,0:0:0:0:
248,60,189337,2,0,B|216:144,1,90,0|0,0:0|0:0,0:0:0:0:
184,228,189615,1,8,0:0:0:0:
252,288,189754,2,0,B|340:344|420:288,1,180
384,204,190171,1,8,0:0:0:0:
416,120,190310,2,0,B|335:63|247:119,1,180
78,64,190726,6,0,B|164:92,1,90,8|0,0:0|0:0,0:0:0:0:
78,175,191004,2,0,B|168:172,1,90
109,283,191282,2,0,B|192:248,1,90,8|0,0:0|0:0,0:0:0:0:
192,248,191560,5,8,0:0:0:0:
192,248,191698,1,8,0:0:0:0:
192,248,191976,1,8,0:0:0:0:
252,164,192115,2,0,B|296:160,2,45,0|8|0,0:0|0:0|0:0,0:0:0:0:
292,244,192393,1,8,0:0:0:0:
184,100,192532,1,8,0:0:0:0:
356,64,192671,6,0,B|428:132|384:228,1,180,4|8,0:0|0:0,0:0:0:0:
336,304,193087,1,0,0:0:0:0:
248,324,193226,2,0,B|196:324|160:280,1,90
100,228,193504,1,8,0:0:0:0:
156,160,193643,5,0,0:0:0:0:
168,72,193782,1,0,0:0:0:0:
240,124,193921,1,0,0:0:0:0:
156,160,194060,1,8,0:0:0:0:
100,228,194198,2,0,B|68:264|24:276,1,90
172,276,194476,2,0,B|200:312|248:324,1,90,0|8,0:0|0:0,0:0:0:0:
392,340,194754,6,0,B|420:296|392:256|392:256|420:216|392:172,1,180
324,112,195171,1,8,0:0:0:0:
148,103,195310,1,0,0:0:0:0:
228,32,195448,1,0,0:0:0:0:
228,148,195587,1,0,0:0:0:0:
248,264,195726,1,8,0:0:0:0:
248,264,195865,6,0,B|268:304|308:332,2,90,0|2|0,0:0|0:0|0:0,0:0:0:0:
160,244,196282,1,8,0:0:0:0:
92,184,196421,2,0,B|88:136|108:92|144:60|192:44,1,180,2|0,0:0|0:0,0:0:0:0:
224,176,196837,1,8,0:0:0:0:
358,165,196976,2,0,B|362:213|342:257|306:289|264:304,1,180,2|0,0:0|0:0,0:0:0:0:
172,304,197393,5,8,0:0:0:0:
92,260,197532,1,0,0:0:0:0:
92,168,197671,2,0,B|88:76,1,90
256,32,197948,2,0,B|260:124,1,90,8|0,0:0|0:0,0:0:0:0:
172,220,198226,6,0,P|216:236|252:260,1,90
421,319,198504,1,8,0:0:0:0:
421,319,198643,2,0,B|376:320|336:296,1,90
421,180,198921,1,0,0:0:0:0:
421,180,199060,2,0,B|376:180|336:204,1,90,8|0,0:0|0:0,0:0:0:0:
296,124,199337,5,8,0:0:0:0:
215,66,199476,1,8,0:0:0:0:
128,116,199615,1,8,0:0:0:0:
108,212,199754,1,8,0:0:0:0:
152,312,199893,2,0,B|196:292|204:244,1,90,8|8,0:0|0:0,0:0:0:0:
324,206,200171,2,0,B|280:228|272:274,1,90,8|8,0:0|0:0,0:0:0:0:
404,296,200448,6,8,B|440:328,2,45
444,164,200726,2,8,B|492:156,2,45
298,197,201004,1,8,0:0:0:0:
272,188,201073,1,8,0:0:0:0:
246,179,201142,1,8,0:0:0:0:
221,170,201212,1,8,0:0:0:0:
195,161,201281,1,8,0:0:0:0:
170,153,201351,1,8,0:0:0:0:
144,143,201421,2,0,L|98:126,2,45,8|8|4,0:0|0:0|0:0,0:0:0:0:
256,192,201629,12,8,202948,0:0:0:0:
136,308,203226,6,0,P|104:204|136:148,1,180,2|8,0:0|0:0,0:0:0:0:
376,76,203782,2,0,P|408:180|376:236,1,180,2|8,0:0|0:0,0:0:0:0:
204,288,204337,5,2,0:0:0:0:
176,204,204476,1,0,0:0:0:0:
208,120,204615,1,8,0:0:0:0:
348,284,204893,6,0,B|388:264|388:264|404:220,1,90,0|2,0:0|0:0,0:0:0:0:
396,112,205171,2,0,B|356:132|356:132|340:176,1,90,8|0,0:0|0:0,0:0:0:0:
252,236,205448,2,0,L|156:236,2,90,2|0|8,0:0|0:0|0:0,0:0:0:0:
256,192,206004,12,8,207948,0:0:0:0:
92,256,208226,6,0,B|121:292|172:288,1,90,2|0,0:0|0:0,0:0:0:0:
260,272,208504,1,8,0:0:0:0:
340,228,208643,1,0,0:0:0:0:
392,156,208782,2,0,B|416:116|396:68,1,90,0|2,0:0|0:0,0:0:0:0:
264,40,209060,2,0,B|240:80|260:128,1,90,8|0,0:0|0:0,0:0:0:0:
340,228,209337,5,8,0:0:0:0:
340,228,209476,1,8,0:0:0:0:
340,228,209754,1,8,0:0:0:0:
248,228,209893,1,0,0:0:0:0:
212,220,209962,1,8,0:0:0:0:
180,204,210032,2,0,B|140:176|132:132,2,90,0|8|0,0:0|0:0|0:0,0:0:0:0:
256,92,210448,5,4,0:0:0:0:
