osu file format v14

[General]
AudioFilename: Connect.mp3
AudioLeadIn: 0
PreviewTime: 66311
Countdown: 0
SampleSet: Normal
StackLeniency: 0.7
Mode: 1
LetterboxInBreaks: 0
WidescreenStoryboard: 0

[Editor]
Bookmarks: 23196,45139,67082,89025,110968,143882,176796,198739,234396
DistanceSpacing: 1
BeatDivisor: 4
GridSize: 32
TimelineZoom: 1

[Metadata]
Title:Connect
TitleUnicode:コネクト
Artist:ClariS
ArtistUnicode:ClariS
Creator:Nardoxyribonucleic
Version:Oni
Source:魔法少女まどか☆マギカ
Tags:Taiko Mahou Shoujo Puella Magi Madoka Magica Opening Clara Alice JUDYDANNY Collab
BeatmapID:1142412
BeatmapSetID:539122

[Difficulty]
HPDrainRate:6
CircleSize:5
OverallDifficulty:6
ApproachRate:7
SliderMultiplier:1.4
SliderTickRate:1

[Events]
//Background and Video events
0,0,"madoka3.jpg",0,80
//Break Periods
//Storyboard Layer 0 (Background)
//Storyboard Layer 1 (Fail)
//Storyboard Layer 2 (Pass)
//Storyboard Layer 3 (Foreground)
//Storyboard Sound Samples

[TimingPoints]
1254,342.857142857143,4,1,0,50,1,0
12225,-100,4,1,0,80,0,0
23196,-100,4,1,0,70,0,0
45139,-100,4,1,0,80,0,0
67082,-100,4,1,0,90,0,1
87654,-100,4,1,0,75,0,0
89025,-100,4,1,0,80,0,0
99996,-100,4,1,0,70,0,0
110968,-100,4,1,0,80,0,0
121939,-100,4,1,0,85,0,0
143882,-100,4,1,0,90,0,1
164454,-100,4,1,0,75,0,0
165825,-100,4,1,0,70,0,0
176796,-100,4,1,0,85,0,0
198739,-100,4,1,0,50,0,0
206968,-100,4,1,0,60,0,0
208339,-100,4,1,0,70,0,0
209711,-100,4,1,0,80,0,0
215196,-100,4,1,0,90,0,1
233025,-100,4,1,0,75,0,0
234396,-100,4,1,0,80,0,0
259082,-100,4,1,0,72,0,0
259768,-100,4,1,0,64,0,0
260454,-100,4,1,0,56,0,0
261139,-100,4,1,0,48,0,0
261825,-100,4,1,0,40,0,0
262511,-100,4,1,0,32,0,0
263196,-100,4,1,0,24,0,0
263882,-100,4,1,0,16,0,0
264568,-100,4,1,0,8,0,0

[HitObjects]
256,192,568,5,8,0:0:0:0:
256,192,739,1,0,0:0:0:0:
256,192,911,1,0,0:0:0:0:
256,192,1082,1,8,0:0:0:0:
256,192,1254,1,8,0:0:0:0:
256,192,1768,1,0,0:0:0:0:
256,192,1939,1,8,0:0:0:0:
256,192,2111,1,8,0:0:0:0:
256,192,2454,1,0,0:0:0:0:
256,192,2625,1,8,0:0:0:0:
256,192,2796,1,8,0:0:0:0:
256,192,3139,1,8,0:0:0:0:
256,192,3482,1,0,0:0:0:0:
256,192,3825,1,0,0:0:0:0:
256,192,4511,1,0,0:0:0:0:
256,192,4682,1,0,0:0:0:0:
256,192,4854,1,8,0:0:0:0:
256,192,5196,1,0,0:0:0:0:
256,192,5368,1,8,0:0:0:0:
256,192,5539,1,8,0:0:0:0:
256,192,5711,1,0,0:0:0:0:
256,192,5882,1,8,0:0:0:0:
256,192,6225,1,0,0:0:0:0:
256,192,6396,1,0,0:0:0:0:
256,192,6568,1,8,0:0:0:0:
256,192,6739,1,8,0:0:0:0:
256,192,7254,1,0,0:0:0:0:
256,192,7425,1,8,0:0:0:0:
256,192,7596,1,8,0:0:0:0:
256,192,7939,1,0,0:0:0:0:
256,192,8111,1,8,0:0:0:0:
256,192,8282,1,8,0:0:0:0:
256,192,8625,1,8,0:0:0:0:
256,192,8968,1,0,0:0:0:0:
256,192,9311,1,0,0:0:0:0:
256,192,10339,1,0,0:0:0:0:
256,192,10511,1,0,0:0:0:0:
256,192,10682,1,8,0:0:0:0:
256,192,12225,1,4,0:0:0:0:
256,192,12568,1,8,0:0:0:0:
256,192,12739,1,0,0:0:0:0:
256,192,12825,1,0,0:0:0:0:
256,192,12911,1,0,0:0:0:0:
256,192,13082,1,0,0:0:0:0:
256,192,13254,1,8,0:0:0:0:
256,192,13425,1,4,0:0:0:0:
256,192,13768,1,0,0:0:0:0:
256,192,13939,1,8,0:0:0:0:
256,192,14111,1,0,0:0:0:0:
256,192,14196,1,0,0:0:0:0:
256,192,14282,1,8,0:0:0:0:
256,192,14454,1,0,0:0:0:0:
256,192,14625,1,8,0:0:0:0:
256,192,14796,1,8,0:0:0:0:
256,192,14968,1,4,0:0:0:0:
256,192,15311,1,8,0:0:0:0:
256,192,15482,1,0,0:0:0:0:
256,192,15568,1,0,0:0:0:0:
256,192,15654,1,0,0:0:0:0:
256,192,15825,1,8,0:0:0:0:
256,192,15911,1,8,0:0:0:0:
256,192,15996,1,0,0:0:0:0:
256,192,16168,1,12,0:0:0:0:
256,192,16511,1,0,0:0:0:0:
256,192,16682,1,8,0:0:0:0:
256,192,16854,1,0,0:0:0:0:
256,192,16939,1,0,0:0:0:0:
256,192,17025,1,8,0:0:0:0:
256,192,17196,1,0,0:0:0:0:
256,192,17368,1,8,0:0:0:0:
256,192,17454,1,8,0:0:0:0:
256,192,17539,1,8,0:0:0:0:
256,192,17711,1,4,0:0:0:0:
256,192,18054,1,8,0:0:0:0:
256,192,18225,1,0,0:0:0:0:
256,192,18311,1,0,0:0:0:0:
256,192,18396,1,0,0:0:0:0:
256,192,18568,1,0,0:0:0:0:
256,192,18739,1,8,0:0:0:0:
256,192,18911,1,4,0:0:0:0:
256,192,19254,1,0,0:0:0:0:
256,192,19425,1,8,0:0:0:0:
256,192,19596,1,0,0:0:0:0:
256,192,19682,1,0,0:0:0:0:
256,192,19768,1,8,0:0:0:0:
256,192,19939,1,0,0:0:0:0:
256,192,20111,1,8,0:0:0:0:
256,192,20282,1,8,0:0:0:0:
256,192,20454,1,4,0:0:0:0:
256,192,20796,1,0,0:0:0:0:
256,192,20968,1,8,0:0:0:0:
256,192,21139,1,8,0:0:0:0:
256,192,21311,1,8,0:0:0:0:
256,192,21482,1,8,0:0:0:0:
256,192,21654,1,0,0:0:0:0:
256,192,21825,1,12,0:0:0:0:
256,192,22339,1,0,0:0:0:0:
256,192,22425,1,0,0:0:0:0:
256,192,22511,1,8,0:0:0:0:
256,192,22682,1,0,0:0:0:0:
256,192,22854,1,0,0:0:0:0:
192,128,23196,5,4,0:0:0:0:
192,128,23539,1,2,0:0:0:0:
192,128,23882,1,2,0:0:0:0:
192,128,24054,1,0,0:0:0:0:
192,128,24225,1,2,0:0:0:0:
192,128,24396,1,0,0:0:0:0:
192,128,24568,1,2,0:0:0:0:
192,128,24911,1,0,0:0:0:0:
192,128,25082,1,2,0:0:0:0:
192,128,25425,1,0,0:0:0:0:
192,128,25596,1,2,0:0:0:0:
192,128,25768,1,0,0:0:0:0:
192,128,25939,1,2,0:0:0:0:
192,128,26282,1,2,0:0:0:0:
192,128,26625,1,2,0:0:0:0:
192,128,26796,1,0,0:0:0:0:
192,128,26968,1,2,0:0:0:0:
192,128,27139,1,0,0:0:0:0:
192,128,27311,1,2,0:0:0:0:
192,128,27654,1,2,0:0:0:0:
192,128,27825,1,0,0:0:0:0:
192,128,28168,1,0,0:0:0:0:
192,128,28339,1,2,0:0:0:0:
192,128,28511,1,2,0:0:0:0:
192,128,28682,1,0,0:0:0:0:
192,128,29025,1,2,0:0:0:0:
192,128,29368,1,2,0:0:0:0:
192,128,29539,1,0,0:0:0:0:
192,128,29711,1,2,0:0:0:0:
192,128,29882,1,2,0:0:0:0:
192,128,30054,1,0,0:0:0:0:
192,128,30396,1,2,0:0:0:0:
192,128,30568,1,0,0:0:0:0:
192,128,30911,1,0,0:0:0:0:
192,128,31082,1,2,0:0:0:0:
192,128,31254,1,0,0:0:0:0:
192,128,31425,1,0,0:0:0:0:
192,128,31768,1,2,0:0:0:0:
192,128,32111,1,2,0:0:0:0:
192,128,32282,1,0,0:0:0:0:
192,128,32454,1,2,0:0:0:0:
192,96,32625,1,2,0:0:0:0:
192,128,32796,1,0,0:0:0:0:
192,128,33139,1,2,0:0:0:0:
192,128,33482,1,0,0:0:0:0:
192,128,33654,1,0,0:0:0:0:
192,128,33825,1,2,0:0:0:0:
192,128,33996,1,0,0:0:0:0:
192,128,34168,1,0,0:0:0:0:
192,0,34511,1,2,0:0:0:0:
160,128,34854,1,2,0:0:0:0:
192,64,35025,1,0,0:0:0:0:
192,32,35196,1,2,0:0:0:0:
192,32,35368,1,0,0:0:0:0:
192,32,35539,1,2,0:0:0:0:
192,32,35882,1,0,0:0:0:0:
192,32,36054,1,2,0:0:0:0:
192,32,36396,1,0,0:0:0:0:
192,32,36568,1,2,0:0:0:0:
192,32,36739,1,0,0:0:0:0:
192,32,36911,1,2,0:0:0:0:
192,32,37254,1,2,0:0:0:0:
192,32,37596,1,2,0:0:0:0:
192,32,37768,1,0,0:0:0:0:
192,32,37939,1,2,0:0:0:0:
192,32,38111,1,0,0:0:0:0:
192,32,38282,1,2,0:0:0:0:
192,32,38625,1,2,0:0:0:0:
192,32,38796,1,0,0:0:0:0:
192,32,39139,1,2,0:0:0:0:
192,32,39311,1,0,0:0:0:0:
192,32,39482,1,2,0:0:0:0:
192,32,39654,1,0,0:0:0:0:
192,32,39996,1,2,0:0:0:0:
192,32,40339,1,2,0:0:0:0:
192,32,40511,1,0,0:0:0:0:
192,32,40682,1,2,0:0:0:0:
192,32,40854,1,0,0:0:0:0:
192,32,41025,1,2,0:0:0:0:
192,32,41368,1,2,0:0:0:0:
192,32,41539,1,2,0:0:0:0:
192,32,41711,1,0,0:0:0:0:
192,32,41882,1,0,0:0:0:0:
192,32,42054,1,2,0:0:0:0:
192,32,42396,1,0,0:0:0:0:
192,32,42739,1,2,0:0:0:0:
192,32,42911,1,0,0:0:0:0:
192,32,43254,1,0,0:0:0:0:
192,32,43425,1,2,0:0:0:0:
192,32,43596,1,0,0:0:0:0:
192,32,43768,1,0,0:0:0:0:
192,32,44111,1,2,0:0:0:0:
192,32,44454,1,0,0:0:0:0:
192,32,44625,1,0,0:0:0:0:
192,32,44796,1,2,0:0:0:0:
160,0,44968,1,2,0:0:0:0:
256,192,45139,5,4,0:0:0:0:
256,192,45482,1,0,0:0:0:0:
256,192,45825,1,0,0:0:0:0:
256,192,46168,1,8,0:0:0:0:
256,192,46339,1,0,0:0:0:0:
256,192,46511,1,0,0:0:0:0:
256,192,46854,1,0,0:0:0:0:
256,192,47196,1,0,0:0:0:0:
256,192,47368,1,0,0:0:0:0:
256,192,47539,1,8,0:0:0:0:
256,192,47882,1,0,0:0:0:0:
256,192,48225,1,0,0:0:0:0:
256,192,48396,1,8,0:0:0:0:
256,192,48739,1,0,0:0:0:0:
256,192,48911,1,8,0:0:0:0:
256,192,49254,1,8,0:0:0:0:
256,192,49425,1,8,0:0:0:0:
256,192,49596,1,0,0:0:0:0:
256,192,49768,1,0,0:0:0:0:
256,192,49939,1,8,0:0:0:0:
256,192,50282,1,0,0:0:0:0:
256,192,50454,1,0,0:0:0:0:
256,192,50625,1,8,0:0:0:0:
256,192,50968,1,8,0:0:0:0:
256,192,51139,1,0,0:0:0:0:
256,192,51482,1,0,0:0:0:0:
256,192,51654,1,8,0:0:0:0:
256,192,51996,1,8,0:0:0:0:
256,192,52168,1,0,0:0:0:0:
256,192,52511,1,0,0:0:0:0:
256,192,52682,1,8,0:0:0:0:
256,192,53025,1,8,0:0:0:0:
256,192,53196,1,0,0:0:0:0:
256,192,53368,1,0,0:0:0:0:
256,192,53711,1,0,0:0:0:0:
256,192,54054,1,0,0:0:0:0:
256,192,54396,1,0,0:0:0:0:
256,192,54568,1,8,0:0:0:0:
256,192,54739,1,0,0:0:0:0:
256,192,55082,1,0,0:0:0:0:
256,192,55425,1,0,0:0:0:0:
256,192,55596,1,0,0:0:0:0:
256,192,55768,1,8,0:0:0:0:
256,192,55939,1,8,0:0:0:0:
256,192,56111,1,4,0:0:0:0:
256,192,56454,1,0,0:0:0:0:
256,192,56796,1,0,0:0:0:0:
256,192,57139,1,8,0:0:0:0:
256,192,57311,1,0,0:0:0:0:
256,192,57482,1,0,0:0:0:0:
256,192,57825,1,0,0:0:0:0:
256,192,58168,1,0,0:0:0:0:
256,192,58339,1,0,0:0:0:0:
256,192,58511,1,8,0:0:0:0:
256,192,58854,1,8,0:0:0:0:
256,192,59196,1,0,0:0:0:0:
256,192,59368,1,8,0:0:0:0:
256,192,59539,1,0,0:0:0:0:
256,192,59882,1,0,0:0:0:0:
256,192,60054,1,8,0:0:0:0:
256,192,60225,1,0,0:0:0:0:
256,192,60396,1,8,0:0:0:0:
256,192,60568,1,0,0:0:0:0:
256,192,60911,1,0,0:0:0:0:
256,192,61082,1,0,0:0:0:0:
256,192,61254,1,8,0:0:0:0:
256,192,61596,1,4,0:0:0:0:
256,192,61939,1,0,0:0:0:0:
256,192,62111,1,8,0:0:0:0:
256,192,62454,1,0,0:0:0:0:
256,192,62625,1,8,0:0:0:0:
256,192,62796,1,8,0:0:0:0:
256,192,62968,1,4,0:0:0:0:
256,192,63311,1,0,0:0:0:0:
256,192,63482,1,8,0:0:0:0:
256,192,63825,1,0,0:0:0:0:
256,192,63996,1,8,0:0:0:0:
256,192,64168,1,0,0:0:0:0:
256,192,64339,1,12,0:0:0:0:
256,192,64682,1,8,0:0:0:0:
256,192,64854,1,8,0:0:0:0:
256,192,64939,1,8,0:0:0:0:
256,192,65025,1,0,0:0:0:0:
256,192,65196,1,8,0:0:0:0:
256,192,65368,1,0,0:0:0:0:
256,192,65454,1,0,0:0:0:0:
256,192,65539,1,0,0:0:0:0:
256,192,65711,1,12,0:0:0:0:
224,128,67082,5,4,0:0:0:0:
224,128,67425,1,2,0:0:0:0:
224,128,67596,1,0,0:0:0:0:
224,128,67682,1,0,0:0:0:0:
224,128,67768,1,0,0:0:0:0:
224,128,67939,1,0,0:0:0:0:
224,128,68111,1,2,0:0:0:0:
224,128,68282,1,0,0:0:0:0:
192,96,68368,1,0,0:0:0:0:
224,128,68454,1,0,0:0:0:0:
224,128,68625,1,0,0:0:0:0:
224,128,68796,1,2,0:0:0:0:
224,128,68968,1,0,0:0:0:0:
192,96,69054,1,0,0:0:0:0:
192,64,69139,1,2,0:0:0:0:
192,32,69311,1,0,0:0:0:0:
192,64,69482,1,2,0:0:0:0:
192,0,69654,1,2,0:0:0:0:
192,0,69739,1,2,0:0:0:0:
192,0,69825,1,0,0:0:0:0:
192,160,70168,1,2,0:0:0:0:
192,96,70339,1,0,0:0:0:0:
192,64,70425,1,0,0:0:0:0:
192,0,70511,1,0,0:0:0:0:
192,32,70682,1,0,0:0:0:0:
192,32,70854,1,2,0:0:0:0:
192,0,71025,1,0,0:0:0:0:
192,0,71111,1,0,0:0:0:0:
192,0,71196,1,2,0:0:0:0:
192,0,71282,1,2,0:0:0:0:
192,0,71368,1,0,0:0:0:0:
192,0,71539,1,2,0:0:0:0:
192,0,71711,1,0,0:0:0:0:
192,0,71796,1,0,0:0:0:0:
160,0,71882,1,2,0:0:0:0:
192,0,72054,1,0,0:0:0:0:
192,0,72225,1,2,0:0:0:0:
192,0,72396,1,2,0:0:0:0:
192,0,72568,1,4,0:0:0:0:
192,0,72911,1,2,0:0:0:0:
192,0,73082,1,0,0:0:0:0:
192,0,73168,1,0,0:0:0:0:
192,0,73254,1,0,0:0:0:0:
192,0,73425,1,0,0:0:0:0:
192,0,73596,1,2,0:0:0:0:
192,0,73768,1,0,0:0:0:0:
192,0,73854,1,0,0:0:0:0:
192,0,73939,1,0,0:0:0:0:
192,0,74111,1,0,0:0:0:0:
192,0,74282,1,2,0:0:0:0:
192,0,74454,1,0,0:0:0:0:
192,0,74539,1,0,0:0:0:0:
192,0,74625,1,2,0:0:0:0:
192,0,74796,1,2,0:0:0:0:
192,0,74882,1,2,0:0:0:0:
192,0,74968,1,0,0:0:0:0:
192,0,75139,1,2,0:0:0:0:
192,0,75311,1,4,0:0:0:0:
192,0,75654,1,2,0:0:0:0:
192,0,75825,1,0,0:0:0:0:
192,0,75996,1,2,0:0:0:0:
192,0,76168,1,0,0:0:0:0:
192,0,76254,1,0,0:0:0:0:
192,0,76339,1,2,0:0:0:0:
192,0,76511,1,6,0:0:0:0:
192,0,76854,1,2,0:0:0:0:
192,0,77025,1,0,0:0:0:0:
192,0,77196,1,2,0:0:0:0:
192,0,77368,1,2,0:0:0:0:
192,0,77454,1,2,0:0:0:0:
192,0,77539,1,0,0:0:0:0:
192,0,77625,1,0,0:0:0:0:
192,0,77711,1,2,0:0:0:0:
192,0,77882,1,2,0:0:0:0:
192,0,78054,1,4,0:0:0:0:
192,0,78396,1,2,0:0:0:0:
192,0,78568,1,0,0:0:0:0:
192,0,78654,1,0,0:0:0:0:
192,0,78739,1,0,0:0:0:0:
192,0,78911,1,0,0:0:0:0:
192,0,79082,1,2,0:0:0:0:
192,0,79254,1,0,0:0:0:0:
192,0,79339,1,0,0:0:0:0:
192,0,79425,1,2,0:0:0:0:
192,0,79596,1,2,0:0:0:0:
192,0,79682,1,2,0:0:0:0:
192,0,79768,1,2,0:0:0:0:
192,0,79939,1,6,0:0:0:0:
192,0,80282,1,6,0:0:0:0:
192,0,80625,1,4,0:0:0:0:
192,0,80968,1,0,0:0:0:0:
192,0,81139,1,2,0:0:0:0:
192,0,81311,1,0,0:0:0:0:
192,0,81396,1,0,0:0:0:0:
192,0,81482,1,0,0:0:0:0:
192,0,81654,1,0,0:0:0:0:
192,0,81825,1,2,0:0:0:0:
192,0,81996,1,0,0:0:0:0:
192,0,82082,1,0,0:0:0:0:
192,0,82168,1,2,0:0:0:0:
192,0,82254,1,2,0:0:0:0:
192,0,82339,1,0,0:0:0:0:
192,0,82511,1,2,0:0:0:0:
192,0,82682,1,0,0:0:0:0:
192,0,82768,1,0,0:0:0:0:
192,0,82854,1,2,0:0:0:0:
192,0,83025,1,2,0:0:0:0:
192,0,83111,1,2,0:0:0:0:
192,0,83196,1,0,0:0:0:0:
192,0,83282,1,0,0:0:0:0:
192,0,83368,1,2,0:0:0:0:
192,0,83539,1,4,0:0:0:0:
128,96,83882,1,2,0:0:0:0:
160,64,84054,1,0,0:0:0:0:
192,32,84225,1,2,0:0:0:0:
192,32,84311,1,2,0:0:0:0:
192,32,84396,1,0,0:0:0:0:
192,32,84568,1,2,0:0:0:0:
192,32,84739,1,2,0:0:0:0:
192,32,84911,1,0,0:0:0:0:
192,32,85254,1,2,0:0:0:0:
192,32,85425,1,0,0:0:0:0:
192,32,85511,1,0,0:0:0:0:
192,32,85596,1,2,0:0:0:0:
192,32,85768,1,0,0:0:0:0:
192,32,85939,1,2,0:0:0:0:
192,32,86111,1,2,0:0:0:0:
192,32,86196,1,2,0:0:0:0:
192,32,86282,1,0,0:0:0:0:
192,32,86625,1,2,0:0:0:0:
256,64,86796,1,0,0:0:0:0:
192,32,86968,1,2,0:0:0:0:
192,32,87139,1,2,0:0:0:0:
192,32,87225,1,2,0:0:0:0:
192,32,87311,1,0,0:0:0:0:
192,32,87396,1,0,0:0:0:0:
192,32,87482,1,0,0:0:0:0:
192,32,87654,1,6,0:0:0:0:
192,32,88339,1,2,0:0:0:0:
256,192,89025,5,4,0:0:0:0:
256,192,89368,1,8,0:0:0:0:
256,192,89539,1,0,0:0:0:0:
256,192,89625,1,0,0:0:0:0:
256,192,89711,1,0,0:0:0:0:
256,192,89882,1,0,0:0:0:0:
256,192,90054,1,8,0:0:0:0:
256,192,90225,1,4,0:0:0:0:
256,192,90568,1,0,0:0:0:0:
256,192,90739,1,8,0:0:0:0:
256,192,90911,1,0,0:0:0:0:
256,192,90996,1,0,0:0:0:0:
256,192,91082,1,8,0:0:0:0:
256,192,91254,1,0,0:0:0:0:
256,192,91425,1,8,0:0:0:0:
256,192,91596,1,8,0:0:0:0:
256,192,91768,1,4,0:0:0:0:
256,192,92111,1,8,0:0:0:0:
256,192,92282,1,0,0:0:0:0:
256,192,92368,1,0,0:0:0:0:
256,192,92454,1,0,0:0:0:0:
256,192,92625,1,8,0:0:0:0:
256,192,92711,1,8,0:0:0:0:
256,192,92796,1,0,0:0:0:0:
256,192,92968,1,12,0:0:0:0:
256,192,93311,1,0,0:0:0:0:
256,192,93482,1,8,0:0:0:0:
256,192,93654,1,0,0:0:0:0:
256,192,93739,1,0,0:0:0:0:
256,192,93825,1,8,0:0:0:0:
256,192,93996,1,0,0:0:0:0:
256,192,94082,1,0,0:0:0:0:
256,192,94168,1,8,0:0:0:0:
256,192,94254,1,8,0:0:0:0:
256,192,94339,1,8,0:0:0:0:
256,192,94511,1,4,0:0:0:0:
256,192,94854,1,8,0:0:0:0:
256,192,95025,1,0,0:0:0:0:
256,192,95111,1,0,0:0:0:0:
256,192,95196,1,0,0:0:0:0:
256,192,95368,1,0,0:0:0:0:
256,192,95539,1,8,0:0:0:0:
256,192,95711,1,4,0:0:0:0:
256,192,96054,1,0,0:0:0:0:
256,192,96225,1,8,0:0:0:0:
256,192,96396,1,0,0:0:0:0:
256,192,96482,1,0,0:0:0:0:
256,192,96568,1,8,0:0:0:0:
256,192,96739,1,0,0:0:0:0:
256,192,96911,1,8,0:0:0:0:
256,192,97082,1,8,0:0:0:0:
256,192,97254,1,4,0:0:0:0:
256,192,97596,1,0,0:0:0:0:
256,192,97768,1,8,0:0:0:0:
256,192,97939,1,8,0:0:0:0:
256,192,98111,1,8,0:0:0:0:
256,192,98282,1,8,0:0:0:0:
256,192,98454,1,0,0:0:0:0:
256,192,98625,1,12,0:0:0:0:
256,192,99139,1,0,0:0:0:0:
256,192,99225,1,0,0:0:0:0:
256,192,99311,1,8,0:0:0:0:
256,192,99482,1,0,0:0:0:0:
256,192,99654,1,0,0:0:0:0:
256,192,99996,1,4,0:0:0:0:
256,192,100339,1,8,0:0:0:0:
256,192,100682,1,0,0:0:0:0:
256,192,100854,1,0,0:0:0:0:
256,192,101196,1,0,0:0:0:0:
256,192,101368,1,8,0:0:0:0:
256,192,101711,1,0,0:0:0:0:
256,192,101882,1,0,0:0:0:0:
256,192,102225,1,8,0:0:0:0:
256,192,102568,1,0,0:0:0:0:
256,192,102739,1,0,0:0:0:0:
256,192,103082,1,0,0:0:0:0:
256,192,103425,1,8,0:0:0:0:
256,192,103596,1,0,0:0:0:0:
256,192,103939,1,0,0:0:0:0:
256,192,104111,1,8,0:0:0:0:
256,192,104454,1,8,0:0:0:0:
256,192,104625,1,0,0:0:0:0:
256,192,104968,1,0,0:0:0:0:
256,192,105311,1,0,0:0:0:0:
256,192,105482,1,8,0:0:0:0:
256,192,105825,1,0,0:0:0:0:
256,192,106168,1,0,0:0:0:0:
256,192,106339,1,8,0:0:0:0:
256,192,106682,1,8,0:0:0:0:
256,192,106854,1,0,0:0:0:0:
256,192,107196,1,8,0:0:0:0:
256,192,107368,1,0,0:0:0:0:
256,192,107711,1,0,0:0:0:0:
256,192,108054,1,8,0:0:0:0:
256,192,108225,1,0,0:0:0:0:
256,192,108568,1,0,0:0:0:0:
256,192,108911,1,8,0:0:0:0:
256,192,109254,1,8,0:0:0:0:
256,192,109596,1,0,0:0:0:0:
256,192,109939,1,8,0:0:0:0:
256,192,110282,1,0,0:0:0:0:
256,192,110454,1,0,0:0:0:0:
256,192,110625,1,12,0:0:0:0:
224,128,110968,5,0,0:0:0:0:
224,128,111311,1,2,0:0:0:0:
224,128,111654,1,0,0:0:0:0:
224,128,111825,1,0,0:0:0:0:
224,128,111996,1,2,0:0:0:0:
192,64,112168,1,0,0:0:0:0:
224,128,112339,1,0,0:0:0:0:
224,128,112682,1,2,0:0:0:0:
224,128,112854,1,0,0:0:0:0:
224,128,113196,1,0,0:0:0:0:
224,128,113368,1,2,0:0:0:0:
224,128,113539,1,0,0:0:0:0:
224,128,113711,1,0,0:0:0:0:
224,128,114054,1,2,0:0:0:0:
192,0,114396,1,0,0:0:0:0:
192,64,114568,1,0,0:0:0:0:
224,96,114739,1,2,0:0:0:0:
128,32,114911,1,0,0:0:0:0:
128,32,115082,1,2,0:0:0:0:
128,0,115425,1,2,0:0:0:0:
224,96,115596,1,0,0:0:0:0:
224,96,115939,1,2,0:0:0:0:
224,96,116111,1,0,0:0:0:0:
224,96,116282,1,2,0:0:0:0:
224,96,116454,1,0,0:0:0:0:
224,96,116796,1,2,0:0:0:0:
224,96,117139,1,0,0:0:0:0:
224,96,117311,1,0,0:0:0:0:
224,96,117482,1,2,0:0:0:0:
192,32,117654,1,2,0:0:0:0:
224,96,117825,1,0,0:0:0:0:
224,96,118168,1,2,0:0:0:0:
224,96,118339,1,2,0:0:0:0:
192,32,118511,1,0,0:0:0:0:
224,96,118682,1,0,0:0:0:0:
224,96,118854,1,2,0:0:0:0:
224,96,119196,1,0,0:0:0:0:
224,96,119539,1,2,0:0:0:0:
192,32,119711,1,2,0:0:0:0:
224,96,119882,1,0,0:0:0:0:
224,96,120054,1,0,0:0:0:0:
224,96,120139,1,0,0:0:0:0:
224,96,120225,1,2,0:0:0:0:
224,96,120396,1,0,0:0:0:0:
224,96,120568,1,2,0:0:0:0:
224,96,120739,1,0,0:0:0:0:
224,96,120911,1,0,0:0:0:0:
224,96,121082,1,2,0:0:0:0:
224,96,121168,1,2,0:0:0:0:
224,96,121254,1,0,0:0:0:0:
224,96,121425,1,0,0:0:0:0:
224,96,121596,1,2,0:0:0:0:
224,96,121682,1,2,0:0:0:0:
224,96,121768,1,2,0:0:0:0:
224,96,121854,1,2,0:0:0:0:
224,96,121939,1,0,0:0:0:0:
192,32,122282,1,0,0:0:0:0:
192,32,122454,1,2,0:0:0:0:
192,32,122625,1,0,0:0:0:0:
192,32,122968,1,2,0:0:0:0:
192,32,123139,1,2,0:0:0:0:
224,96,123311,1,0,0:0:0:0:
192,32,123482,1,2,0:0:0:0:
192,32,123654,1,0,0:0:0:0:
192,32,123825,1,2,0:0:0:0:
192,32,123996,1,0,0:0:0:0:
192,32,124339,1,2,0:0:0:0:
160,0,124511,1,0,0:0:0:0:
192,32,124682,1,0,0:0:0:0:
192,32,125025,1,0,0:0:0:0:
192,32,125196,1,2,0:0:0:0:
192,32,125368,1,0,0:0:0:0:
192,32,125711,1,2,0:0:0:0:
224,96,125882,1,2,0:0:0:0:
192,64,126054,1,0,0:0:0:0:
224,96,126225,1,2,0:0:0:0:
192,32,126396,1,0,0:0:0:0:
192,32,126568,1,2,0:0:0:0:
192,32,126739,1,0,0:0:0:0:
192,32,126911,1,0,0:0:0:0:
192,32,126996,1,0,0:0:0:0:
192,32,127082,1,2,0:0:0:0:
192,32,127254,1,2,0:0:0:0:
224,96,127425,1,4,0:0:0:0:
192,32,127768,1,0,0:0:0:0:
192,32,127939,1,2,0:0:0:0:
192,32,128111,1,0,0:0:0:0:
192,32,128454,1,2,0:0:0:0:
224,96,128625,1,2,0:0:0:0:
192,32,128796,1,0,0:0:0:0:
192,32,128968,1,2,0:0:0:0:
192,32,129139,1,0,0:0:0:0:
192,32,129311,1,2,0:0:0:0:
192,32,129482,1,0,0:0:0:0:
192,32,129568,1,0,0:0:0:0:
192,32,129654,1,0,0:0:0:0:
192,32,129825,1,2,0:0:0:0:
192,32,129996,1,0,0:0:0:0:
192,32,130168,1,0,0:0:0:0:
192,32,130511,1,0,0:0:0:0:
192,32,130682,1,2,0:0:0:0:
192,32,130854,1,0,0:0:0:0:
192,32,131196,1,2,0:0:0:0:
224,96,131368,1,2,0:0:0:0:
192,64,131539,1,0,0:0:0:0:
224,96,131711,1,2,0:0:0:0:
192,64,131882,1,0,0:0:0:0:
192,32,132054,1,2,0:0:0:0:
160,0,132225,1,0,0:0:0:0:
192,32,132568,1,2,0:0:0:0:
192,0,132739,1,2,0:0:0:0:
160,0,132911,1,4,0:0:0:0:
160,0,133254,1,0,0:0:0:0:
192,0,133425,1,2,0:0:0:0:
192,0,133596,1,0,0:0:0:0:
192,0,133939,1,2,0:0:0:0:
224,96,134111,1,2,0:0:0:0:
192,32,134282,1,0,0:0:0:0:
192,0,134454,1,2,0:0:0:0:
192,0,134625,1,0,0:0:0:0:
192,64,134796,1,2,0:0:0:0:
192,0,134968,1,0,0:0:0:0:
192,32,135311,1,2,0:0:0:0:
192,32,135482,1,0,0:0:0:0:
192,32,135654,1,2,0:0:0:0:
192,0,135996,1,0,0:0:0:0:
192,0,136168,1,2,0:0:0:0:
192,0,136339,1,0,0:0:0:0:
192,0,136511,1,0,0:0:0:0:
192,0,136682,1,2,0:0:0:0:
224,96,136854,1,2,0:0:0:0:
192,32,136939,1,2,0:0:0:0:
192,0,137025,1,0,0:0:0:0:
224,96,137196,1,2,0:0:0:0:
192,32,137368,1,0,0:0:0:0:
128,0,137539,1,2,0:0:0:0:
192,0,137711,1,0,0:0:0:0:
192,0,137796,1,0,0:0:0:0:
128,32,137882,1,0,0:0:0:0:
192,0,138054,1,2,0:0:0:0:
160,32,138225,1,2,0:0:0:0:
192,0,138396,1,4,0:0:0:0:
224,96,138739,1,0,0:0:0:0:
224,96,138911,1,2,0:0:0:0:
192,32,139254,1,0,0:0:0:0:
224,96,139425,1,2,0:0:0:0:
224,96,139596,1,2,0:0:0:0:
224,96,139768,1,4,0:0:0:0:
224,96,140111,1,0,0:0:0:0:
224,96,140282,1,2,0:0:0:0:
192,32,140625,1,2,0:0:0:0:
192,32,140796,1,0,0:0:0:0:
224,96,140968,1,2,0:0:0:0:
256,96,141139,1,4,0:0:0:0:
224,64,141368,1,2,0:0:0:0:
256,96,141482,1,2,0:0:0:0:
224,64,141596,1,2,0:0:0:0:
256,96,141711,1,2,0:0:0:0:
256,96,141825,1,0,0:0:0:0:
224,64,141939,1,0,0:0:0:0:
256,96,142054,1,0,0:0:0:0:
256,96,142168,1,0,0:0:0:0:
224,64,142282,1,0,0:0:0:0:
160,32,142396,1,0,0:0:0:0:
256,96,142511,1,6,0:0:0:0:
256,192,143882,5,4,0:0:0:0:
256,192,144225,1,8,0:0:0:0:
256,192,144396,1,0,0:0:0:0:
256,192,144482,1,0,0:0:0:0:
256,192,144568,1,8,0:0:0:0:
256,192,144739,1,0,0:0:0:0:
256,192,144911,1,8,0:0:0:0:
256,192,145082,1,0,0:0:0:0:
256,192,145168,1,0,0:0:0:0:
256,192,145254,1,8,0:0:0:0:
256,192,145425,1,0,0:0:0:0:
256,192,145596,1,8,0:0:0:0:
256,192,145768,1,8,0:0:0:0:
256,192,145854,1,8,0:0:0:0:
256,192,145939,1,0,0:0:0:0:
256,192,146025,1,0,0:0:0:0:
256,192,146111,1,8,0:0:0:0:
256,192,146282,1,8,0:0:0:0:
256,192,146454,1,0,0:0:0:0:
256,192,146539,1,8,0:0:0:0:
256,192,146625,1,0,0:0:0:0:
256,192,146968,1,8,0:0:0:0:
256,192,147139,1,0,0:0:0:0:
256,192,147225,1,0,0:0:0:0:
256,192,147311,1,0,0:0:0:0:
256,192,147482,1,0,0:0:0:0:
256,192,147654,1,8,0:0:0:0:
256,192,147825,1,0,0:0:0:0:
256,192,147911,1,0,0:0:0:0:
256,192,147996,1,8,0:0:0:0:
256,192,148082,1,8,0:0:0:0:
256,192,148168,1,0,0:0:0:0:
256,192,148339,1,8,0:0:0:0:
256,192,148511,1,8,0:0:0:0:
256,192,148596,1,8,0:0:0:0:
256,192,148682,1,0,0:0:0:0:
256,192,148854,1,0,0:0:0:0:
256,192,149025,1,8,0:0:0:0:
256,192,149196,1,8,0:0:0:0:
256,192,149368,1,4,0:0:0:0:
256,192,149711,1,8,0:0:0:0:
256,192,149882,1,0,0:0:0:0:
256,192,149968,1,0,0:0:0:0:
256,192,150054,1,8,0:0:0:0:
256,192,150225,1,0,0:0:0:0:
256,192,150396,1,8,0:0:0:0:
256,192,150568,1,0,0:0:0:0:
256,192,150654,1,0,0:0:0:0:
256,192,150739,1,8,0:0:0:0:
256,192,150911,1,0,0:0:0:0:
256,192,151082,1,8,0:0:0:0:
256,192,151254,1,8,0:0:0:0:
256,192,151339,1,8,0:0:0:0:
256,192,151425,1,0,0:0:0:0:
256,192,151596,1,8,0:0:0:0:
256,192,151682,1,0,0:0:0:0:
256,192,151768,1,8,0:0:0:0:
256,192,151854,1,8,0:0:0:0:
256,192,151939,1,0,0:0:0:0:
256,192,152111,1,4,0:0:0:0:
256,192,152454,1,8,0:0:0:0:
256,192,152625,1,0,0:0:0:0:
256,192,152796,1,8,0:0:0:0:
256,192,152968,1,0,0:0:0:0:
256,192,153054,1,0,0:0:0:0:
256,192,153139,1,0,0:0:0:0:
256,192,153311,1,12,0:0:0:0:
256,192,153654,1,0,0:0:0:0:
256,192,153739,1,0,0:0:0:0:
256,192,153825,1,8,0:0:0:0:
256,192,153996,1,0,0:0:0:0:
256,192,154168,1,8,0:0:0:0:
256,192,154254,1,8,0:0:0:0:
256,192,154339,1,0,0:0:0:0:
256,192,154425,1,0,0:0:0:0:
256,192,154511,1,8,0:0:0:0:
256,192,154596,1,0,0:0:0:0:
256,192,154682,1,8,0:0:0:0:
256,192,154854,1,4,0:0:0:0:
256,192,155196,1,8,0:0:0:0:
256,192,155368,1,0,0:0:0:0:
256,192,155454,1,0,0:0:0:0:
256,192,155539,1,8,0:0:0:0:
256,192,155711,1,0,0:0:0:0:
256,192,155882,1,8,0:0:0:0:
256,192,156054,1,0,0:0:0:0:
256,192,156139,1,0,0:0:0:0:
256,192,156225,1,0,0:0:0:0:
256,192,156396,1,8,0:0:0:0:
256,192,156482,1,8,0:0:0:0:
256,192,156568,1,0,0:0:0:0:
256,192,156739,1,12,0:0:0:0:
256,192,157082,1,4,0:0:0:0:
256,192,157425,1,12,0:0:0:0:
256,192,157768,1,0,0:0:0:0:
256,192,157939,1,8,0:0:0:0:
256,192,158111,1,0,0:0:0:0:
256,192,158196,1,0,0:0:0:0:
256,192,158282,1,0,0:0:0:0:
256,192,158454,1,0,0:0:0:0:
256,192,158625,1,8,0:0:0:0:
256,192,158796,1,0,0:0:0:0:
256,192,158968,1,8,0:0:0:0:
256,192,159054,1,8,0:0:0:0:
256,192,159139,1,0,0:0:0:0:
256,192,159225,1,0,0:0:0:0:
256,192,159311,1,8,0:0:0:0:
256,192,159482,1,0,0:0:0:0:
256,192,159568,1,0,0:0:0:0:
256,192,159654,1,8,0:0:0:0:
256,192,159825,1,0,0:0:0:0:
256,192,159996,1,8,0:0:0:0:
256,192,160082,1,8,0:0:0:0:
256,192,160168,1,0,0:0:0:0:
256,192,160339,1,4,0:0:0:0:
256,192,160682,1,8,0:0:0:0:
256,192,160854,1,0,0:0:0:0:
256,192,161025,1,8,0:0:0:0:
256,192,161196,1,0,0:0:0:0:
256,192,161282,1,0,0:0:0:0:
256,192,161368,1,8,0:0:0:0:
256,192,161539,1,8,0:0:0:0:
256,192,161711,1,0,0:0:0:0:
256,192,162054,1,8,0:0:0:0:
256,192,162225,1,0,0:0:0:0:
256,192,162311,1,0,0:0:0:0:
256,192,162396,1,0,0:0:0:0:
256,192,162568,1,8,0:0:0:0:
256,192,162739,1,8,0:0:0:0:
256,192,162911,1,0,0:0:0:0:
256,192,162996,1,8,0:0:0:0:
256,192,163082,1,0,0:0:0:0:
256,192,163254,1,0,0:0:0:0:
256,192,163339,1,0,0:0:0:0:
256,192,163425,1,8,0:0:0:0:
256,192,163596,1,0,0:0:0:0:
256,192,163768,1,8,0:0:0:0:
256,192,163854,1,0,0:0:0:0:
256,192,163939,1,8,0:0:0:0:
256,192,164025,1,8,0:0:0:0:
256,192,164111,1,0,0:0:0:0:
256,192,164196,1,0,0:0:0:0:
256,192,164282,1,0,0:0:0:0:
256,192,164454,1,12,0:0:0:0:
256,192,165139,1,8,0:0:0:0:
256,192,165825,1,4,0:0:0:0:
256,192,165996,1,0,0:0:0:0:
256,192,166511,1,8,0:0:0:0:
256,192,167025,1,0,0:0:0:0:
256,192,167368,1,0,0:0:0:0:
256,192,167539,1,0,0:0:0:0:
256,192,167882,1,8,0:0:0:0:
256,192,168568,1,0,0:0:0:0:
256,192,168739,1,0,0:0:0:0:
256,192,169254,1,8,0:0:0:0:
256,192,169768,1,0,0:0:0:0:
256,192,170111,1,8,0:0:0:0:
256,192,170282,1,0,0:0:0:0:
256,192,170454,1,0,0:0:0:0:
256,192,170625,1,8,0:0:0:0:
256,192,170796,1,0,0:0:0:0:
256,192,170968,1,8,0:0:0:0:
256,192,171139,1,8,0:0:0:0:
256,192,171311,1,4,0:0:0:0:
256,192,171482,1,0,0:0:0:0:
256,192,171996,1,8,0:0:0:0:
256,192,172511,1,0,0:0:0:0:
256,192,172854,1,0,0:0:0:0:
256,192,173025,1,0,0:0:0:0:
256,192,173368,1,8,0:0:0:0:
256,192,174054,1,0,0:0:0:0:
256,192,174225,1,0,0:0:0:0:
256,192,174739,1,8,0:0:0:0:
256,192,175082,1,8,0:0:0:0:
256,192,175254,1,4,0:0:0:0:
256,192,175596,1,8,0:0:0:0:
256,192,175768,1,0,0:0:0:0:
256,192,175939,1,8,0:0:0:0:
256,192,176111,1,8,0:0:0:0:
256,192,176282,1,0,0:0:0:0:
256,192,176454,1,8,0:0:0:0:
256,192,176539,1,8,0:0:0:0:
256,192,176625,1,8,0:0:0:0:
192,256,176796,5,4,0:0:0:0:
192,256,177139,1,2,0:0:0:0:
192,256,177311,1,0,0:0:0:0:
192,224,177396,1,0,0:0:0:0:
192,256,177482,1,0,0:0:0:0:
192,256,177654,1,0,0:0:0:0:
192,256,177825,1,2,0:0:0:0:
192,256,177996,1,0,0:0:0:0:
192,256,178168,1,2,0:0:0:0:
192,128,178254,1,2,0:0:0:0:
160,32,178339,1,0,0:0:0:0:
192,64,178511,1,2,0:0:0:0:
192,64,178682,1,0,0:0:0:0:
192,64,179025,1,0,0:0:0:0:
192,64,179196,1,2,0:0:0:0:
192,64,179368,1,0,0:0:0:0:
192,64,179539,1,0,0:0:0:0:
192,64,179882,1,2,0:0:0:0:
192,64,180054,1,0,0:0:0:0:
192,64,180139,1,0,0:0:0:0:
192,64,180225,1,0,0:0:0:0:
192,64,180396,1,0,0:0:0:0:
192,64,180568,1,2,0:0:0:0:
192,64,180739,1,0,0:0:0:0:
192,64,180911,1,2,0:0:0:0:
192,64,181082,1,0,0:0:0:0:
192,32,181168,1,0,0:0:0:0:
192,64,181254,1,2,0:0:0:0:
192,64,181425,1,0,0:0:0:0:
192,32,181511,1,0,0:0:0:0:
192,32,181596,1,0,0:0:0:0:
192,32,181768,1,2,0:0:0:0:
192,32,181939,1,0,0:0:0:0:
192,64,182111,1,2,0:0:0:0:
192,64,182282,1,4,0:0:0:0:
192,64,182625,1,2,0:0:0:0:
192,64,182796,1,0,0:0:0:0:
192,32,182882,1,0,0:0:0:0:
192,64,182968,1,0,0:0:0:0:
192,64,183139,1,0,0:0:0:0:
192,64,183311,1,2,0:0:0:0:
192,64,183482,1,0,0:0:0:0:
192,64,183654,1,2,0:0:0:0:
192,32,183739,1,2,0:0:0:0:
160,0,183825,1,0,0:0:0:0:
192,64,183996,1,2,0:0:0:0:
192,64,184168,1,0,0:0:0:0:
192,64,184511,1,0,0:0:0:0:
192,64,184682,1,2,0:0:0:0:
192,64,184854,1,2,0:0:0:0:
192,64,185025,1,4,0:0:0:0:
192,64,185368,1,2,0:0:0:0:
160,0,185539,1,0,0:0:0:0:
192,64,185711,1,2,0:0:0:0:
192,64,185882,1,0,0:0:0:0:
192,32,185968,1,0,0:0:0:0:
192,64,186054,1,2,0:0:0:0:
192,64,186225,1,6,0:0:0:0:
192,64,186568,1,2,0:0:0:0:
160,64,186739,1,0,0:0:0:0:
160,64,186911,1,2,0:0:0:0:
160,64,187082,1,2,0:0:0:0:
160,64,187168,1,2,0:0:0:0:
160,64,187254,1,0,0:0:0:0:
160,64,187425,1,2,0:0:0:0:
160,64,187511,1,2,0:0:0:0:
160,64,187596,1,2,0:0:0:0:
160,64,187768,1,4,0:0:0:0:
160,64,188111,1,2,0:0:0:0:
160,64,188282,1,0,0:0:0:0:
160,64,188368,1,0,0:0:0:0:
160,64,188454,1,0,0:0:0:0:
160,64,188625,1,0,0:0:0:0:
160,64,188796,1,2,0:0:0:0:
160,64,188968,1,0,0:0:0:0:
160,64,189139,1,2,0:0:0:0:
160,64,189225,1,2,0:0:0:0:
160,64,189311,1,0,0:0:0:0:
160,64,189396,1,0,0:0:0:0:
160,64,189482,1,2,0:0:0:0:
160,64,189654,1,2,0:0:0:0:
160,64,189996,1,2,0:0:0:0:
160,64,190339,1,4,0:0:0:0:
160,64,190682,1,0,0:0:0:0:
160,64,190854,1,2,0:0:0:0:
160,64,191025,1,0,0:0:0:0:
160,64,191111,1,0,0:0:0:0:
160,64,191196,1,0,0:0:0:0:
160,64,191368,1,0,0:0:0:0:
160,64,191539,1,2,0:0:0:0:
160,64,191711,1,0,0:0:0:0:
160,64,191882,1,2,0:0:0:0:
160,32,191968,1,0,0:0:0:0:
160,32,192054,1,2,0:0:0:0:
160,64,192225,1,0,0:0:0:0:
160,64,192396,1,2,0:0:0:0:
160,64,192482,1,2,0:0:0:0:
160,64,192568,1,2,0:0:0:0:
160,64,192739,1,0,0:0:0:0:
160,64,192825,1,0,0:0:0:0:
160,64,192911,1,2,0:0:0:0:
160,64,193082,1,2,0:0:0:0:
160,64,193254,1,4,0:0:0:0:
160,64,193596,1,2,0:0:0:0:
160,64,193768,1,0,0:0:0:0:
160,64,193854,1,0,0:0:0:0:
160,64,193939,1,0,0:0:0:0:
160,64,194111,1,0,0:0:0:0:
160,64,194282,1,2,0:0:0:0:
160,64,194454,1,2,0:0:0:0:
160,64,194539,1,2,0:0:0:0:
160,64,194625,1,0,0:0:0:0:
160,64,194796,1,0,0:0:0:0:
160,64,194968,1,2,0:0:0:0:
160,64,195139,1,0,0:0:0:0:
160,64,195225,1,0,0:0:0:0:
160,64,195311,1,2,0:0:0:0:
160,64,195482,1,0,0:0:0:0:
160,64,195654,1,2,0:0:0:0:
160,64,195825,1,0,0:0:0:0:
160,64,195911,1,2,0:0:0:0:
160,64,195996,1,0,0:0:0:0:
160,64,196168,1,0,0:0:0:0:
160,64,196339,1,2,0:0:0:0:
160,64,196511,1,0,0:0:0:0:
160,64,196596,1,0,0:0:0:0:
160,64,196682,1,2,0:0:0:0:
160,64,196768,1,2,0:0:0:0:
160,64,196854,1,2,0:0:0:0:
160,64,196939,1,2,0:0:0:0:
160,64,197025,1,0,0:0:0:0:
160,64,197111,1,0,0:0:0:0:
160,64,197196,1,0,0:0:0:0:
160,64,197368,1,6,0:0:0:0:
256,192,198739,5,0,0:0:0:0:
256,192,199082,1,8,0:0:0:0:
256,192,199254,1,0,0:0:0:0:
256,192,199425,1,8,0:0:0:0:
256,192,199596,1,0,0:0:0:0:
256,192,199939,1,0,0:0:0:0:
256,192,200282,1,8,0:0:0:0:
256,192,200625,1,8,0:0:0:0:
256,192,200968,1,0,0:0:0:0:
256,192,201311,1,0,0:0:0:0:
256,192,201482,1,8,0:0:0:0:
256,192,201825,1,0,0:0:0:0:
256,192,202168,1,8,0:0:0:0:
256,192,202339,1,8,0:0:0:0:
256,192,202682,1,0,0:0:0:0:
256,192,203025,1,0,0:0:0:0:
256,192,204225,1,0,0:0:0:0:
256,192,204568,1,8,0:0:0:0:
256,192,204739,1,0,0:0:0:0:
256,192,204911,1,8,0:0:0:0:
256,192,205082,1,0,0:0:0:0:
256,192,205425,1,0,0:0:0:0:
256,192,205768,1,8,0:0:0:0:
256,192,206111,1,8,0:0:0:0:
256,192,206454,1,0,0:0:0:0:
256,192,206796,1,0,0:0:0:0:
256,192,206968,1,8,0:0:0:0:
256,192,207654,1,0,0:0:0:0:
256,192,208339,1,8,0:0:0:0:
256,192,209025,1,8,0:0:0:0:
256,192,209711,1,4,0:0:0:0:
256,192,210054,1,8,0:0:0:0:
256,192,210225,1,0,0:0:0:0:
256,192,210311,1,0,0:0:0:0:
256,192,210396,1,0,0:0:0:0:
256,192,210568,1,0,0:0:0:0:
256,192,210654,1,0,0:0:0:0:
256,192,210739,1,0,0:0:0:0:
256,192,210911,1,12,0:0:0:0:
256,192,211254,1,12,0:0:0:0:
256,192,211425,1,12,0:0:0:0:
256,192,214339,1,12,0:0:0:0:
256,192,214682,1,4,0:0:0:0:
256,192,215025,1,8,0:0:0:0:
256,192,215196,1,4,0:0:0:0:
256,192,215539,1,8,0:0:0:0:
256,192,215711,1,0,0:0:0:0:
256,192,215796,1,0,0:0:0:0:
256,192,215882,1,0,0:0:0:0:
256,192,216054,1,0,0:0:0:0:
256,192,216225,1,8,0:0:0:0:
256,192,216396,1,0,0:0:0:0:
256,192,216482,1,0,0:0:0:0:
256,192,216568,1,8,0:0:0:0:
256,192,216654,1,8,0:0:0:0:
256,192,216739,1,0,0:0:0:0:
256,192,216911,1,8,0:0:0:0:
256,192,216996,1,0,0:0:0:0:
256,192,217082,1,8,0:0:0:0:
256,192,217254,1,0,0:0:0:0:
256,192,217425,1,0,0:0:0:0:
256,192,217511,1,0,0:0:0:0:
256,192,217596,1,8,0:0:0:0:
256,192,217768,1,8,0:0:0:0:
256,192,217939,1,4,0:0:0:0:
256,192,218282,1,8,0:0:0:0:
256,192,218454,1,0,0:0:0:0:
256,192,218539,1,0,0:0:0:0:
256,192,218625,1,8,0:0:0:0:
256,192,218796,1,0,0:0:0:0:
256,192,218968,1,8,0:0:0:0:
256,192,219139,1,0,0:0:0:0:
256,192,219225,1,0,0:0:0:0:
256,192,219311,1,8,0:0:0:0:
256,192,219482,1,0,0:0:0:0:
256,192,219654,1,8,0:0:0:0:
256,192,219825,1,8,0:0:0:0:
256,192,219911,1,8,0:0:0:0:
256,192,219996,1,0,0:0:0:0:
256,192,220168,1,8,0:0:0:0:
256,192,220254,1,0,0:0:0:0:
256,192,220339,1,8,0:0:0:0:
256,192,220425,1,8,0:0:0:0:
256,192,220511,1,0,0:0:0:0:
256,192,220682,1,4,0:0:0:0:
256,192,221025,1,8,0:0:0:0:
256,192,221196,1,0,0:0:0:0:
256,192,221282,1,0,0:0:0:0:
256,192,221368,1,8,0:0:0:0:
256,192,221539,1,0,0:0:0:0:
256,192,221625,1,0,0:0:0:0:
256,192,221711,1,0,0:0:0:0:
256,192,221882,1,12,0:0:0:0:
256,192,222225,1,0,0:0:0:0:
256,192,222311,1,0,0:0:0:0:
256,192,222396,1,8,0:0:0:0:
256,192,222568,1,0,0:0:0:0:
256,192,222739,1,8,0:0:0:0:
256,192,222825,1,8,0:0:0:0:
256,192,222911,1,0,0:0:0:0:
256,192,222996,1,0,0:0:0:0:
256,192,223082,1,8,0:0:0:0:
256,192,223168,1,0,0:0:0:0:
256,192,223254,1,8,0:0:0:0:
256,192,223425,1,4,0:0:0:0:
256,192,223768,1,8,0:0:0:0:
256,192,223939,1,0,0:0:0:0:
256,192,224025,1,0,0:0:0:0:
256,192,224111,1,8,0:0:0:0:
256,192,224282,1,0,0:0:0:0:
256,192,224454,1,8,0:0:0:0:
256,192,224625,1,0,0:0:0:0:
256,192,224711,1,0,0:0:0:0:
256,192,224796,1,0,0:0:0:0:
256,192,224968,1,8,0:0:0:0:
256,192,225054,1,8,0:0:0:0:
256,192,225139,1,0,0:0:0:0:
256,192,225311,1,12,0:0:0:0:
256,192,225654,1,4,0:0:0:0:
256,192,225996,1,12,0:0:0:0:
256,192,226339,1,0,0:0:0:0:
256,192,226511,1,8,0:0:0:0:
256,192,226682,1,0,0:0:0:0:
256,192,226768,1,0,0:0:0:0:
256,192,226854,1,0,0:0:0:0:
256,192,227025,1,0,0:0:0:0:
256,192,227196,1,8,0:0:0:0:
256,192,227368,1,0,0:0:0:0:
256,192,227539,1,8,0:0:0:0:
256,192,227625,1,8,0:0:0:0:
256,192,227711,1,0,0:0:0:0:
256,192,227796,1,0,0:0:0:0:
256,192,227882,1,8,0:0:0:0:
256,192,228054,1,0,0:0:0:0:
256,192,228139,1,0,0:0:0:0:
256,192,228225,1,8,0:0:0:0:
256,192,228396,1,0,0:0:0:0:
256,192,228568,1,8,0:0:0:0:
256,192,228654,1,8,0:0:0:0:
256,192,228739,1,0,0:0:0:0:
256,192,228911,1,4,0:0:0:0:
256,192,229254,1,8,0:0:0:0:
256,192,229425,1,0,0:0:0:0:
256,192,229596,1,8,0:0:0:0:
256,192,229768,1,0,0:0:0:0:
256,192,229854,1,0,0:0:0:0:
256,192,229939,1,8,0:0:0:0:
256,192,230111,1,0,0:0:0:0:
256,192,230196,1,0,0:0:0:0:
256,192,230282,1,8,0:0:0:0:
256,192,230368,1,8,0:0:0:0:
256,192,230454,1,0,0:0:0:0:
256,192,230625,1,8,0:0:0:0:
256,192,230796,1,0,0:0:0:0:
256,192,230882,1,0,0:0:0:0:
256,192,230968,1,0,0:0:0:0:
256,192,231139,1,8,0:0:0:0:
256,192,231311,1,8,0:0:0:0:
256,192,231482,1,0,0:0:0:0:
256,192,231568,1,8,0:0:0:0:
256,192,231654,1,0,0:0:0:0:
256,192,231825,1,0,0:0:0:0:
256,192,231911,1,0,0:0:0:0:
256,192,231996,1,8,0:0:0:0:
256,192,232168,1,0,0:0:0:0:
256,192,232254,1,0,0:0:0:0:
256,192,232339,1,8,0:0:0:0:
256,192,232425,1,0,0:0:0:0:
256,192,232511,1,8,0:0:0:0:
256,192,232596,1,8,0:0:0:0:
256,192,232682,1,0,0:0:0:0:
256,192,232768,1,0,0:0:0:0:
256,192,232854,1,0,0:0:0:0:
256,192,233025,1,12,0:0:0:0:
256,192,233711,1,8,0:0:0:0:
160,64,234396,5,4,0:0:0:0:
128,192,234739,1,2,0:0:0:0:
160,64,235082,1,0,0:0:0:0:
160,128,235254,1,0,0:0:0:0:
160,64,235425,1,2,0:0:0:0:
160,128,235596,1,4,0:0:0:0:
160,96,235939,1,0,0:0:0:0:
160,96,236111,1,2,0:0:0:0:
160,96,236282,1,0,0:0:0:0:
160,64,236368,1,0,0:0:0:0:
160,96,236454,1,2,0:0:0:0:
160,96,236625,1,0,0:0:0:0:
160,96,236796,1,2,0:0:0:0:
192,64,236882,1,2,0:0:0:0:
160,96,236968,1,2,0:0:0:0:
160,96,237139,1,4,0:0:0:0:
160,96,237482,1,2,0:0:0:0:
160,32,237654,1,0,0:0:0:0:
160,96,237825,1,0,0:0:0:0:
160,64,237911,1,0,0:0:0:0:
160,96,237996,1,0,0:0:0:0:
160,64,238082,1,0,0:0:0:0:
160,64,238168,1,2,0:0:0:0:
160,96,238339,1,0,0:0:0:0:
160,32,238511,1,2,0:0:0:0:
160,32,238596,1,2,0:0:0:0:
160,32,238682,1,0,0:0:0:0:
192,96,238854,1,2,0:0:0:0:
160,96,239025,1,0,0:0:0:0:
160,96,239196,1,2,0:0:0:0:
160,64,239282,1,2,0:0:0:0:
160,96,239368,1,0,0:0:0:0:
160,64,239454,1,0,0:0:0:0:
160,96,239539,1,2,0:0:0:0:
160,64,239625,1,2,0:0:0:0:
160,96,239711,1,2,0:0:0:0:
160,96,239882,1,4,0:0:0:0:
160,96,240225,1,2,0:0:0:0:
160,32,240396,1,0,0:0:0:0:
160,96,240568,1,0,0:0:0:0:
160,32,240654,1,0,0:0:0:0:
160,96,240739,1,0,0:0:0:0:
160,96,240911,1,2,0:0:0:0:
160,96,241082,1,4,0:0:0:0:
160,96,241425,1,0,0:0:0:0:
160,96,241596,1,2,0:0:0:0:
224,32,241768,1,0,0:0:0:0:
160,96,241939,1,2,0:0:0:0:
160,64,242025,1,2,0:0:0:0:
160,96,242111,1,0,0:0:0:0:
160,96,242282,1,2,0:0:0:0:
160,96,242454,1,2,0:0:0:0:
160,32,242625,1,4,0:0:0:0:
160,96,242968,1,2,0:0:0:0:
160,32,243139,1,0,0:0:0:0:
160,96,243311,1,0,0:0:0:0:
160,96,243482,1,0,0:0:0:0:
160,96,243568,1,0,0:0:0:0:
160,96,243654,1,2,0:0:0:0:
160,32,243825,1,2,0:0:0:0:
192,32,243911,1,2,0:0:0:0:
224,32,243996,1,0,0:0:0:0:
160,32,244168,1,0,0:0:0:0:
160,96,244339,1,2,0:0:0:0:
192,32,244511,1,0,0:0:0:0:
160,96,244682,1,2,0:0:0:0:
160,96,244854,1,0,0:0:0:0:
192,32,244939,1,0,0:0:0:0:
160,96,245025,1,2,0:0:0:0:
160,64,245111,1,2,0:0:0:0:
160,96,245196,1,2,0:0:0:0:
160,96,245368,1,4,0:0:0:0:
160,96,245711,1,2,0:0:0:0:
160,96,246054,1,0,0:0:0:0:
160,32,246225,1,0,0:0:0:0:
160,96,246396,1,2,0:0:0:0:
160,96,246568,1,4,0:0:0:0:
160,64,246911,1,0,0:0:0:0:
192,32,247082,1,2,0:0:0:0:
192,32,247254,1,0,0:0:0:0:
192,32,247339,1,0,0:0:0:0:
192,32,247425,1,2,0:0:0:0:
192,32,247596,1,0,0:0:0:0:
192,32,247768,1,2,0:0:0:0:
160,0,247854,1,2,0:0:0:0:
192,32,247939,1,2,0:0:0:0:
192,32,248111,1,4,0:0:0:0:
192,32,248454,1,2,0:0:0:0:
192,32,248625,1,0,0:0:0:0:
192,32,248796,1,0,0:0:0:0:
192,32,248968,1,0,0:0:0:0:
192,32,249054,1,0,0:0:0:0:
192,0,249139,1,2,0:0:0:0:
192,32,249311,1,6,0:0:0:0:
192,32,249654,1,2,0:0:0:0:
192,32,249825,1,0,0:0:0:0:
192,32,249996,1,0,0:0:0:0:
192,32,250082,1,0,0:0:0:0:
192,32,250168,1,2,0:0:0:0:
192,32,250339,1,0,0:0:0:0:
192,32,250511,1,2,0:0:0:0:
192,32,250596,1,2,0:0:0:0:
192,32,250682,1,2,0:0:0:0:
192,32,250854,1,4,0:0:0:0:
192,32,251196,1,2,0:0:0:0:
128,64,251368,1,0,0:0:0:0:
192,32,251539,1,0,0:0:0:0:
160,32,251625,1,0,0:0:0:0:
192,32,251711,1,0,0:0:0:0:
192,32,251882,1,2,0:0:0:0:
192,32,252054,1,4,0:0:0:0:
192,32,252396,1,0,0:0:0:0:
192,32,252568,1,2,0:0:0:0:
192,32,252739,1,0,0:0:0:0:
192,32,252911,1,2,0:0:0:0:
192,32,252996,1,2,0:0:0:0:
192,32,253082,1,0,0:0:0:0:
192,32,253254,1,2,0:0:0:0:
192,32,253425,1,2,0:0:0:0:
192,32,253596,1,4,0:0:0:0:
192,32,253939,1,2,0:0:0:0:
192,32,254111,1,4,0:0:0:0:
192,32,254454,1,0,0:0:0:0:
192,32,254625,1,6,0:0:0:0:
192,32,254968,1,0,0:0:0:0:
192,32,255139,1,0,0:0:0:0:
192,32,255311,1,2,0:0:0:0:
192,32,255482,1,0,0:0:0:0:
192,32,255568,1,0,0:0:0:0:
192,32,255654,1,2,0:0:0:0:
192,32,255739,1,2,0:0:0:0:
192,32,255825,1,0,0:0:0:0:
192,32,255996,1,2,0:0:0:0:
192,32,256168,1,2,0:0:0:0:
192,32,256339,1,4,0:0:0:0:
192,32,256682,1,2,0:0:0:0:
192,32,256854,1,0,0:0:0:0:
192,32,257025,1,2,0:0:0:0:
192,32,257196,1,0,0:0:0:0:
192,32,257368,1,2,0:0:0:0:
192,32,257539,1,2,0:0:0:0:
192,32,257625,1,2,0:0:0:0:
192,32,257711,1,0,0:0:0:0:
192,32,257882,1,0,0:0:0:0:
192,0,257968,1,0,0:0:0:0:
192,32,258054,1,2,0:0:0:0:
192,32,258225,1,0,0:0:0:0:
192,32,258396,1,2,0:0:0:0:
160,32,258482,1,2,0:0:0:0:
160,0,258568,1,0,0:0:0:0:
192,32,258654,1,0,0:0:0:0:
192,32,258739,1,2,0:0:0:0:
192,32,258911,1,2,0:0:0:0:
192,32,259082,1,4,0:0:0:0:
256,192,259254,12,0,264568,0:0:0:0:
