osu file format v14

[General]
AudioFilename: Connect.mp3
AudioLeadIn: 0
PreviewTime: 66311
Countdown: 0
SampleSet: Normal
StackLeniency: 0.7
Mode: 1
LetterboxInBreaks: 0
WidescreenStoryboard: 0

[Editor]
DistanceSpacing: 1
BeatDivisor: 4
GridSize: 32
TimelineZoom: 1

[Metadata]
Title:Connect
TitleUnicode:コネクト
Artist:ClariS
ArtistUnicode:ClariS
Creator:Nardoxyribonucleic
Version:Kantan
Source:魔法少女まどか☆マギカ
Tags:Taiko Mahou Shoujo Puella Magi Madoka Magica Opening Clara Alice JUDYDANNY Collab
BeatmapID:1151550
BeatmapSetID:539122

[Difficulty]
HPDrainRate:7
CircleSize:5
OverallDifficulty:3
ApproachRate:3
SliderMultiplier:1.4
SliderTickRate:1

[Events]
//Background and Video events
0,0,"madoka1.jpg",0,-60
//Break Periods
//Storyboard Layer 0 (Background)
//Storyboard Layer 1 (Fail)
//Storyboard Layer 2 (Pass)
//Storyboard Layer 3 (Foreground)
//Storyboard Sound Samples

[TimingPoints]
1254,342.857142857143,4,1,0,50,1,0
12225,-100,4,1,0,80,0,0
23196,-100,4,1,0,70,0,0
45139,-100,4,1,0,80,0,0
67082,-100,4,1,0,90,0,1
87654,-100,4,1,0,75,0,0
89025,-100,4,1,0,80,0,0
99996,-100,4,1,0,70,0,0
110968,-100,4,1,0,80,0,0
121939,-100,4,1,0,85,0,0
143882,-100,4,1,0,90,0,1
164454,-100,4,1,0,75,0,0
165825,-100,4,1,0,70,0,0
176796,-100,4,1,0,85,0,0
198739,-100,4,1,0,50,0,0
206968,-100,4,1,0,60,0,0
208339,-100,4,1,0,70,0,0
209711,-100,4,1,0,80,0,0
215196,-100,4,1,0,90,0,1
233025,-100,4,1,0,75,0,0
234396,-100,4,1,0,80,0,0
259082,-100,4,1,0,72,0,0
259768,-100,4,1,0,64,0,0
260454,-100,4,1,0,56,0,0
261139,-100,4,1,0,48,0,0
261825,-100,4,1,0,40,0,0
262511,-100,4,1,0,32,0,0
263196,-100,4,1,0,24,0,0
263882,-100,4,1,0,16,0,0
264568,-100,4,1,0,8,0,0

[HitObjects]
256,192,1254,5,8,0:0:0:0:
256,192,2625,1,0,0:0:0:0:
256,192,3139,1,8,0:0:0:0:
256,192,3996,1,0,0:0:0:0:
256,192,5368,1,8,0:0:0:0:
256,192,5882,1,0,0:0:0:0:
256,192,6739,1,8,0:0:0:0:
256,192,8111,1,0,0:0:0:0:
256,192,8625,1,8,0:0:0:0:
256,192,9482,1,0,0:0:0:0:
256,192,10682,1,8,0:0:0:0:
256,192,12225,1,4,0:0:0:0:
256,192,12911,1,8,0:0:0:0:
256,192,13425,1,4,0:0:0:0:
256,192,14282,1,8,0:0:0:0:
256,192,14968,1,4,0:0:0:0:
256,192,15654,1,8,0:0:0:0:
256,192,16168,1,12,0:0:0:0:
256,192,17711,1,4,0:0:0:0:
256,192,18396,1,8,0:0:0:0:
256,192,18911,1,4,0:0:0:0:
256,192,19768,1,8,0:0:0:0:
256,192,20454,1,4,0:0:0:0:
256,192,21825,1,12,0:0:0:0:
256,192,22511,1,8,0:0:0:0:
256,192,23196,1,4,0:0:0:0:
256,192,24568,1,8,0:0:0:0:
256,192,25254,1,0,0:0:0:0:
256,192,25596,1,8,0:0:0:0:
256,192,25939,1,0,0:0:0:0:
256,192,26625,1,0,0:0:0:0:
256,192,27311,1,8,0:0:0:0:
256,192,28682,1,0,0:0:0:0:
256,192,29368,1,0,0:0:0:0:
256,192,29711,1,0,0:0:0:0:
256,192,30054,1,8,0:0:0:0:
256,192,30739,1,0,0:0:0:0:
256,192,31425,1,8,0:0:0:0:
256,192,32796,1,0,0:0:0:0:
256,192,33482,1,8,0:0:0:0:
256,192,34168,1,0,0:0:0:0:
256,192,35539,1,8,0:0:0:0:
256,192,36225,1,0,0:0:0:0:
256,192,36568,1,8,0:0:0:0:
256,192,36911,1,0,0:0:0:0:
256,192,37596,1,0,0:0:0:0:
256,192,38282,1,8,0:0:0:0:
256,192,39654,1,8,0:0:0:0:
256,192,40339,1,8,0:0:0:0:
256,192,40682,1,8,0:0:0:0:
256,192,41025,1,0,0:0:0:0:
256,192,41711,1,8,0:0:0:0:
256,192,42396,1,0,0:0:0:0:
256,192,43768,1,8,0:0:0:0:
256,192,44454,1,0,0:0:0:0:
256,192,45139,1,4,0:0:0:0:
256,192,45825,1,8,0:0:0:0:
256,192,46168,1,8,0:0:0:0:
256,192,46511,1,0,0:0:0:0:
256,192,47196,1,8,0:0:0:0:
256,192,47882,1,0,0:0:0:0:
256,192,49254,1,8,0:0:0:0:
256,192,49939,1,0,0:0:0:0:
256,192,50282,1,0,0:0:0:0:
256,192,50625,1,8,0:0:0:0:
256,192,51311,1,0,0:0:0:0:
256,192,51996,1,8,0:0:0:0:
256,192,52682,1,0,0:0:0:0:
256,192,53025,1,8,0:0:0:0:
256,192,53368,1,0,0:0:0:0:
256,192,54739,1,0,0:0:0:0:
256,192,55425,1,8,0:0:0:0:
256,192,56111,1,4,0:0:0:0:
256,192,56796,1,8,0:0:0:0:
256,192,57139,1,8,0:0:0:0:
256,192,57482,1,0,0:0:0:0:
256,192,58168,1,0,0:0:0:0:
256,192,58854,1,8,0:0:0:0:
256,192,60225,1,0,0:0:0:0:
256,192,60911,1,0,0:0:0:0:
256,192,61254,1,8,0:0:0:0:
256,192,61596,1,4,0:0:0:0:
256,192,62282,1,8,0:0:0:0:
256,192,62968,1,4,0:0:0:0:
256,192,63654,1,8,0:0:0:0:
256,192,64339,1,4,0:0:0:0:
256,192,65025,1,0,0:0:0:0:
256,192,65368,1,0,0:0:0:0:
256,192,65711,1,12,0:0:0:0:
256,192,67082,1,4,0:0:0:0:
256,192,67768,1,0,0:0:0:0:
256,192,68454,1,8,0:0:0:0:
256,192,68796,1,8,0:0:0:0:
256,192,69139,1,8,0:0:0:0:
256,192,69825,1,0,0:0:0:0:
256,192,70511,1,0,0:0:0:0:
256,192,71196,1,8,0:0:0:0:
256,192,72568,1,4,0:0:0:0:
256,192,73254,1,8,0:0:0:0:
256,192,73939,1,0,0:0:0:0:
256,192,74282,1,0,0:0:0:0:
256,192,74625,1,8,0:0:0:0:
256,192,75311,1,4,0:0:0:0:
256,192,76682,1,8,0:0:0:0:
256,192,77368,1,8,0:0:0:0:
256,192,77711,1,8,0:0:0:0:
256,192,78054,1,4,0:0:0:0:
256,192,78739,1,0,0:0:0:0:
256,192,79425,1,0,0:0:0:0:
256,192,80625,1,12,0:0:0:0:
256,192,81482,1,0,0:0:0:0:
256,192,82168,1,8,0:0:0:0:
256,192,82511,1,8,0:0:0:0:
256,192,82854,1,0,0:0:0:0:
256,192,83539,1,4,0:0:0:0:
256,192,84225,1,8,0:0:0:0:
256,192,84911,1,0,0:0:0:0:
256,192,85254,1,8,0:0:0:0:
256,192,85596,1,0,0:0:0:0:
256,192,86282,1,8,0:0:0:0:
256,192,86968,1,8,0:0:0:0:
256,192,87311,1,0,0:0:0:0:
256,192,87654,1,12,0:0:0:0:
256,192,89025,1,4,0:0:0:0:
256,192,89711,1,8,0:0:0:0:
256,192,90225,1,4,0:0:0:0:
256,192,91082,1,8,0:0:0:0:
256,192,91768,1,4,0:0:0:0:
256,192,92454,1,8,0:0:0:0:
256,192,92968,1,12,0:0:0:0:
256,192,94511,1,4,0:0:0:0:
256,192,95196,1,8,0:0:0:0:
256,192,95711,1,4,0:0:0:0:
256,192,96568,1,8,0:0:0:0:
256,192,97254,1,4,0:0:0:0:
256,192,98625,1,12,0:0:0:0:
256,192,99311,1,8,0:0:0:0:
256,192,99996,1,4,0:0:0:0:
256,192,101368,1,8,0:0:0:0:
256,192,102054,1,0,0:0:0:0:
256,192,102396,1,8,0:0:0:0:
256,192,102739,1,0,0:0:0:0:
256,192,103425,1,0,0:0:0:0:
256,192,104111,1,8,0:0:0:0:
256,192,105482,1,0,0:0:0:0:
256,192,106168,1,0,0:0:0:0:
256,192,106511,1,0,0:0:0:0:
256,192,106854,1,8,0:0:0:0:
256,192,107539,1,0,0:0:0:0:
256,192,108225,1,8,0:0:0:0:
256,192,109596,1,0,0:0:0:0:
256,192,110282,1,0,0:0:0:0:
256,192,110625,1,12,0:0:0:0:
256,192,110968,1,0,0:0:0:0:
256,192,111654,1,0,0:0:0:0:
256,192,112339,1,8,0:0:0:0:
256,192,113025,1,8,0:0:0:0:
256,192,113368,1,8,0:0:0:0:
256,192,113711,1,0,0:0:0:0:
256,192,114396,1,0,0:0:0:0:
256,192,115082,1,8,0:0:0:0:
256,192,116454,1,0,0:0:0:0:
256,192,117139,1,8,0:0:0:0:
256,192,117825,1,0,0:0:0:0:
256,192,118168,1,8,0:0:0:0:
256,192,118511,1,0,0:0:0:0:
256,192,119196,1,8,0:0:0:0:
256,192,119882,1,0,0:0:0:0:
256,192,120568,1,8,0:0:0:0:
256,192,121254,1,8,0:0:0:0:
256,192,121596,1,8,0:0:0:0:
256,192,121939,1,4,0:0:0:0:
256,192,122968,1,8,0:0:0:0:
256,192,123311,1,0,0:0:0:0:
256,192,123996,1,8,0:0:0:0:
256,192,124682,1,0,0:0:0:0:
256,192,125368,1,8,0:0:0:0:
256,192,125711,1,8,0:0:0:0:
256,192,126054,1,0,0:0:0:0:
256,192,127425,1,12,0:0:0:0:
256,192,128111,1,0,0:0:0:0:
256,192,128796,1,8,0:0:0:0:
256,192,129482,1,0,0:0:0:0:
256,192,129825,1,8,0:0:0:0:
256,192,130168,1,0,0:0:0:0:
256,192,130854,1,0,0:0:0:0:
256,192,131196,1,0,0:0:0:0:
256,192,131539,1,8,0:0:0:0:
256,192,132911,1,4,0:0:0:0:
256,192,133939,1,8,0:0:0:0:
256,192,134282,1,0,0:0:0:0:
256,192,134968,1,0,0:0:0:0:
256,192,135654,1,8,0:0:0:0:
256,192,136339,1,8,0:0:0:0:
256,192,137025,1,0,0:0:0:0:
256,192,137368,1,0,0:0:0:0:
256,192,137711,1,8,0:0:0:0:
256,192,138396,1,4,0:0:0:0:
256,192,139082,1,0,0:0:0:0:
256,192,139768,1,12,0:0:0:0:
256,192,140454,1,8,0:0:0:0:
256,192,141139,1,4,0:0:0:0:
256,192,141825,1,0,0:0:0:0:
256,192,142168,1,0,0:0:0:0:
256,192,142511,1,12,0:0:0:0:
256,192,143882,1,4,0:0:0:0:
256,192,144568,1,0,0:0:0:0:
256,192,145254,1,8,0:0:0:0:
256,192,145596,1,8,0:0:0:0:
256,192,145939,1,8,0:0:0:0:
256,192,146625,1,0,0:0:0:0:
256,192,147311,1,0,0:0:0:0:
256,192,147996,1,8,0:0:0:0:
256,192,149368,1,4,0:0:0:0:
256,192,150054,1,8,0:0:0:0:
256,192,150739,1,0,0:0:0:0:
256,192,151082,1,0,0:0:0:0:
256,192,151425,1,8,0:0:0:0:
256,192,152111,1,4,0:0:0:0:
256,192,153482,1,8,0:0:0:0:
256,192,154168,1,8,0:0:0:0:
256,192,154511,1,8,0:0:0:0:
256,192,154854,1,4,0:0:0:0:
256,192,155539,1,0,0:0:0:0:
256,192,156225,1,0,0:0:0:0:
256,192,157425,1,12,0:0:0:0:
256,192,158282,1,0,0:0:0:0:
256,192,158968,1,8,0:0:0:0:
256,192,159311,1,8,0:0:0:0:
256,192,159654,1,0,0:0:0:0:
256,192,160339,1,4,0:0:0:0:
256,192,161025,1,8,0:0:0:0:
256,192,161711,1,0,0:0:0:0:
256,192,162054,1,8,0:0:0:0:
256,192,162396,1,0,0:0:0:0:
256,192,163082,1,8,0:0:0:0:
256,192,163768,1,8,0:0:0:0:
256,192,164111,1,0,0:0:0:0:
256,192,164454,1,12,0:0:0:0:
256,192,165825,1,4,0:0:0:0:
256,192,167025,1,0,0:0:0:0:
256,192,167882,1,8,0:0:0:0:
256,192,168568,1,0,0:0:0:0:
256,192,169768,1,0,0:0:0:0:
256,192,170625,1,8,0:0:0:0:
256,192,171311,1,4,0:0:0:0:
256,192,172511,1,0,0:0:0:0:
256,192,173368,1,8,0:0:0:0:
256,192,174054,1,0,0:0:0:0:
256,192,175254,1,4,0:0:0:0:
256,192,176111,1,8,0:0:0:0:
256,192,176796,1,4,0:0:0:0:
256,192,177482,1,0,0:0:0:0:
256,192,178168,1,0,0:0:0:0:
256,192,178511,1,8,0:0:0:0:
256,192,179196,1,8,0:0:0:0:
256,192,179539,1,0,0:0:0:0:
256,192,180911,1,8,0:0:0:0:
256,192,181254,1,0,0:0:0:0:
256,192,181939,1,0,0:0:0:0:
256,192,182282,1,8,0:0:0:0:
256,192,182968,1,8,0:0:0:0:
256,192,183654,1,0,0:0:0:0:
256,192,185025,1,4,0:0:0:0:
256,192,185711,1,0,0:0:0:0:
256,192,186396,1,8,0:0:0:0:
256,192,187082,1,8,0:0:0:0:
256,192,187425,1,8,0:0:0:0:
256,192,187768,1,4,0:0:0:0:
256,192,188454,1,8,0:0:0:0:
256,192,189139,1,0,0:0:0:0:
256,192,189654,1,8,0:0:0:0:
256,192,190339,1,4,0:0:0:0:
256,192,191882,1,8,0:0:0:0:
256,192,192396,1,8,0:0:0:0:
256,192,192911,1,8,0:0:0:0:
256,192,193254,1,4,0:0:0:0:
256,192,193939,1,0,0:0:0:0:
256,192,194625,1,0,0:0:0:0:
256,192,194968,1,0,0:0:0:0:
256,192,195311,1,0,0:0:0:0:
256,192,195996,1,8,0:0:0:0:
256,192,196339,1,8,0:0:0:0:
256,192,196682,1,8,0:0:0:0:
256,192,197368,1,4,0:0:0:0:
256,192,198739,1,0,0:0:0:0:
256,192,200111,1,8,0:0:0:0:
256,192,201482,1,0,0:0:0:0:
256,192,202168,1,8,0:0:0:0:
256,192,202854,1,0,0:0:0:0:
256,192,204225,1,0,0:0:0:0:
256,192,205596,1,8,0:0:0:0:
256,192,206968,1,8,0:0:0:0:
256,192,207654,1,0,0:0:0:0:
256,192,208339,1,8,0:0:0:0:
256,192,209025,1,8,0:0:0:0:
256,192,209711,1,4,0:0:0:0:
256,192,210396,1,0,0:0:0:0:
256,192,210911,1,12,0:0:0:0:
256,192,211425,1,12,0:0:0:0:
256,192,214339,1,12,0:0:0:0:
256,192,215196,1,4,0:0:0:0:
256,192,215882,1,0,0:0:0:0:
256,192,216568,1,8,0:0:0:0:
256,192,217939,1,4,0:0:0:0:
256,192,218625,1,8,0:0:0:0:
256,192,219311,1,0,0:0:0:0:
256,192,219654,1,0,0:0:0:0:
256,192,219996,1,8,0:0:0:0:
256,192,220682,1,4,0:0:0:0:
256,192,222054,1,8,0:0:0:0:
256,192,222739,1,8,0:0:0:0:
256,192,223082,1,8,0:0:0:0:
256,192,223425,1,4,0:0:0:0:
256,192,224111,1,0,0:0:0:0:
256,192,224796,1,0,0:0:0:0:
256,192,225996,1,12,0:0:0:0:
256,192,226854,1,0,0:0:0:0:
256,192,227539,1,8,0:0:0:0:
256,192,227882,1,8,0:0:0:0:
256,192,228225,1,0,0:0:0:0:
256,192,228911,1,4,0:0:0:0:
256,192,229596,1,8,0:0:0:0:
256,192,230282,1,0,0:0:0:0:
256,192,230625,1,8,0:0:0:0:
256,192,230968,1,0,0:0:0:0:
256,192,231654,1,8,0:0:0:0:
256,192,232339,1,8,0:0:0:0:
256,192,232682,1,0,0:0:0:0:
256,192,233025,1,12,0:0:0:0:
256,192,234396,1,4,0:0:0:0:
256,192,235082,1,8,0:0:0:0:
256,192,235596,1,4,0:0:0:0:
256,192,236454,1,8,0:0:0:0:
256,192,237139,1,4,0:0:0:0:
256,192,237825,1,0,0:0:0:0:
256,192,238511,1,8,0:0:0:0:
256,192,239196,1,8,0:0:0:0:
256,192,239539,1,8,0:0:0:0:
256,192,239882,1,4,0:0:0:0:
256,192,240568,1,8,0:0:0:0:
256,192,241082,1,4,0:0:0:0:
256,192,241939,1,8,0:0:0:0:
256,192,242625,1,4,0:0:0:0:
256,192,243996,1,8,0:0:0:0:
256,192,244339,1,8,0:0:0:0:
256,192,244682,1,8,0:0:0:0:
256,192,245368,1,4,0:0:0:0:
256,192,246054,1,8,0:0:0:0:
256,192,246568,1,4,0:0:0:0:
256,192,247425,1,8,0:0:0:0:
256,192,248111,1,4,0:0:0:0:
256,192,248796,1,8,0:0:0:0:
256,192,249311,1,12,0:0:0:0:
256,192,250854,1,4,0:0:0:0:
256,192,251539,1,8,0:0:0:0:
256,192,252054,1,4,0:0:0:0:
256,192,252911,1,8,0:0:0:0:
256,192,253596,1,4,0:0:0:0:
256,192,254111,1,4,0:0:0:0:
256,192,254625,1,12,0:0:0:0:
256,192,255654,1,8,0:0:0:0:
256,192,255996,1,8,0:0:0:0:
256,192,256339,1,4,0:0:0:0:
256,192,257025,1,8,0:0:0:0:
256,192,257711,1,0,0:0:0:0:
256,192,258054,1,0,0:0:0:0:
256,192,258396,1,8,0:0:0:0:
256,192,258739,1,8,0:0:0:0:
256,192,259082,1,4,0:0:0:0:
256,192,259254,12,0,264568,0:0:0:0:
