osu file format v14

[General]
AudioFilename: Connect.mp3
AudioLeadIn: 0
PreviewTime: 66311
Countdown: 0
SampleSet: Normal
StackLeniency: 0.7
Mode: 1
LetterboxInBreaks: 0
WidescreenStoryboard: 0

[Editor]
DistanceSpacing: 1
BeatDivisor: 4
GridSize: 32
TimelineZoom: 1

[Metadata]
Title:Connect
TitleUnicode:コネクト
Artist:ClariS
ArtistUnicode:ClariS
Creator:Nardoxyribonucleic
Version:Futsuu
Source:魔法少女まどか☆マギカ
Tags:Taiko Mahou Shoujo Puella Magi Madoka Magica Opening Clara Alice JUDYDANNY Collab
BeatmapID:1151358
BeatmapSetID:539122

[Difficulty]
HPDrainRate:6
CircleSize:5
OverallDifficulty:4
ApproachRate:4
SliderMultiplier:1.4
SliderTickRate:1

[Events]
//Background and Video events
0,0,"madoka1.jpg",0,-60
//Break Periods
//Storyboard Layer 0 (Background)
//Storyboard Layer 1 (Fail)
//Storyboard Layer 2 (Pass)
//Storyboard Layer 3 (Foreground)
//Storyboard Sound Samples

[TimingPoints]
1254,342.857142857143,4,1,0,50,1,0
12225,-100,4,1,0,80,0,0
23196,-100,4,1,0,70,0,0
45139,-100,4,1,0,80,0,0
67082,-100,4,1,0,90,0,1
87654,-100,4,1,0,75,0,0
89025,-100,4,1,0,80,0,0
99996,-100,4,1,0,70,0,0
110968,-100,4,1,0,80,0,0
121939,-100,4,1,0,85,0,0
143882,-100,4,1,0,90,0,1
164454,-100,4,1,0,75,0,0
165825,-100,4,1,0,70,0,0
176796,-100,4,1,0,85,0,0
198739,-100,4,1,0,50,0,0
206968,-100,4,1,0,60,0,0
208339,-100,4,1,0,70,0,0
209711,-100,4,1,0,80,0,0
215196,-100,4,1,0,90,0,1
233025,-100,4,1,0,75,0,0
234396,-100,4,1,0,80,0,0
259082,-100,4,1,0,72,0,0
259768,-100,4,1,0,64,0,0
260454,-100,4,1,0,56,0,0
261139,-100,4,1,0,48,0,0
261825,-100,4,1,0,40,0,0
262511,-100,4,1,0,32,0,0
263196,-100,4,1,0,24,0,0
263882,-100,4,1,0,16,0,0
264568,-100,4,1,0,8,0,0

[HitObjects]
256,192,1254,5,8,0:0:0:0:
256,192,1939,1,8,0:0:0:0:
256,192,2625,1,0,0:0:0:0:
256,192,3139,1,8,0:0:0:0:
256,192,3482,1,0,0:0:0:0:
256,192,3825,1,0,0:0:0:0:
256,192,4682,1,8,0:0:0:0:
256,192,5368,1,0,0:0:0:0:
256,192,5882,1,8,0:0:0:0:
256,192,6396,1,0,0:0:0:0:
256,192,6739,1,8,0:0:0:0:
256,192,7425,1,8,0:0:0:0:
256,192,8111,1,0,0:0:0:0:
256,192,8625,1,8,0:0:0:0:
256,192,8968,1,0,0:0:0:0:
256,192,9311,1,0,0:0:0:0:
256,192,10339,1,0,0:0:0:0:
256,192,10682,1,8,0:0:0:0:
256,192,12225,1,4,0:0:0:0:
256,192,12568,1,8,0:0:0:0:
256,192,12911,1,0,0:0:0:0:
256,192,13254,1,8,0:0:0:0:
256,192,13425,1,4,0:0:0:0:
256,192,13768,1,0,0:0:0:0:
256,192,13939,1,8,0:0:0:0:
256,192,14282,1,8,0:0:0:0:
256,192,14968,1,4,0:0:0:0:
256,192,15311,1,8,0:0:0:0:
256,192,15654,1,0,0:0:0:0:
256,192,15996,1,0,0:0:0:0:
256,192,16168,1,12,0:0:0:0:
256,192,16682,1,8,0:0:0:0:
256,192,17025,1,0,0:0:0:0:
256,192,17196,1,0,0:0:0:0:
256,192,17368,1,8,0:0:0:0:
256,192,17711,1,4,0:0:0:0:
256,192,18054,1,8,0:0:0:0:
256,192,18396,1,0,0:0:0:0:
256,192,18739,1,8,0:0:0:0:
256,192,18911,1,4,0:0:0:0:
256,192,19254,1,0,0:0:0:0:
256,192,19425,1,8,0:0:0:0:
256,192,19768,1,8,0:0:0:0:
256,192,20454,1,4,0:0:0:0:
256,192,20968,1,8,0:0:0:0:
256,192,21139,1,8,0:0:0:0:
256,192,21482,1,0,0:0:0:0:
256,192,21825,1,12,0:0:0:0:
256,192,22511,1,8,0:0:0:0:
256,192,23196,1,4,0:0:0:0:
256,192,23539,1,8,0:0:0:0:
256,192,23882,1,0,0:0:0:0:
256,192,24568,1,8,0:0:0:0:
256,192,25082,1,8,0:0:0:0:
256,192,25425,1,8,0:0:0:0:
256,192,25768,1,0,0:0:0:0:
256,192,26282,1,8,0:0:0:0:
256,192,26625,1,8,0:0:0:0:
256,192,27311,1,8,0:0:0:0:
256,192,27825,1,0,0:0:0:0:
256,192,28168,1,0,0:0:0:0:
256,192,28511,1,0,0:0:0:0:
256,192,28682,1,8,0:0:0:0:
256,192,29025,1,0,0:0:0:0:
256,192,29368,1,0,0:0:0:0:
256,192,30054,1,8,0:0:0:0:
256,192,30396,1,8,0:0:0:0:
256,192,30568,1,0,0:0:0:0:
256,192,30911,1,0,0:0:0:0:
256,192,31254,1,8,0:0:0:0:
256,192,31425,1,0,0:0:0:0:
256,192,31768,1,0,0:0:0:0:
256,192,32111,1,8,0:0:0:0:
256,192,32796,1,0,0:0:0:0:
256,192,33139,1,8,0:0:0:0:
256,192,33482,1,0,0:0:0:0:
256,192,34168,1,0,0:0:0:0:
256,192,34511,1,8,0:0:0:0:
256,192,34854,1,0,0:0:0:0:
256,192,35539,1,8,0:0:0:0:
256,192,36054,1,8,0:0:0:0:
256,192,36396,1,8,0:0:0:0:
256,192,36739,1,0,0:0:0:0:
256,192,37254,1,8,0:0:0:0:
256,192,37596,1,8,0:0:0:0:
256,192,38282,1,8,0:0:0:0:
256,192,38796,1,0,0:0:0:0:
256,192,39139,1,8,0:0:0:0:
256,192,39482,1,8,0:0:0:0:
256,192,39654,1,0,0:0:0:0:
256,192,39996,1,0,0:0:0:0:
256,192,40339,1,8,0:0:0:0:
256,192,41025,1,0,0:0:0:0:
256,192,41368,1,8,0:0:0:0:
256,192,41539,1,8,0:0:0:0:
256,192,41711,1,0,0:0:0:0:
256,192,42054,1,8,0:0:0:0:
256,192,42396,1,0,0:0:0:0:
256,192,42911,1,8,0:0:0:0:
256,192,43425,1,0,0:0:0:0:
256,192,43768,1,8,0:0:0:0:
256,192,44454,1,0,0:0:0:0:
256,192,44796,1,8,0:0:0:0:
256,192,45139,1,4,0:0:0:0:
256,192,45482,1,0,0:0:0:0:
256,192,45825,1,0,0:0:0:0:
256,192,46168,1,8,0:0:0:0:
256,192,46339,1,0,0:0:0:0:
256,192,47196,1,0,0:0:0:0:
256,192,47539,1,8,0:0:0:0:
256,192,47882,1,0,0:0:0:0:
256,192,48396,1,8,0:0:0:0:
256,192,48911,1,8,0:0:0:0:
256,192,50282,1,0,0:0:0:0:
256,192,50454,1,0,0:0:0:0:
256,192,50625,1,8,0:0:0:0:
256,192,51139,1,0,0:0:0:0:
256,192,51654,1,8,0:0:0:0:
256,192,52168,1,8,0:0:0:0:
256,192,52682,1,0,0:0:0:0:
256,192,53025,1,8,0:0:0:0:
256,192,53196,1,0,0:0:0:0:
256,192,54054,1,0,0:0:0:0:
256,192,54396,1,0,0:0:0:0:
256,192,54568,1,8,0:0:0:0:
256,192,55425,1,0,0:0:0:0:
256,192,55768,1,8,0:0:0:0:
256,192,56111,1,4,0:0:0:0:
256,192,56454,1,0,0:0:0:0:
256,192,56796,1,0,0:0:0:0:
256,192,57139,1,8,0:0:0:0:
256,192,57311,1,0,0:0:0:0:
256,192,58168,1,0,0:0:0:0:
256,192,58511,1,8,0:0:0:0:
256,192,58854,1,8,0:0:0:0:
256,192,59368,1,8,0:0:0:0:
256,192,59882,1,0,0:0:0:0:
256,192,60054,1,8,0:0:0:0:
256,192,60396,1,8,0:0:0:0:
256,192,60568,1,0,0:0:0:0:
256,192,60911,1,0,0:0:0:0:
256,192,61254,1,8,0:0:0:0:
256,192,61596,1,4,0:0:0:0:
256,192,62111,1,8,0:0:0:0:
256,192,62625,1,0,0:0:0:0:
256,192,62968,1,4,0:0:0:0:
256,192,63482,1,8,0:0:0:0:
256,192,63996,1,0,0:0:0:0:
256,192,64339,1,12,0:0:0:0:
256,192,64682,1,8,0:0:0:0:
256,192,65025,1,0,0:0:0:0:
256,192,65196,1,8,0:0:0:0:
256,192,65368,1,0,0:0:0:0:
256,192,65711,1,12,0:0:0:0:
256,192,67082,1,4,0:0:0:0:
256,192,67425,1,8,0:0:0:0:
256,192,67768,1,0,0:0:0:0:
256,192,67939,1,8,0:0:0:0:
256,192,68454,1,0,0:0:0:0:
256,192,68796,1,8,0:0:0:0:
256,192,68968,1,0,0:0:0:0:
256,192,69311,1,0,0:0:0:0:
256,192,69482,1,8,0:0:0:0:
256,192,69825,1,0,0:0:0:0:
256,192,70511,1,0,0:0:0:0:
256,192,70854,1,8,0:0:0:0:
256,192,71196,1,8,0:0:0:0:
256,192,71539,1,0,0:0:0:0:
256,192,71711,1,8,0:0:0:0:
256,192,72054,1,0,0:0:0:0:
256,192,72225,1,8,0:0:0:0:
256,192,72568,1,4,0:0:0:0:
256,192,72911,1,8,0:0:0:0:
256,192,73254,1,0,0:0:0:0:
256,192,73425,1,8,0:0:0:0:
256,192,73939,1,0,0:0:0:0:
256,192,74282,1,8,0:0:0:0:
256,192,74454,1,0,0:0:0:0:
256,192,74796,1,0,0:0:0:0:
256,192,74968,1,8,0:0:0:0:
256,192,75311,1,4,0:0:0:0:
256,192,75996,1,8,0:0:0:0:
256,192,76339,1,0,0:0:0:0:
256,192,76511,1,12,0:0:0:0:
256,192,77025,1,8,0:0:0:0:
256,192,77368,1,8,0:0:0:0:
256,192,77539,1,0,0:0:0:0:
256,192,77711,1,8,0:0:0:0:
256,192,78054,1,4,0:0:0:0:
256,192,78396,1,8,0:0:0:0:
256,192,78739,1,0,0:0:0:0:
256,192,78911,1,8,0:0:0:0:
256,192,79425,1,0,0:0:0:0:
256,192,79939,1,12,0:0:0:0:
256,192,80282,1,4,0:0:0:0:
256,192,80625,1,12,0:0:0:0:
256,192,81482,1,0,0:0:0:0:
256,192,81825,1,8,0:0:0:0:
256,192,82168,1,8,0:0:0:0:
256,192,82511,1,8,0:0:0:0:
256,192,82682,1,0,0:0:0:0:
256,192,83025,1,0,0:0:0:0:
256,192,83196,1,8,0:0:0:0:
256,192,83539,1,4,0:0:0:0:
256,192,84225,1,8,0:0:0:0:
256,192,84568,1,8,0:0:0:0:
256,192,84911,1,0,0:0:0:0:
256,192,85254,1,8,0:0:0:0:
256,192,85425,1,0,0:0:0:0:
256,192,85768,1,8,0:0:0:0:
256,192,85939,1,8,0:0:0:0:
256,192,86282,1,0,0:0:0:0:
256,192,86625,1,8,0:0:0:0:
256,192,86968,1,8,0:0:0:0:
256,192,87139,1,8,0:0:0:0:
256,192,87311,1,0,0:0:0:0:
256,192,87654,1,12,0:0:0:0:
256,192,88339,1,8,0:0:0:0:
256,192,89025,1,4,0:0:0:0:
256,192,89368,1,8,0:0:0:0:
256,192,89711,1,0,0:0:0:0:
256,192,90054,1,8,0:0:0:0:
256,192,90225,1,4,0:0:0:0:
256,192,90568,1,0,0:0:0:0:
256,192,90739,1,8,0:0:0:0:
256,192,91082,1,8,0:0:0:0:
256,192,91768,1,4,0:0:0:0:
256,192,92111,1,8,0:0:0:0:
256,192,92454,1,0,0:0:0:0:
256,192,92796,1,0,0:0:0:0:
256,192,92968,1,12,0:0:0:0:
256,192,93482,1,8,0:0:0:0:
256,192,93825,1,0,0:0:0:0:
256,192,93996,1,0,0:0:0:0:
256,192,94168,1,8,0:0:0:0:
256,192,94511,1,4,0:0:0:0:
256,192,94854,1,8,0:0:0:0:
256,192,95196,1,0,0:0:0:0:
256,192,95539,1,8,0:0:0:0:
256,192,95711,1,4,0:0:0:0:
256,192,96054,1,0,0:0:0:0:
256,192,96225,1,8,0:0:0:0:
256,192,96568,1,8,0:0:0:0:
256,192,97254,1,4,0:0:0:0:
256,192,97768,1,8,0:0:0:0:
256,192,97939,1,8,0:0:0:0:
256,192,98282,1,0,0:0:0:0:
256,192,98625,1,12,0:0:0:0:
256,192,99311,1,8,0:0:0:0:
256,192,99996,1,4,0:0:0:0:
256,192,100339,1,8,0:0:0:0:
256,192,100682,1,0,0:0:0:0:
256,192,101368,1,8,0:0:0:0:
256,192,101882,1,8,0:0:0:0:
256,192,102225,1,8,0:0:0:0:
256,192,102568,1,0,0:0:0:0:
256,192,103082,1,8,0:0:0:0:
256,192,103425,1,8,0:0:0:0:
256,192,104111,1,8,0:0:0:0:
256,192,104625,1,0,0:0:0:0:
256,192,104968,1,0,0:0:0:0:
256,192,105311,1,0,0:0:0:0:
256,192,105482,1,8,0:0:0:0:
256,192,105825,1,0,0:0:0:0:
256,192,106168,1,0,0:0:0:0:
256,192,106854,1,8,0:0:0:0:
256,192,107196,1,8,0:0:0:0:
256,192,107368,1,0,0:0:0:0:
256,192,107711,1,0,0:0:0:0:
256,192,108054,1,8,0:0:0:0:
256,192,108225,1,0,0:0:0:0:
256,192,108568,1,0,0:0:0:0:
256,192,108911,1,8,0:0:0:0:
256,192,109596,1,0,0:0:0:0:
256,192,109939,1,8,0:0:0:0:
256,192,110282,1,0,0:0:0:0:
256,192,110454,1,0,0:0:0:0:
256,192,110625,1,12,0:0:0:0:
256,192,110968,1,0,0:0:0:0:
256,192,111311,1,8,0:0:0:0:
256,192,111654,1,0,0:0:0:0:
256,192,112339,1,0,0:0:0:0:
256,192,112682,1,8,0:0:0:0:
256,192,112854,1,0,0:0:0:0:
256,192,113196,1,0,0:0:0:0:
256,192,113368,1,8,0:0:0:0:
256,192,113711,1,0,0:0:0:0:
256,192,114054,1,8,0:0:0:0:
256,192,114396,1,0,0:0:0:0:
256,192,115082,1,8,0:0:0:0:
256,192,115425,1,8,0:0:0:0:
256,192,115596,1,0,0:0:0:0:
256,192,115939,1,8,0:0:0:0:
256,192,116282,1,0,0:0:0:0:
256,192,116454,1,0,0:0:0:0:
256,192,116796,1,8,0:0:0:0:
256,192,117139,1,0,0:0:0:0:
256,192,117825,1,0,0:0:0:0:
256,192,118168,1,8,0:0:0:0:
256,192,118339,1,8,0:0:0:0:
256,192,118511,1,0,0:0:0:0:
256,192,118854,1,8,0:0:0:0:
256,192,119196,1,0,0:0:0:0:
256,192,119711,1,8,0:0:0:0:
256,192,120225,1,0,0:0:0:0:
256,192,120568,1,8,0:0:0:0:
256,192,120911,1,0,0:0:0:0:
256,192,121082,1,8,0:0:0:0:
256,192,121425,1,0,0:0:0:0:
256,192,121596,1,8,0:0:0:0:
256,192,121939,1,4,0:0:0:0:
256,192,122454,1,8,0:0:0:0:
256,192,122968,1,8,0:0:0:0:
256,192,123482,1,8,0:0:0:0:
256,192,123825,1,0,0:0:0:0:
256,192,123996,1,8,0:0:0:0:
256,192,124339,1,8,0:0:0:0:
256,192,124682,1,0,0:0:0:0:
256,192,125196,1,8,0:0:0:0:
256,192,125711,1,8,0:0:0:0:
256,192,125882,1,8,0:0:0:0:
256,192,126054,1,8,0:0:0:0:
256,192,126396,1,0,0:0:0:0:
256,192,126739,1,8,0:0:0:0:
256,192,127425,1,12,0:0:0:0:
256,192,127939,1,8,0:0:0:0:
256,192,128454,1,8,0:0:0:0:
256,192,128968,1,8,0:0:0:0:
256,192,129311,1,0,0:0:0:0:
256,192,129482,1,8,0:0:0:0:
256,192,129825,1,8,0:0:0:0:
256,192,130168,1,0,0:0:0:0:
256,192,130682,1,8,0:0:0:0:
256,192,131196,1,8,0:0:0:0:
256,192,131539,1,0,0:0:0:0:
256,192,131711,1,0,0:0:0:0:
256,192,131882,1,0,0:0:0:0:
256,192,132225,1,8,0:0:0:0:
256,192,132911,1,4,0:0:0:0:
256,192,133425,1,8,0:0:0:0:
256,192,133939,1,8,0:0:0:0:
256,192,134454,1,8,0:0:0:0:
256,192,134796,1,0,0:0:0:0:
256,192,134968,1,8,0:0:0:0:
256,192,135311,1,8,0:0:0:0:
256,192,135654,1,0,0:0:0:0:
256,192,136168,1,8,0:0:0:0:
256,192,136682,1,0,0:0:0:0:
256,192,136854,1,8,0:0:0:0:
256,192,137196,1,8,0:0:0:0:
256,192,137539,1,0,0:0:0:0:
256,192,137711,1,8,0:0:0:0:
256,192,138054,1,8,0:0:0:0:
256,192,138396,1,4,0:0:0:0:
256,192,138911,1,8,0:0:0:0:
256,192,139425,1,0,0:0:0:0:
256,192,139768,1,12,0:0:0:0:
256,192,140282,1,8,0:0:0:0:
256,192,140796,1,0,0:0:0:0:
256,192,141139,1,4,0:0:0:0:
256,192,141482,1,8,0:0:0:0:
256,192,141825,1,0,0:0:0:0:
256,192,141996,1,0,0:0:0:0:
256,192,142168,1,0,0:0:0:0:
256,192,142511,1,12,0:0:0:0:
256,192,143882,1,4,0:0:0:0:
256,192,144225,1,8,0:0:0:0:
256,192,144568,1,0,0:0:0:0:
256,192,144739,1,8,0:0:0:0:
256,192,145254,1,0,0:0:0:0:
256,192,145596,1,8,0:0:0:0:
256,192,145768,1,0,0:0:0:0:
256,192,146111,1,0,0:0:0:0:
256,192,146282,1,8,0:0:0:0:
256,192,146625,1,0,0:0:0:0:
256,192,147311,1,0,0:0:0:0:
256,192,147654,1,8,0:0:0:0:
256,192,147996,1,8,0:0:0:0:
256,192,148339,1,0,0:0:0:0:
256,192,148511,1,8,0:0:0:0:
256,192,148854,1,0,0:0:0:0:
256,192,149025,1,8,0:0:0:0:
256,192,149368,1,4,0:0:0:0:
256,192,149711,1,8,0:0:0:0:
256,192,150054,1,0,0:0:0:0:
256,192,150225,1,8,0:0:0:0:
256,192,150739,1,0,0:0:0:0:
256,192,151082,1,8,0:0:0:0:
256,192,151254,1,0,0:0:0:0:
256,192,151596,1,0,0:0:0:0:
256,192,151768,1,8,0:0:0:0:
256,192,152111,1,4,0:0:0:0:
256,192,152796,1,8,0:0:0:0:
256,192,153139,1,0,0:0:0:0:
256,192,153311,1,12,0:0:0:0:
256,192,153825,1,8,0:0:0:0:
256,192,154168,1,8,0:0:0:0:
256,192,154339,1,0,0:0:0:0:
256,192,154511,1,8,0:0:0:0:
256,192,154854,1,4,0:0:0:0:
256,192,155196,1,8,0:0:0:0:
256,192,155539,1,0,0:0:0:0:
256,192,155711,1,8,0:0:0:0:
256,192,156225,1,0,0:0:0:0:
256,192,156739,1,12,0:0:0:0:
256,192,157082,1,4,0:0:0:0:
256,192,157425,1,12,0:0:0:0:
256,192,158282,1,0,0:0:0:0:
256,192,158625,1,8,0:0:0:0:
256,192,158968,1,8,0:0:0:0:
256,192,159311,1,8,0:0:0:0:
256,192,159482,1,0,0:0:0:0:
256,192,159825,1,0,0:0:0:0:
256,192,159996,1,8,0:0:0:0:
256,192,160339,1,4,0:0:0:0:
256,192,161025,1,8,0:0:0:0:
256,192,161368,1,8,0:0:0:0:
256,192,161711,1,0,0:0:0:0:
256,192,162054,1,8,0:0:0:0:
256,192,162225,1,0,0:0:0:0:
256,192,162568,1,8,0:0:0:0:
256,192,162739,1,8,0:0:0:0:
256,192,163082,1,0,0:0:0:0:
256,192,163425,1,8,0:0:0:0:
256,192,163768,1,8,0:0:0:0:
256,192,163939,1,8,0:0:0:0:
256,192,164111,1,0,0:0:0:0:
256,192,164454,1,12,0:0:0:0:
256,192,165139,1,8,0:0:0:0:
256,192,165825,1,4,0:0:0:0:
256,192,166511,1,8,0:0:0:0:
256,192,167025,1,0,0:0:0:0:
256,192,167368,1,0,0:0:0:0:
256,192,167539,1,0,0:0:0:0:
256,192,167882,1,8,0:0:0:0:
256,192,168568,1,0,0:0:0:0:
256,192,169254,1,8,0:0:0:0:
256,192,169768,1,0,0:0:0:0:
256,192,170111,1,8,0:0:0:0:
256,192,170282,1,0,0:0:0:0:
256,192,170625,1,8,0:0:0:0:
256,192,170968,1,8,0:0:0:0:
256,192,171311,1,4,0:0:0:0:
256,192,171996,1,8,0:0:0:0:
256,192,172511,1,0,0:0:0:0:
256,192,172854,1,0,0:0:0:0:
256,192,173025,1,0,0:0:0:0:
256,192,173368,1,8,0:0:0:0:
256,192,174054,1,0,0:0:0:0:
256,192,174739,1,8,0:0:0:0:
256,192,175082,1,8,0:0:0:0:
256,192,175254,1,4,0:0:0:0:
256,192,175596,1,0,0:0:0:0:
256,192,175768,1,8,0:0:0:0:
256,192,176111,1,0,0:0:0:0:
256,192,176454,1,8,0:0:0:0:
256,192,176625,1,8,0:0:0:0:
256,192,176796,1,4,0:0:0:0:
256,192,177482,1,0,0:0:0:0:
256,192,177654,1,0,0:0:0:0:
256,192,177825,1,8,0:0:0:0:
256,192,178168,1,0,0:0:0:0:
256,192,178682,1,8,0:0:0:0:
256,192,179025,1,0,0:0:0:0:
256,192,179368,1,0,0:0:0:0:
256,192,179539,1,0,0:0:0:0:
256,192,180225,1,0,0:0:0:0:
256,192,180568,1,8,0:0:0:0:
256,192,180739,1,0,0:0:0:0:
256,192,180911,1,8,0:0:0:0:
256,192,181254,1,0,0:0:0:0:
256,192,181425,1,8,0:0:0:0:
256,192,181768,1,0,0:0:0:0:
256,192,181939,1,8,0:0:0:0:
256,192,182282,1,4,0:0:0:0:
256,192,182968,1,0,0:0:0:0:
256,192,183139,1,0,0:0:0:0:
256,192,183311,1,8,0:0:0:0:
256,192,183654,1,0,0:0:0:0:
256,192,184168,1,0,0:0:0:0:
256,192,184511,1,0,0:0:0:0:
256,192,184682,1,8,0:0:0:0:
256,192,185025,1,4,0:0:0:0:
256,192,185368,1,8,0:0:0:0:
256,192,185711,1,8,0:0:0:0:
256,192,186054,1,0,0:0:0:0:
256,192,186225,1,12,0:0:0:0:
256,192,186739,1,0,0:0:0:0:
256,192,187082,1,8,0:0:0:0:
256,192,187425,1,8,0:0:0:0:
256,192,187596,1,8,0:0:0:0:
256,192,187768,1,4,0:0:0:0:
256,192,188454,1,0,0:0:0:0:
256,192,188625,1,0,0:0:0:0:
256,192,188796,1,8,0:0:0:0:
256,192,189139,1,0,0:0:0:0:
256,192,189654,1,8,0:0:0:0:
256,192,189996,1,0,0:0:0:0:
256,192,190339,1,4,0:0:0:0:
256,192,191196,1,0,0:0:0:0:
256,192,191539,1,8,0:0:0:0:
256,192,191711,1,0,0:0:0:0:
256,192,191882,1,8,0:0:0:0:
256,192,192225,1,8,0:0:0:0:
256,192,192396,1,8,0:0:0:0:
256,192,192739,1,0,0:0:0:0:
256,192,192911,1,8,0:0:0:0:
256,192,193254,1,4,0:0:0:0:
256,192,193939,1,0,0:0:0:0:
256,192,194111,1,0,0:0:0:0:
256,192,194282,1,8,0:0:0:0:
256,192,194625,1,0,0:0:0:0:
256,192,195139,1,0,0:0:0:0:
256,192,195482,1,0,0:0:0:0:
256,192,195654,1,8,0:0:0:0:
256,192,195996,1,8,0:0:0:0:
256,192,196168,1,8,0:0:0:0:
256,192,196339,1,8,0:0:0:0:
256,192,196682,1,0,0:0:0:0:
256,192,196854,1,0,0:0:0:0:
256,192,197025,1,0,0:0:0:0:
256,192,197368,1,12,0:0:0:0:
256,192,198739,1,0,0:0:0:0:
256,192,199425,1,8,0:0:0:0:
256,192,199939,1,0,0:0:0:0:
256,192,200282,1,8,0:0:0:0:
256,192,200625,1,8,0:0:0:0:
256,192,200968,1,0,0:0:0:0:
256,192,201482,1,0,0:0:0:0:
256,192,202168,1,8,0:0:0:0:
256,192,202854,1,0,0:0:0:0:
256,192,204225,1,0,0:0:0:0:
256,192,204911,1,8,0:0:0:0:
256,192,205425,1,0,0:0:0:0:
256,192,205768,1,8,0:0:0:0:
256,192,206111,1,8,0:0:0:0:
256,192,206454,1,0,0:0:0:0:
256,192,206968,1,8,0:0:0:0:
256,192,207654,1,0,0:0:0:0:
256,192,208339,1,8,0:0:0:0:
256,192,209025,1,8,0:0:0:0:
256,192,209711,1,4,0:0:0:0:
256,192,210054,1,8,0:0:0:0:
256,192,210396,1,0,0:0:0:0:
256,192,210568,1,0,0:0:0:0:
256,192,210911,1,12,0:0:0:0:
256,192,211254,1,12,0:0:0:0:
256,192,211425,1,12,0:0:0:0:
256,192,214339,1,12,0:0:0:0:
256,192,214682,1,4,0:0:0:0:
256,192,215196,1,4,0:0:0:0:
256,192,215882,1,0,0:0:0:0:
256,192,216225,1,8,0:0:0:0:
256,192,216568,1,8,0:0:0:0:
256,192,216911,1,0,0:0:0:0:
256,192,217082,1,8,0:0:0:0:
256,192,217425,1,0,0:0:0:0:
256,192,217596,1,8,0:0:0:0:
256,192,217939,1,4,0:0:0:0:
256,192,218282,1,8,0:0:0:0:
256,192,218625,1,0,0:0:0:0:
256,192,218796,1,8,0:0:0:0:
256,192,219311,1,0,0:0:0:0:
256,192,219654,1,8,0:0:0:0:
256,192,219825,1,0,0:0:0:0:
256,192,220168,1,0,0:0:0:0:
256,192,220339,1,8,0:0:0:0:
256,192,220682,1,4,0:0:0:0:
256,192,221368,1,8,0:0:0:0:
256,192,221711,1,0,0:0:0:0:
256,192,221882,1,12,0:0:0:0:
256,192,222396,1,8,0:0:0:0:
256,192,222739,1,8,0:0:0:0:
256,192,222911,1,0,0:0:0:0:
256,192,223082,1,8,0:0:0:0:
256,192,223425,1,4,0:0:0:0:
256,192,223768,1,8,0:0:0:0:
256,192,224111,1,0,0:0:0:0:
256,192,224282,1,8,0:0:0:0:
256,192,224796,1,0,0:0:0:0:
256,192,225311,1,12,0:0:0:0:
256,192,225654,1,4,0:0:0:0:
256,192,225996,1,12,0:0:0:0:
256,192,226854,1,0,0:0:0:0:
256,192,227196,1,8,0:0:0:0:
256,192,227539,1,8,0:0:0:0:
256,192,227882,1,8,0:0:0:0:
256,192,228054,1,0,0:0:0:0:
256,192,228396,1,0,0:0:0:0:
256,192,228568,1,8,0:0:0:0:
256,192,228911,1,4,0:0:0:0:
256,192,229596,1,8,0:0:0:0:
256,192,229939,1,8,0:0:0:0:
256,192,230282,1,0,0:0:0:0:
256,192,230625,1,8,0:0:0:0:
256,192,230796,1,0,0:0:0:0:
256,192,231139,1,8,0:0:0:0:
256,192,231311,1,8,0:0:0:0:
256,192,231654,1,0,0:0:0:0:
256,192,231996,1,8,0:0:0:0:
256,192,232339,1,8,0:0:0:0:
256,192,232511,1,8,0:0:0:0:
256,192,232682,1,0,0:0:0:0:
256,192,232854,1,0,0:0:0:0:
256,192,233025,1,12,0:0:0:0:
256,192,233711,1,8,0:0:0:0:
256,192,234396,1,4,0:0:0:0:
256,192,234739,1,8,0:0:0:0:
256,192,235082,1,0,0:0:0:0:
256,192,235425,1,8,0:0:0:0:
256,192,235596,1,4,0:0:0:0:
256,192,235939,1,0,0:0:0:0:
256,192,236111,1,8,0:0:0:0:
256,192,236454,1,8,0:0:0:0:
256,192,237139,1,4,0:0:0:0:
256,192,237482,1,8,0:0:0:0:
256,192,237825,1,0,0:0:0:0:
256,192,238339,1,8,0:0:0:0:
256,192,238511,1,0,0:0:0:0:
256,192,238854,1,8,0:0:0:0:
256,192,239196,1,0,0:0:0:0:
256,192,239368,1,0,0:0:0:0:
256,192,239539,1,8,0:0:0:0:
256,192,239882,1,4,0:0:0:0:
256,192,240225,1,8,0:0:0:0:
256,192,240568,1,0,0:0:0:0:
256,192,240911,1,8,0:0:0:0:
256,192,241082,1,4,0:0:0:0:
256,192,241425,1,0,0:0:0:0:
256,192,241596,1,8,0:0:0:0:
256,192,241939,1,8,0:0:0:0:
256,192,242625,1,4,0:0:0:0:
256,192,242968,1,8,0:0:0:0:
256,192,243311,1,0,0:0:0:0:
256,192,243654,1,0,0:0:0:0:
256,192,243825,1,12,0:0:0:0:
256,192,244339,1,8,0:0:0:0:
256,192,244682,1,8,0:0:0:0:
256,192,245025,1,8,0:0:0:0:
256,192,245196,1,8,0:0:0:0:
256,192,245368,1,4,0:0:0:0:
256,192,245711,1,8,0:0:0:0:
256,192,246054,1,0,0:0:0:0:
256,192,246396,1,8,0:0:0:0:
256,192,246568,1,4,0:0:0:0:
256,192,246911,1,0,0:0:0:0:
256,192,247082,1,8,0:0:0:0:
256,192,247425,1,8,0:0:0:0:
256,192,248111,1,4,0:0:0:0:
256,192,248454,1,8,0:0:0:0:
256,192,248796,1,0,0:0:0:0:
256,192,249139,1,0,0:0:0:0:
256,192,249311,1,12,0:0:0:0:
256,192,249825,1,8,0:0:0:0:
256,192,250168,1,0,0:0:0:0:
256,192,250339,1,0,0:0:0:0:
256,192,250511,1,8,0:0:0:0:
256,192,250854,1,4,0:0:0:0:
256,192,251196,1,8,0:0:0:0:
256,192,251539,1,0,0:0:0:0:
256,192,251882,1,8,0:0:0:0:
256,192,252054,1,4,0:0:0:0:
256,192,252396,1,0,0:0:0:0:
256,192,252568,1,8,0:0:0:0:
256,192,252911,1,8,0:0:0:0:
256,192,253596,1,4,0:0:0:0:
256,192,254111,1,4,0:0:0:0:
256,192,254625,1,12,0:0:0:0:
256,192,254968,1,0,0:0:0:0:
256,192,255311,1,8,0:0:0:0:
256,192,255654,1,8,0:0:0:0:
256,192,255825,1,8,0:0:0:0:
256,192,255996,1,0,0:0:0:0:
256,192,256339,1,4,0:0:0:0:
256,192,257025,1,8,0:0:0:0:
256,192,257368,1,8,0:0:0:0:
256,192,257711,1,0,0:0:0:0:
256,192,257882,1,0,0:0:0:0:
256,192,258054,1,0,0:0:0:0:
256,192,258396,1,8,0:0:0:0:
256,192,258568,1,8,0:0:0:0:
256,192,258739,1,8,0:0:0:0:
256,192,259082,1,4,0:0:0:0:
256,192,259254,12,0,264568,0:0:0:0:
