osu file format v9

[General]
AudioFilename: Connect.mp3
AudioLeadIn: 1500
PreviewTime: 66842
Countdown: 0
SampleSet: Soft
StackLeniency: 0.7
Mode: 0
LetterboxInBreaks: 1

[Editor]
DistanceSpacing: 1.1
BeatDivisor: 4
GridSize: 4

[Metadata]
Title:Connect
Artist:ClariS
Creator:Holoaz
Version:Kanata
Source:Puella Magi Madoka Magica
Tags:orioncomet FutakiKanata

[Difficulty]
HPDrainRate:4
CircleSize:4
OverallDifficulty:4
ApproachRate:7
SliderMultiplier:1.3
SliderTickRate:1

[Events]
//Background and Video events
0,0,"holoBG.jpg"
//Break Periods
2,12670,19999
2,92413,96799
2,177499,198285
//Storyboard Layer 0 (Background)
//Storyboard Layer 1 (Fail)
//Storyboard Layer 2 (Pass)
//Storyboard Layer 3 (Foreground)
//Storyboard Sound Samples
//Background Colour Transformations
3,100,0,0,0

[TimingPoints]
328,342.857142857143,4,2,1,50,1,0
1013,-100,4,2,1,26,0,0
4185,-100,4,2,1,29,0,0
12156,-100,4,1,0,50,0,0
12842,-100,4,2,0,0,0,0
23813,-100,4,2,0,39,0,0
45070,-100,4,1,0,30,0,0
50556,-100,4,1,0,31,0,0
50985,-100,4,1,0,31,0,0
56128,-100,4,1,0,31,0,0
56470,-100,4,1,0,20,0,0
61270,-100,4,1,0,30,0,0
66756,-100,4,1,0,20,0,0
67528,-100,4,1,2,55,0,1
77128,-100,4,1,2,55,0,0
78499,-100,4,1,2,55,0,1
88356,-100,4,2,2,60,0,1
88528,-100,4,1,2,55,0,1
88699,-100,4,1,2,40,0,1
88870,-100,4,1,2,55,0,1
89042,-100,4,2,2,60,0,1
89213,-100,4,1,2,55,0,1
89470,-100,4,1,0,55,0,0
92213,-100,4,1,1,50,0,0
97699,-100,4,2,1,50,0,0
100699,-100,4,2,2,40,0,0
111328,-100,4,1,2,40,0,0
120756,-100,4,1,2,31,0,0
142870,-133.333333333333,4,1,2,31,0,0
143642,-100,4,1,0,20,0,0
144328,-100,4,1,2,55,0,1
147156,-100,4,2,2,55,0,1
147328,-100,4,1,2,55,0,1
153928,-100,4,1,2,55,0,0
154356,-100,4,2,2,55,0,0
154528,-100,4,1,2,55,0,0
155299,-100,4,1,2,55,0,1
164985,-100,4,2,1,50,0,1
166185,-100,4,1,0,55,0,1
166356,-133.333333333333,4,1,0,55,0,0
169013,-100,4,2,1,51,0,0
175528,-100,4,1,2,61,0,0
199013,-200,4,2,1,50,0,0
204499,-133.333333333333,4,2,1,50,0,0
211270,-100,4,1,0,55,0,0
212042,-100,4,2,1,50,0,0
214699,-100,4,1,2,40,0,0
215642,-100,4,1,2,60,0,1
222499,-100,4,1,2,55,0,0
223870,-100,4,1,2,55,0,1
233728,-100,4,2,2,60,0,1
233899,-100,4,1,2,55,0,1
234413,-100,4,2,2,60,0,1
234585,-100,4,1,2,55,0,1
234842,-100,4,1,0,55,0,0
236556,-100,4,2,0,0,0,0

[Colours]
Combo1 : 189,138,223
Combo2 : 255,132,184
Combo3 : 112,175,254
Combo4 : 251,163,74

[HitObjects]
104,96,1013,2,0,B|184:80,1,65,2|0
224,128,1356,2,0,B|152:176,1,65,0|0
96,176,1699,2,0,B|120:248|88:320,1,130,4|2
94,303,2213,1,0
164,313,2385,1,2
204,254,2556,2,0,B|244:206|340:214,1,130
368,157,3070,1,2
368,157,3242,2,0,B|440:189|416:285,2,130
312,112,4099,1,0
250,74,4270,1,4
250,74,4442,6,0,B|160:63|93:67,1,130,0|0
52,192,5128,2,0,B|136:240|180:248,1,130
245,219,5642,1,0
314,236,5813,2,0,B|362:265|375:299,2,65,2|0|2
245,219,6328,1,0
200,80,6670,6,0,B|160:56|128:48,1,65,0|2
120,120,7013,1,0
168,176,7184,2,0,B|112:232|112:320,1,130,4|2
113,291,7699,1,0
184,272,7870,2,0,B|232:312|320:292,1,130,2|0
312,176,8385,1,0
368,128,8556,1,0
368,128,8728,2,0,B|408:192|368:264,2,130,2|2|0
256,192,9756,12,0,11899
256,192,20899,12,0,23642
256,56,23985,5,2
256,56,24328,2,0,B|256:96|224:136,1,65
120,200,24842,1,0
120,200,25013,2,0,B|112:256|128:288,1,65,0|0
192,236,25356,2,0,B|248:252|336:220,2,130,2|0|0
176,96,26385,2,0,B|92:80|32:128,1,130,0|2
200,168,27070,2,0,B|272:196|336:152,1,130,0|2
256,280,27756,2,0,B|320:304|400:288,2,130,0|2|0
192,248,28613,5,0
192,248,28785,2,0,B|120:228|40:260,2,130
272,132,29813,2,0,B|336:144|416:128,1,130
396,204,30328,2,0,B|332:208|264:204,1,130
196,192,30842,1,2
152,136,31013,1,0
128,204,31185,2,0,B|140:280|124:344,1,130
328,328,31870,6,0,B|260:344|192:312,1,130,0|2
88,224,32556,2,0,B|88:152|128:96,1,130,0|2
256,40,33242,2,0,B|328:32|392:56,1,130,0|2
464,172,33928,2,0,B|464:244|424:300,1,130,0|2
296,240,34613,6,0,B|232:200,1,65,0|0
224,136,34956,2,0,B|296:120,1,65,2|0
352,152,35299,1,0
368,224,35470,1,0
264,320,35813,2,0,B|200:304|168:224,1,130,0|0
144,168,36328,1,2
76,152,36499,1,0
96,224,36670,6,0,B|88:296|144:344,2,130,0|2|0
176,104,37699,1,2
312,144,38042,1,0
312,144,38213,1,0
264,200,38385,2,0,B|340:212|384:288,2,130,2|0|2
388,128,39242,1,0
464,144,39413,6,0,B|432:208|344:216,1,130,0|2
232,276,40099,2,0,B|164:248|88:256,1,130
92,112,40785,1,0
92,112,41128,2,0,B|168:140|224:200,1,130,2|0
216,248,41642,2,0,B|208:288|168:308,2,65
280,220,42156,2,0,B|360:204|440:204,1,130,0|2
192,64,42842,6,0,B|248:104|328:88,1,130,0|2
344,160,43356,2,0,B|272:184|200:152,1,130
152,208,43870,2,0,B|200:248|288:248,2,130,2|0|2
104,72,44899,1,0
104,296,45242,5,0
104,296,45413,1,0
104,296,45585,2,0,B|252:296,2,130
228,224,46613,1,0
300,224,46785,1,0
300,224,46956,2,0,B|432:224,2,130
296,80,47984,5,0
164,152,48328,2,0,B|296:152,1,130
296,224,48842,2,0,B|148:224,1,130
164,296,49356,2,0,B|296:296,2,130
64,192,50385,1,0
152,80,50728,5,0
220,60,50899,1,0
292,60,51070,2,0,B|360:80|416:120,1,130,0|0
312,144,51585,2,0,B|376:172|424:216,1,130,0|0
344,248,52099,2,0,B|296:208|224:196,1,130,0|0
156,200,52613,5,0
324,60,53128,1,0
436,148,53470,1,0
436,148,53642,2,0,B|436:228,1,65
300,260,54156,1,0
300,260,54328,2,0,B|300:172,1,65
180,116,54842,1,0
180,116,55013,2,0,B|180:184,1,65
68,272,55528,2,0,B|68:144,1,130,0|0
224,44,56213,5,0
296,44,56385,1,0
368,44,56556,2,0,B|412:104|360:180,2,130,4|0|0
252,128,57585,1,0
252,128,57928,2,0,B|252:264,2,130
108,128,58956,1,0
108,128,59299,2,0,B|108:268,2,130
256,104,60328,1,0
324,132,60499,2,0,B|464:132,2,130,0|0|0
256,104,61356,5,0
116,80,61699,1,0
124,224,62042,2,0,B|188:188|260:224,1,130,4|0
248,292,62556,2,0,B|312:332|380:288,2,130
176,292,63413,2,0,B|176:160,1,130
248,148,63928,2,0,B|308:108|384:148,1,130,0|0
256,192,64613,12,0,66156
220,248,66842,6,0,B|220:316,1,65,0|0
292,312,67185,2,0,B|292:220,1,65,8|0
128,152,67528,6,0,B|184:108|252:104,1,130,0|8
320,104,68042,1,0
380,144,68213,2,0,B|412:204|400:280,1,130,0|8
344,316,68728,1,0
272,312,68899,2,0,B|200:300|128:336,2,130,0|8|0
192,196,69928,2,0,B|256:172|324:192,1,130,8|0
224,84,70613,5,8
156,100,70785,2,0,B|104:112|92:132,2,65
200,156,71299,1,8
272,152,71470,2,0,B|324:168|352:188,2,65
240,216,71985,1,8
168,220,72156,1,0
92,124,72499,5,0
92,124,72670,1,8
92,124,72842,1,0
92,124,73013,2,0,B|144:72|236:72,1,130,0|8
264,116,73528,1,0
336,104,73699,2,0,B|392:156,1,65
308,180,74042,2,0,B|256:236,1,65,8|0
296,292,74385,1,0
348,240,74556,2,0,B|420:236|472:292,2,130
216,296,75585,6,0,B|152:276,1,65
92,152,76099,2,0,B|140:116|216:104,2,130,0|0|0
116,220,76956,1,0
76,280,77128,2,8,B|204:320,1,130,0|8
344,332,77813,6,0,B|296:288,1,65
352,244,78156,2,0,B|372:176,1,65,8|0
360,112,78499,2,0,B|304:80|212:76,1,130,0|8
164,88,79013,1,0
112,136,79185,2,0,B|128:192|112:272,1,130,0|8
184,284,79699,1,0
232,232,79870,1,0
292,272,80042,1,0
324,132,80385,1,0
324,132,80728,1,0
324,132,81070,1,0
280,192,81242,5,0
392,280,81585,2,0,B|336:324,1,65,8|0
268,316,81928,2,0,B|220:272|144:268,1,130,0|8
108,208,82442,1,0
92,140,82613,1,0
148,96,82785,1,0
208,136,82956,1,8
220,208,83128,2,0,B|284:240|360:224,2,130,4|0|0
208,136,83985,1,0
256,272,84328,1,8
300,136,84670,6,0,B|360:112|436:112,2,130,0|8|0
320,280,85699,1,8
256,248,85870,1,0
192,220,86042,2,0,B|132:200|56:204,2,130,0|8|0
220,80,87070,5,0
220,80,87242,1,0
292,80,87413,1,0
292,80,87585,1,0
292,152,87756,2,0,B|436:152,2,130
244,288,88785,2,0,B|116:288,2,130
256,192,89556,12,4,92213
256,192,97699,12,4,100442
104,88,100785,5,8
248,72,101128,2,0,B|284:152,1,65,0|0
212,164,101470,2,0,B|240:228,1,65,8|0
304,200,101813,2,0,B|368:316,2,130,0|8|0
164,232,102842,2,0,B|100:120,2,130,8|0|8
272,328,103870,2,0,B|144:328,2,130,0|8|0
320,192,104899,5,8
344,260,105070,2,0,B|412:236|384:152,1,130
360,84,105585,2,0,B|424:84|492:108,2,130,8|0|8
296,116,106442,1,0
232,88,106613,2,0,B|164:124|140:196,1,130,0|8
128,252,107128,1,0
188,292,107299,1,0
236,240,107470,1,0
304,260,107642,2,0,B|392:264|452:304,1,130,8|0
380,156,108328,6,0,B|344:96|252:80,2,130,8|0|8
240,188,109356,2,0,B|224:260|140:292,2,130,0|8|0
308,312,110385,1,8
388,192,110728,1,0
388,192,110899,1,0
416,128,111070,1,4
256,60,111413,6,0,B|256:188,1,130,0|8
184,196,111928,1,0
192,268,112099,2,0,B|260:264|328:304,1,130,0|8
336,228,112613,1,0
304,164,112785,2,0,B|364:124|452:120,1,130,0|8
468,180,113299,1,0
400,200,113470,1,0
404,272,113642,5,0
336,300,113813,2,0,B|268:296|204:336,1,130,8|0
188,264,114328,1,0
180,192,114499,2,0,B|116:212|52:180,2,130,8|0|8
244,156,115356,1,0
300,108,115528,2,0,B|364:144|452:128,2,130,0|8|0
232,84,116385,6,0,B|168:100,1,65,0|8
112,144,116728,2,0,B|112:176|84:200,1,65
136,248,117070,1,0
204,224,117242,2,0,B|268:200|336:216,1,130,8|0
400,232,117756,1,0
452,284,117928,1,8
384,304,118099,2,0,B|312:324,1,65
248,316,118442,5,0
180,300,118613,1,8
108,312,118785,1,0
72,248,118956,2,0,B|120:224|212:220,1,130,0|8
268,212,119470,1,0
336,184,119642,1,0
228,92,119985,2,0,B|164:84|98:93,2,130,8|0|8
284,136,120842,6,0,B|360:136,2,65,8|0|0
236,188,121357,1,8
236,188,121528,2,0,B|152:188,2,65
304,204,122042,1,8
304,204,122213,1,0
280,272,122385,2,0,B|352:276|420:252,2,130,0|8|0
208,264,123242,1,0
208,264,123413,1,8
144,236,123585,2,0,B|76:248|16:208,1,130
68,156,124099,1,8
188,80,124442,6,0,B|256:108|324:92,1,130,0|8
352,156,124956,1,0
388,216,125128,1,0
276,308,125470,2,0,B|324:340|404:340,2,130,8|0|8
220,264,126328,1,0
220,192,126499,1,0
284,164,126670,1,0
284,236,126842,1,0
220,264,127013,1,0
220,264,127185,6,0,B|84:264,1,130,0|8
76,192,127699,1,0
68,120,127870,2,0,B|136:116|208:96,1,130,0|8
268,92,128385,2,0,B|252:168|208:216,1,130
276,244,128899,2,0,B|328:264|432:244,1,130,8|0
360,184,129413,5,0
360,184,129585,2,0,B|308:184|224:160,1,130,8|0
96,212,130270,2,0,B|144:260|176:332,1,130,8|0
240,300,130785,1,0
304,332,130956,1,8
400,224,131299,2,0,B|352:192|272:172,1,130,0|8
212,160,131813,1,0
212,160,131985,1,0
212,160,132156,2,0,B|160:104,2,65,0|0|0
168,216,132670,1,4
84,100,133013,5,8
84,100,133185,1,0
156,92,133356,2,0,B|152:160,1,65
224,152,133699,2,0,B|240:224,1,65,8|0
228,288,134042,1,0
292,260,134213,1,0
364,264,134385,1,8
352,192,134556,2,0,B|404:200|488:192,2,130
284,176,135413,5,0
140,88,135756,1,8
64,240,136099,2,0,B|132:220|212:264,1,130,0|8
228,316,136613,1,0
268,256,136785,2,0,B|336:276|400:256,1,130,0|8
376,188,137299,1,0
400,120,137470,1,0
448,176,137642,1,0
376,188,137813,1,0
400,120,137985,1,0
328,132,138156,5,0
164,96,138499,1,8
116,260,138842,2,0,B|248:280,1,130,0|8
244,280,139356,1,0
352,188,139699,2,0,B|216:160,1,130
225,159,140213,1,0
176,108,140385,1,0
124,156,140556,2,0,B|32:156,2,65,8|0|0
172,208,141070,1,0
172,208,141242,1,8
156,276,141413,2,0,B|240:276,1,65
256,192,141670,12,0,142956
164,72,143642,5,0
76,112,143813,1,0
140,184,143985,1,0
56,232,144156,1,0
148,276,144328,2,0,B|208:236|300:276,1,130,0|0
316,208,144842,1,0
316,208,145013,2,0,B|364:208|444:176,1,130,0|0
404,116,145528,1,0
336,92,145699,1,0
264,80,145870,2,0,B|204:120|112:128,2,130
288,148,146728,1,0
356,172,146899,6,0,B|352:244|296:308,1,130
236,308,147413,1,0
176,272,147585,1,0
124,320,147756,1,0
176,272,147928,1,0
176,272,148099,2,0,B|144:208|152:144,1,130
184,80,148613,1,0
252,60,148785,1,0
308,104,148956,1,0
360,152,149128,5,0
360,152,149299,2,0,B|424:140,2,65
292,172,149813,2,0,B|212:224|152:236,1,130
104,248,150328,1,0
156,296,150499,2,0,B|228:336|308:336,1,130
348,324,151013,1,0
308,264,151185,1,0
372,236,151356,1,0
196,124,151699,1,0
404,104,152042,1,0
364,48,152213,6,0,B|296:44|228:68,1,130
196,124,152728,1,0
224,192,152899,2,0,B|192:260|116:280,1,130
64,308,153413,1,0
132,332,153585,1,0
132,332,153756,2,0,B|251:373|387:321,1,260
360,196,154613,5,0
300,160,154785,1,0
232,180,154956,1,0
192,120,155128,1,0
192,120,155299,2,0,B|136:88|88:120|104:196,1,130
140,228,155813,1,0
140,228,155985,2,0,B|176:260|240:228|232:164,1,130
264,116,156499,5,0
336,116,156670,1,0
364,184,156842,1,0
264,284,157185,1,0
264,284,157528,1,0
264,284,157870,1,0
100,144,158385,5,0
100,144,158556,1,0
168,120,158727,1,0
232,88,158899,2,0,B|308:112|376:92,1,130
364,168,159413,1,0
336,232,159585,1,0
372,292,159756,1,0
304,312,159928,2,0,B|224:296|152:312,1,130
112,276,160442,2,0,B|152:216|136:132,2,130
244,220,161470,5,0
300,88,161813,2,0,B|300:164|372:196,1,130
400,256,162328,1,0
368,320,162499,1,0
296,316,162670,2,0,B|240:288|160:280,1,130
124,228,163185,5,0
108,160,163356,1,0
160,108,163528,2,0,B|216:100|300:124,2,130
180,176,164385,1,0
240,212,164556,1,0
252,284,164728,1,0
324,280,164899,1,0
256,192,164985,12,0,166270
256,192,166956,5,0
256,192,167470,2,0,B|257:299,1,97.4999970942737
256,289,167985,1,0
256,192,169013,5,0
256,192,169185,1,0
104,140,170042,5,2
160,100,170213,2,0,B|228:88|296:112,1,130
304,180,170728,1,2
368,212,170899,2,0,B|452:224,2,65
324,268,171413,1,2
268,312,171585,1,0
256,244,171756,5,4
256,244,171928,1,0
256,112,172785,1,0
256,112,172956,6,0,B|256:244,1,130
256,242,173470,1,0
124,192,173813,1,0
412,192,174499,5,0
412,192,174670,1,0
196,192,175185,5,0
304,100,175528,1,0
304,100,175699,2,0,B|280:176|320:236,1,130
384,212,176213,1,0
364,280,176385,1,0
296,296,176556,1,0
364,280,176728,1,0
384,212,176899,2,0,B|436:212,4,32.5
104,72,199185,6,0,B|308:72,1,195,0|0
300,144,200556,2,0,B|104:144,1,195,0|0
104,216,201928,2,0,B|304:216,1,195,0|0
300,288,203299,2,0,B|100:288,1,195,0|0
104,180,204670,6,0,B|168:96,2,97.4999970942737
204,220,205699,1,0
304,256,206042,2,0,B|240:340,2,97.4999970942737
352,160,207070,1,0
276,84,207413,2,0,B|168:84,2,97.4999970942737
276,192,208442,1,0
256,192,208785,12,0,211356
256,160,211699,6,0,B|256:248,1,65
256,192,212899,5,0
256,192,213413,2,0,B|256:272,1,65
156,68,214099,1,0
164,140,214270,1,0
144,208,214442,2,0,B|152:276|184:332,2,130,0|4|0
276,148,215470,2,0,B|328:200,1,65
180,212,215985,6,0,B|104:236,2,65
252,216,216499,1,0
220,280,216670,1,0
292,276,216842,1,0
292,276,217013,2,0,B|352:240|416:236,2,130
220,280,217870,5,0
172,228,218042,1,0
92,224,218213,1,0
128,160,218385,2,0,B|192:132|260:128,1,130
324,140,218899,1,0
372,192,219070,2,0,B|448:212,2,65
312,232,219585,5,0
244,252,219756,1,0
244,252,219928,2,0,B|188:296|116:296,2,130
252,108,220956,6,0,B|336:108,2,65
188,136,221470,1,0
164,204,221642,1,0
216,256,221813,2,0,B|232:292|220:324,2,65
256,192,222328,12,0,223870
124,96,224213,5,0
124,96,224385,2,0,B|172:144|248:144,1,130
308,172,224899,1,0
360,220,225070,1,0
300,260,225242,1,0
228,268,225413,2,0,B|152:260|84:288,2,130
344,316,226442,2,0,B|416:316|472:272,1,130
444,208,226956,6,0,B|376:212|300:168,1,130
256,144,227470,1,0
184,132,227642,2,0,B|112:128,2,65
208,200,228156,1,0
276,216,228328,1,0
276,216,228499,2,0,B|276:284|236:340,2,130
260,144,229356,1,0
120,116,229699,6,0,B|120:252,1,130
200,128,230385,2,0,B|200:264,1,130
344,256,231070,2,0,B|344:112,2,130
276,276,231928,1,0
208,252,232099,1,0
140,276,232270,1,0
68,276,232442,1,0
284,88,233128,6,0,B|284:216,1,130
400,136,233813,2,0,B|400:272,2,130
256,192,234842,1,0
256,192,234928,12,0,236556
