osu file format v12

[General]
AudioFilename: Colorful.mp3
AudioLeadIn: 0
PreviewTime: 62437
Countdown: 0
SampleSet: Soft
StackLeniency: 0.7
Mode: 0
LetterboxInBreaks: 0
EpilepsyWarning: 1
WidescreenStoryboard: 1

[Editor]
DistanceSpacing: 1.4
BeatDivisor: 4
GridSize: 4

[Metadata]
Title:Colorful -movie MIX-
TitleUnicode:カラフル -movie MIX-
Artist:ClariS
ArtistUnicode:ClariS
Creator:Moway
Version:Insane
Source:Gekijouban Puella Magi Madoka Magica [Shinpen] Hangyaku no Monogatari
Tags:劇場版 魔法少女まどか☆マギカ 叛逆の物語 opening alice clara captin1 raose guy oyatsu judydanny
BeatmapID:323726
BeatmapSetID:127683

[Difficulty]
HPDrainRate:7
CircleSize:4
OverallDifficulty:7
ApproachRate:9
SliderMultiplier:1.8
SliderTickRate:1

[Events]
//Background and Video events
0,0,"bg.jpg",0,0
//Break Periods
//Storyboard Layer 0 (Background)
//Storyboard Layer 1 (Fail)
//Storyboard Layer 2 (Pass)
//Storyboard Layer 3 (Foreground)
Sprite,Foreground,Centre,"SB\moway.png",320,240 M,0,17605,17942,260,377,334,377 F,0,17605,17942,0,1 F,0,17942,20639,1 M,0,17942,23336,334,377,417,377 F,0,20639,23336,1,0
//Storyboard Sound Samples
//Background Colour Transformations
3,100,163,162,255

[TimingPoints]
1763,337.078651685393,4,2,1,40,1,0
1763,-133.333333333333,4,2,1,40,0,0
11201,-100,4,2,1,60,0,0
12549,-133.333333333333,4,2,1,60,0,0
13897,-133.333333333333,4,2,1,40,0,0
13982,-133.333333333333,4,2,1,60,0,0
15246,-133.333333333333,4,2,1,40,0,0
15330,-133.333333333333,4,2,1,60,0,0
16594,-133.333333333333,4,2,1,40,0,0
16678,-133.333333333333,4,2,1,60,0,0
20639,-100,4,2,1,60,0,0
20976,-100,4,2,1,50,0,0
21987,-100,4,2,1,70,0,0
22661,-100,4,2,1,85,0,0
23336,-133.333333333333,4,2,1,60,0,0
32774,-111.111111111111,4,2,1,60,0,0
34122,-133.333333333333,4,2,1,60,0,0
44234,-133.333333333333,4,2,1,70,0,0
50302,-111.111111111111,4,2,1,80,0,0
60414,-133.333333333333,4,2,1,60,0,0
61762,-133.333333333333,4,2,1,80,0,0
62437,-100,4,2,1,85,0,1
73139,-100,4,2,1,85,0,0
73223,-100,4,2,1,85,0,1
84010,-133.333333333333,4,2,1,60,0,0
87380,-100,4,2,1,60,0,0
88055,-100,4,2,1,80,0,0
89487,-100,4,2,1,40,0,0

[Colours]
Combo1 : 150,150,150
Combo2 : 255,98,255
Combo3 : 0,116,232
Combo4 : 244,0,104
Combo5 : 253,220,36

[HitObjects]
225,67,751,5,0,0:0:0:0:
225,67,1088,1,0,0:0:0:0:
225,67,1425,1,0,0:0:0:0:
225,67,1763,6,0,P|293:82|336:137,1,135.000005149842,2|0,0:0|0:0,0:0:0:0:
243,157,2268,2,0,L|159:156,1,67.5000025749208
117,230,2605,2,0,L|184:230,1,67.5000025749208
113,99,2942,6,0,P|45:114|2:169,1,135.000005149842,2|0,0:0|0:0,0:0:0:0:
35,251,3448,2,0,L|35:319,1,67.5000025749208
126,293,3785,2,0,P|143:259|143:227,2,67.5000025749208,2|0|0,0:0|0:0|0:0,0:0:0:0:
168,377,4291,1,0,0:0:0:0:
260,356,4459,6,0,P|298:285|303:214,1,135.000005149842,2|0,0:0|0:0,0:0:0:0:
263,146,4965,2,0,L|190:127,1,67.5000025749208
124,189,5302,2,0,L|189:206,1,67.5000025749208
355,169,5639,6,0,P|416:138|482:133,1,135.000005149842,2|0,0:0|0:0,0:0:0:0:
441,221,6145,1,0,0:0:0:0:
441,221,6313,2,0,L|377:254,1,67.5000025749208,0|2,0:0|0:0,0:0:0:0:
447,318,6650,2,0,L|511:351,2,67.5000025749208
352,321,7156,6,0,P|286:341|212:334,1,135.000005149842,2|0,0:0|0:0,0:0:0:0:
65,228,7830,2,0,P|131:248|205:241,1,135.000005149842,2|0,0:0|0:0,0:0:0:0:
367,164,8504,6,0,L|385:94,1,67.5000025749208,2|0,0:0|0:0,0:0:0:0:
443,30,8841,1,0,0:0:0:0:
453,190,9010,2,0,P|406:249|338:248,1,135.000005149842
260,226,9515,1,0,0:0:0:0:
169,252,9684,1,0,0:0:0:0:
82,215,9852,6,0,P|55:175|46:146,1,67.5000025749208,2|0,0:0|0:0,0:0:0:0:
105,49,10189,2,0,P|132:89|141:118,1,67.5000025749208
191,205,10527,2,0,P|217:225|248:238,1,67.5000025749208,2|0,0:0|0:0,0:0:0:0:
283,50,10864,2,0,P|251:63|225:83,1,67.5000025749208,2|0,0:0|0:0,0:0:0:0:
316,164,11201,5,8,0:0:0:0:
432,120,11369,1,8,0:0:0:0:
324,260,11538,2,0,P|272:244|244:208,1,90,2|0,0:0|0:0,0:0:0:0:
196,56,11875,2,0,P|208:109|190:151,1,90,10|0,0:0|0:0,0:0:0:0:
96,256,12212,1,8,0:0:0:0:
14,152,12380,1,0,0:0:0:0:
196,56,12549,6,0,P|268:40|336:56,1,135.000005149842,4|0,0:0|0:0,0:0:0:0:
444,200,13223,1,2,0:0:0:0:
292,308,13560,1,0,0:0:0:0:
112,256,13897,6,0,P|96:188|108:120,1,135.000005149842,4|0,0:0|0:0,0:0:0:0:
287,177,14571,2,0,P|303:245|291:313,1,135.000005149842,2|0,0:0|0:0,0:0:0:0:
20,84,15246,6,0,P|66:36|134:24,1,135.000005149842,4|0,0:0|0:0,0:0:0:0:
148,212,15920,2,0,P|102:260|34:272,1,135.000005149842,2|0,0:0|0:0,0:0:0:0:
220,92,16594,6,0,P|286:89|343:129,1,135.000005149842,4|0,0:0|0:0,0:0:0:0:
392,204,17100,1,0,0:0:0:0:
312,256,17268,1,8,0:0:0:0:
264,172,17437,1,4,3:0:0:0:
212,296,17605,2,0,P|168:316|136:320,1,67.5000025749208,4|0,3:0|3:0,0:0:0:0:
12,176,17942,6,0,P|72:136|144:136,1,135.000005149842,4|0,0:0|0:0,0:0:0:0:
216,176,18448,2,0,P|292:180|352:76,1,202.500007724762,2|0,0:0|0:0,0:0:0:0:
440,116,19122,5,2,0:0:0:0:
440,116,19206,1,2,0:0:0:0:
440,116,19291,2,0,L|468:256,1,135.000005149842,2|0,0:0|0:0,0:0:0:0:
332,314,19965,2,0,P|228:310|180:332,1,135.000005149842,2|0,0:0|0:0,0:0:0:0:
76,132,20639,5,4,0:0:0:0:
76,132,20976,1,8,0:0:0:0:
180,108,21145,1,8,0:0:0:0:
120,196,21313,1,8,0:0:0:0:
161,39,21482,1,8,0:0:0:0:
271,139,21650,1,10,0:0:0:0:
279,169,21734,1,0,0:0:0:0:
287,199,21819,1,2,0:0:0:0:
295,229,21903,1,0,0:0:0:0:
299,260,21987,6,0,P|263:288|215:296,1,90,8|8,0:0|0:0,0:0:0:0:
200,93,22324,2,0,P|236:65|284:57,1,90,8|8,0:0|0:0,0:0:0:0:
431,157,22661,1,8,0:0:0:0:
284,228,22830,1,8,0:0:0:0:
364,88,22998,1,8,0:0:0:0:
389,248,23167,1,8,0:0:0:0:
270,135,23336,6,0,P|208:96|140:88,1,135.000005149842,4|0,0:0|0:0,0:0:0:0:
56,100,23841,1,0,0:0:0:0:
56,100,24010,2,0,L|32:176,1,67.5000025749208,2|0,0:0|0:0,0:0:0:0:
84,248,24347,1,0,0:0:0:0:
216,208,24515,6,0,P|284:224|340:276,1,135.000005149842,2|0,0:0|0:0,0:0:0:0:
232,332,25021,1,0,0:0:0:0:
84,248,25189,2,0,P|80:168|112:120,1,135.000005149842,2|0,0:0|0:0,0:0:0:0:
200,100,25695,2,0,L|272:88,1,67.5000025749208,2|0,0:0|0:0,0:0:0:0:
345,238,26032,6,0,P|273:234|200:196,1,135.000005149842,2|0,0:0|0:0,0:0:0:0:
352,148,26538,2,0,L|416:124,1,67.5000025749208,2|0,0:0|0:0,0:0:0:0:
288,88,26875,2,0,P|268:124|272:164,1,67.5000025749208,2|0,0:0|0:0,0:0:0:0:
432,200,27212,1,0,0:0:0:0:
432,200,27380,6,0,P|436:268|376:320,1,135.000005149842,2|0,0:0|0:0,0:0:0:0:
276,360,27886,1,0,0:0:0:0:
184,244,28055,2,0,P|220:240|251:250,1,67.5000025749208,2|0,0:0|0:0,0:0:0:0:
424,284,28392,1,2,0:0:0:0:
332,184,28560,1,0,0:0:0:0:
424,284,28729,6,0,P|440:236|408:148,1,135.000005149842,4|0,0:0|0:0,0:0:0:0:
336,108,29234,1,0,0:0:0:0:
336,108,29403,2,0,P|264:120|192:112,1,135.000005149842,2|0,0:0|0:0,0:0:0:0:
108,100,29909,1,0,0:0:0:0:
53,258,30077,6,0,P|35:307|45:347,1,67.5000025749208,2|0,0:0|0:0,0:0:0:0:
119,366,30414,1,0,0:0:0:0:
204,324,30583,2,0,L|272:308,1,67.5000025749208,2|0,0:0|0:0,0:0:0:0:
320,228,30920,1,0,0:0:0:0:
228,200,31088,2,0,L|160:184,1,67.5000025749208,2|0,0:0|0:0,0:0:0:0:
384,160,31425,6,0,P|412:236|384:300,1,135.000005149842,2|0,0:0|0:0,0:0:0:0:
252,300,31931,2,0,P|224:224|252:160,1,135.000005149842,2|0,0:0|0:0,0:0:0:0:
288,93,32437,2,0,L|350:64,1,67.5000025749208,2|8,0:0|0:0,0:0:0:0:
141,40,32774,6,0,P|112:71|101:115,1,80.9999975280763,2|0,0:0|0:0,0:0:0:0:
133,213,33111,1,2,0:0:0:0:
275,288,33279,1,0,0:0:0:0:
166,297,33448,1,2,0:0:0:0:
292,195,33616,1,0,0:0:0:0:
141,133,33785,2,0,L|55:113,1,80.9999975280763,2|0,0:0|0:0,0:0:0:0:
111,294,34122,6,0,P|172:283|216:225,1,135.000005149842,4|0,0:0|0:0,0:0:0:0:
301,189,34628,1,0,0:0:0:0:
301,189,34796,2,0,P|368:157|432:157,1,135.000005149842,2|0,0:0|0:0,0:0:0:0:
479,235,35302,6,0,L|454:309,1,67.5000025749208,2|0,0:0|0:0,0:0:0:0:
363,311,35639,2,0,L|384:247,1,67.5000025749208,2|0,0:0|0:0,0:0:0:0:
257,313,35976,2,0,P|190:335|119:316,1,135.000005149842,2|0,0:0|0:0,0:0:0:0:
52,265,36482,1,2,0:0:0:0:
240,213,36650,1,8,0:0:0:0:
59,136,36819,6,0,P|115:95|188:89,1,135.000005149842,2|0,0:0|0:0,0:0:0:0:
282,149,37324,2,0,P|226:190|153:196,1,135.000005149842,2|0,0:0|0:0,0:0:0:0:
79,286,37830,2,0,P|117:308|147:312,1,67.5000025749208,2|0,0:0|0:0,0:0:0:0:
312,228,38167,5,2,0:0:0:0:
332,220,38251,1,0,0:0:0:0:
352,216,38336,1,0,0:0:0:0:
372,220,38420,1,0,0:0:0:0:
388,232,38504,2,0,L|432:290,1,67.5000025749208,2|0,0:0|0:0,0:0:0:0:
376,372,38841,2,0,L|335:318,1,67.5000025749208,4|4,3:0|3:0,0:0:0:0:
388,232,39178,2,0,L|446:188,1,67.5000025749208,8|0,3:0|0:0,0:0:0:0:
256,348,39515,6,0,P|200:302|186:234,1,135.000005149842,4|0,0:0|0:0,0:0:0:0:
258,138,40021,2,0,P|314:184|328:252,1,135.000005149842,2|0,0:0|0:0,0:0:0:0:
234,231,40527,2,0,L|159:202,1,67.5000025749208,2|0,0:0|0:0,0:0:0:0:
328,352,40864,6,0,P|401:325|435:277,1,135.000005149842,2|0,0:0|0:0,0:0:0:0:
413,188,41369,1,0,0:0:0:0:
337,245,41538,1,8,0:0:0:0:
499,225,41706,1,2,3:0:0:0:
333,131,41875,2,0,P|292:140|267:158,1,67.5000025749208,4|0,3:0|3:0,0:0:0:0:
115,279,42212,6,0,P|85:208|92:148,1,135.000005149842,4|0,0:0|0:0,0:0:0:0:
153,81,42718,1,2,0:0:0:0:
243,105,42886,2,0,L|317:89,1,67.5000025749208,2|0,0:0|0:0,0:0:0:0:
428,184,43223,2,0,L|362:198,1,67.5000025749208,2|0,0:0|0:0,0:0:0:0:
180,225,43560,5,4,0:0:0:0:
262,348,43729,2,0,P|297:312|301:287,1,67.5000025749208,8|0,0:0|0:0,0:0:0:0:
283,175,44066,1,0,0:0:0:0:
88,248,44234,5,2,0:0:0:0:
424,136,44571,1,2,0:0:0:0:
98,58,44909,6,0,P|50:120|52:175,1,135.000005149842,4|0,0:0|0:0,0:0:0:0:
120,236,45414,2,0,L|188:236,1,67.5000025749208,0|8,0:0|0:0,0:0:0:0:
232,152,45751,2,0,L|164:152,1,67.5000025749208,0|0,0:0|0:0,0:0:0:0:
176,320,46088,6,0,P|240:336|308:320,1,135.000005149842,2|10,0:0|0:0,0:0:0:0:
380,264,46594,2,0,P|404:240|436:224,2,67.5000025749208,0|0|8,0:0|0:0|0:0,0:0:0:0:
196,208,47268,1,2,0:0:0:0:
372,144,47605,6,0,P|420:108|424:36,1,135.000005149842,6|0,0:0|0:0,0:0:0:0:
332,60,48111,2,0,L|264:60,1,67.5000025749208,0|8,0:0|0:0,0:0:0:0:
216,140,48448,2,0,L|284:140,1,67.5000025749208
160,60,48785,6,0,P|112:116|116:180,1,135.000005149842,2|8,0:0|0:0,0:0:0:0:
224,316,49291,1,0,0:0:0:0:
216,140,49459,1,8,0:0:0:0:
216,140,49543,1,8,0:0:0:0:
216,140,49628,1,8,0:0:0:0:
132,280,49796,1,0,0:0:0:0:
296,236,49965,1,8,0:0:0:0:
132,280,50133,1,0,0:0:0:0:
376,312,50302,6,0,P|412:240|380:168,1,161.999995056153,4|8,0:0|0:0,0:0:0:0:
292,100,50807,1,0,0:0:0:0:
179,81,50976,2,0,P|139:87|86:118,1,80.9999975280763
205,208,51313,2,0,P|245:202|298:171,1,80.9999975280763,8|0,0:0|0:0,0:0:0:0:
379,49,51650,6,0,P|439:110|445:188,1,161.999995056153,2|8,0:0|0:0,0:0:0:0:
403,288,52156,1,0,0:0:0:0:
261,253,52324,1,0,0:0:0:0:
335,339,52493,1,0,0:0:0:0:
317,193,52661,2,0,P|271:175|230:177,1,80.9999975280763,8|0,0:0|0:0,0:0:0:0:
126,327,52998,6,0,P|164:296|183:259,1,80.9999975280763,4|0,0:0|0:0,0:0:0:0:
99,96,53336,2,0,P|106:144|128:179,1,80.9999975280763,8|0,0:0|0:0,0:0:0:0:
227,215,53673,1,2,0:0:0:0:
377,123,53841,1,0,0:0:0:0:
312,288,54010,1,10,0:0:0:0:
271,117,54178,1,0,0:0:0:0:
404,276,54347,6,0,P|370:355|302:379,1,161.999995056153,2|8,0:0|0:0,0:0:0:0:
146,293,54852,2,0,P|99:276|58:274,1,80.9999975280763
204,357,55189,1,0,0:0:0:0:
333,258,55358,1,8,0:0:0:0:
193,174,55527,1,0,0:0:0:0:
322,75,55695,6,0,P|363:80|404:95,1,80.9999975280763,4|0,0:0|0:0,0:0:0:0:
490,179,56032,1,0,0:0:0:0:
386,277,56201,2,0,P|355:243|344:209,2,80.9999975280763,0|8|0,0:0|0:0|0:0,0:0:0:0:
510,312,56706,1,0,0:0:0:0:
490,179,56875,1,0,0:0:0:0:
483,159,56959,1,0,0:0:0:0:
476,140,57043,6,0,L|376:124,1,80.9999975280763,8|8,0:0|0:0,0:0:0:0:
248,76,57380,1,0,0:0:0:0:
333,194,57549,1,0,0:0:0:0:
338,47,57718,2,0,P|374:35|423:40,1,80.9999975280763,8|8,0:0|0:0,0:0:0:0:
250,166,58055,2,0,P|212:158|172:129,1,80.9999975280763
399,125,58392,6,0,P|424:163|427:203,1,80.9999975280763,8|8,0:0|0:0,0:0:0:0:
384,336,58729,1,0,0:0:0:0:
240,368,58897,1,0,0:0:0:0:
116,288,59066,2,0,P|70:279|22:279,1,80.9999975280763,8|8,0:0|0:0,0:0:0:0:
202,203,59403,2,0,P|248:212|296:212,1,80.9999975280763
419,63,59740,5,12,0:0:0:0:
419,63,59909,1,12,0:0:0:0:
419,63,60414,5,2,0:0:0:0:
340,44,60583,1,0,0:0:0:0:
237,151,60751,1,2,0:0:0:0:
316,132,60920,1,0,0:0:0:0:
200,16,61088,1,2,0:0:0:0:
176,104,61257,1,0,0:0:0:0:
292,220,61425,1,2,0:0:0:0:
316,132,61594,1,0,0:0:0:0:
104,168,61762,6,0,P|75:168|40:162,2,45.0000017166138,2|0|0,0:0|0:0|0:0,0:0:0:0:
264,160,62100,2,0,P|289:174|316:197,2,45.0000017166138,2|0|0,0:0|0:0|0:0,0:0:0:0:
29,304,62437,6,0,P|113:344|220:323,1,180,4|8,0:0|0:0,0:0:0:0:
312,285,62942,2,0,P|339:236|341:189,1,90,2|0,0:0|0:0,0:0:0:0:
205,125,63279,2,0,P|206:180|227:222,1,90,2|8,0:0|0:0,0:0:0:0:
418,315,63616,6,0,P|446:222|420:126,1,180,2|0,0:0|0:0,0:0:0:0:
351,42,64122,1,8,0:0:0:0:
235,92,64291,2,0,P|185:95|139:87,1,90,2|0,0:0|0:0,0:0:0:0:
14,184,64628,2,0,P|64:181|110:189,1,90,2|8,0:0|0:0,0:0:0:0:
224,222,64965,5,0,0:0:0:0:
224,222,65049,1,0,0:0:0:0:
224,222,65133,2,0,P|305:211|357:120,1,180,2|8,0:0|0:0,0:0:0:0:
457,58,65639,2,0,P|479:105|483:153,1,90,2|0,0:0|0:0,0:0:0:0:
441,299,65976,2,0,P|419:252|415:204,1,90,2|8,0:0|0:0,0:0:0:0:
292,322,66313,6,0,P|199:335|105:290,1,180,2|0,0:0|0:0,0:0:0:0:
30,215,66819,1,8,0:0:0:0:
135,146,66987,2,0,P|228:133|322:178,1,180,2|0,0:0|0:0,0:0:0:0:
415,226,67493,2,0,P|439:184|446:138,1,90,8|0,0:0|0:0,0:0:0:0:
261,53,67830,6,0,P|212:135|219:221,1,180,2|8,0:0|0:0,0:0:0:0:
296,315,68336,1,0,0:0:0:0:
415,226,68504,2,0,L|507:222,1,90,2|0,0:0|0:0,0:0:0:0:
296,315,68841,2,0,P|246:309|213:286,1,90,8|0,0:0|0:0,0:0:0:0:
297,71,69178,6,0,P|326:137|278:236,1,180,2|8,0:0|0:0,0:0:0:0:
122,306,69684,2,0,P|93:240|141:141,1,180,2|0,0:0|0:0,0:0:0:0:
297,71,70189,1,8,0:0:0:0:
130,28,70358,1,0,0:0:0:0:
278,213,70527,6,0,P|323:216|375:194,1,90,10|0,0:0|0:0,0:0:0:0:
490,190,70864,2,0,P|481:233|456:271,1,90,10|0,0:0|0:0,0:0:0:0:
405,118,71201,2,0,P|433:83|474:64,1,90,10|0,0:0|0:0,0:0:0:0:
246,312,71538,6,0,P|178:229|202:148,1,180,12|0,0:0|0:0,0:0:0:0:
256,42,72043,1,8,0:0:0:0:
380,65,72212,2,0,P|364:111|322:146,1,90,2|0,0:0|0:0,0:0:0:0:
134,84,72549,1,8,0:0:0:0:
43,176,72718,1,0,0:0:0:0:
129,329,72886,1,8,0:0:0:0:
150,335,72970,1,8,0:0:0:0:
172,338,73055,1,8,0:0:0:0:
195,337,73139,1,8,0:0:0:0:
216,332,73223,6,0,P|305:300|395:312,1,180,4|8,0:0|0:0,0:0:0:0:
340,195,73729,2,0,L|244:171,1,90,2|0,0:0|0:0,0:0:0:0:
97,222,74066,2,0,L|184:243,1,90,2|8,0:0|0:0,0:0:0:0:
391,284,74403,6,0,P|438:206|409:122,1,180,2|0,0:0|0:0,0:0:0:0:
321,38,74909,1,8,0:0:0:0:
220,113,75077,2,0,P|137:142|44:118,1,180,2|0,0:0|0:0,0:0:0:0:
130,36,75583,1,8,0:0:0:0:
224,218,75751,5,0,0:0:0:0:
224,218,75836,1,0,0:0:0:0:
224,218,75920,2,0,P|295:249|398:196,1,180,2|8,0:0|0:0,0:0:0:0:
487,138,76425,1,0,0:0:0:0:
276,80,76594,2,0,L|182:59,1,90,2|0,0:0|0:0,0:0:0:0:
152,264,76931,1,8,0:0:0:0:
372,208,77100,6,0,P|396:159|345:37,1,180,2|0,0:0|0:0,0:0:0:0:
240,0,77605,1,8,0:0:0:0:
125,53,77774,1,0,0:0:0:0:
172,169,77942,2,0,P|214:141|233:103,1,90,2|0,0:0|0:0,0:0:0:0:
43,152,78279,2,0,P|46:202|69:237,1,90,10|0,0:0|0:0,0:0:0:0:
282,187,78616,6,0,P|378:174|467:233,1,180,4|8,0:0|0:0,0:0:0:0:
343,335,79122,1,0,0:0:0:0:
183,304,79291,2,0,P|143:264|132:227,1,90,2|0,0:0|0:0,0:0:0:0:
57,132,79628,2,0,P|29:167|21:210,1,90,10|0,0:0|0:0,0:0:0:0:
239,220,79965,6,0,P|329:178|416:184,1,180,2|8,0:0|0:0,0:0:0:0:
496,272,80470,1,0,0:0:0:0:
270,339,80639,2,0,P|223:338|171:317,1,90,2|0,0:0|0:0,0:0:0:0:
57,169,80976,2,0,P|97:146|153:138,1,90,10|0,0:0|0:0,0:0:0:0:
283,132,81313,5,0,0:0:0:0:
432,195,81482,1,0,0:0:0:0:
274,229,81650,1,12,0:0:0:0:
379,105,81819,1,0,0:0:0:0:
365,265,81987,2,0,P|333:305|288:324,1,90
379,105,82324,2,0,P|426:86|475:92,1,90,12|0,0:0|0:0,0:0:0:0:
252,188,82661,5,4,0:0:0:0:
91,161,82830,1,8,0:0:0:0:
61,128,82914,1,8,0:0:0:0:
58,84,82998,1,8,0:0:0:0:
230,35,83167,1,0,0:0:0:0:
161,213,83336,2,0,P|126:245|76:248,1,90,10|0,0:0|0:0,0:0:0:0:
313,93,83673,2,0,P|358:107|385:149,1,90,10|0,0:0|0:0,0:0:0:0:
303,322,84010,6,0,P|277:262|299:197,1,135.000005149842,4|0,0:0|0:0,0:0:0:0:
145,86,84684,2,0,P|95:159|118:337,1,270.000010299683,2|2,0:0|0:0,0:0:0:0:
303,322,85695,5,0,0:0:0:0:
303,322,85864,2,0,L|436:299,1,135.000005149842,2|0,0:0|0:0,0:0:0:0:
257,238,86538,5,0,0:0:0:0:
257,238,86706,2,0,P|203:190|183:129,1,135.000005149842,2|0,0:0|0:0,0:0:0:0:
310,25,87212,1,4,3:0:0:0:
345,267,87549,6,0,P|315:313|281:329,1,90
122,325,87886,1,0,0:0:0:0:
257,238,88055,6,0,P|280:198|262:67,1,180,4|8,0:0|0:0,0:0:0:0:
103,53,88560,2,0,P|54:57|-4:79,1,90
83,217,88897,2,0,P|131:212|190:191,1,90,0|8,0:0|0:0,0:0:0:0:
332,172,89234,1,0,0:0:0:0:
255,28,89403,5,4,0:0:0:0:
256,192,89487,12,2,92100,0:0:0:0:
