osu file format v12

[General]
AudioFilename: Colorful.mp3
AudioLeadIn: 0
PreviewTime: 62437
Countdown: 0
SampleSet: Soft
StackLeniency: 0.7
Mode: 0
LetterboxInBreaks: 0
EpilepsyWarning: 1
WidescreenStoryboard: 1

[Editor]
DistanceSpacing: 1
BeatDivisor: 2
GridSize: 4
TimelineZoom: 1

[Metadata]
Title:Colorful -movie MIX-
TitleUnicode:カラフル -movie MIX-
Artist:ClariS
ArtistUnicode:ClariS
Creator:Moway
Version:Beginner
Source:Gekijouban Puella Magi Madoka Magica [Shinpen] Hangyaku no Monogatari
Tags:劇場版 魔法少女まどか☆マギカ 叛逆の物語 opening alice clara captin1 raose guy oyatsu judydanny
BeatmapID:323800
BeatmapSetID:127683

[Difficulty]
HPDrainRate:1
CircleSize:2
OverallDifficulty:1
ApproachRate:2
SliderMultiplier:0.6
SliderTickRate:1

[Events]
//Background and Video events
0,0,"bg.jpg",0,0
//Break Periods
//Storyboard Layer 0 (Background)
//Storyboard Layer 1 (Fail)
//Storyboard Layer 2 (Pass)
//Storyboard Layer 3 (Foreground)
Sprite,Foreground,Centre,"SB\moway.png",320,240 M,0,17605,17942,260,377,334,377 F,0,17605,17942,0,1 F,0,17942,20639,1 M,0,17942,23336,334,377,417,377 F,0,20639,23336,1,0
//Storyboard Sound Samples
//Background Colour Transformations
3,100,163,162,255

[TimingPoints]
1763,337.078651685393,4,2,1,40,1,0
11201,-100,4,2,1,60,0,0
13897,-100,4,2,1,40,0,0
13982,-100,4,2,1,60,0,0
15246,-100,4,2,1,40,0,0
15330,-100,4,2,1,60,0,0
16594,-100,4,2,1,40,0,0
16678,-100,4,2,1,60,0,0
20976,-100,4,2,1,50,0,0
21987,-100,4,2,1,70,0,0
34122,-100,4,2,1,60,0,0
44234,-100,4,2,1,70,0,0
50302,-100,4,2,1,80,0,0
60414,-100,4,2,1,60,0,0
61762,-100,4,2,1,80,0,0
62437,-100,4,2,1,85,0,1
73139,-100,4,2,1,85,0,0
73223,-100,4,2,1,85,0,1
84010,-100,4,2,1,60,0,0
88055,-100,4,2,1,80,0,0
89403,-100,4,2,1,40,0,0

[Colours]
Combo1 : 150,150,150
Combo2 : 255,98,255
Combo3 : 0,116,232
Combo4 : 244,0,104
Combo5 : 253,220,36

[HitObjects]
160,312,1763,6,0,B|216:320|256:254|256:254|296:320|352:312,1,240,2|0,0:0|0:0,0:0:0:0:
368,192,3785,1,2,0:0:0:0:
352,72,4459,2,0,B|296:64|256:130|256:130|216:64|160:72,1,240,2|0,0:0|0:0,0:0:0:0:
144,192,6482,1,2,0:0:0:0:
212,292,7156,5,2,0:0:0:0:
332,288,7830,2,0,P|396:260|424:212,2,120,2|2|0,0:0|0:0|0:0,0:0:0:0:
212,292,9852,2,0,L|84:292,1,120,2|2,0:0|0:0,0:0:0:0:
28,192,11201,2,0,P|76:96|196:112,1,240,8|4,0:0|0:0,0:0:0:0:
380,256,13897,6,0,P|424:212|428:148,2,120,4|2|4,0:0|0:0|0:0,0:0:0:0:
312,160,15920,2,0,P|268:116|204:112,2,120,2|4|8,0:0|0:0|0:0,0:0:0:0:
216,232,17942,6,0,B|148:239|113:181|113:181|127:252|81:304,1,240,4|2,0:0|0:0,0:0:0:0:
196,348,19965,1,2,0:0:0:0:
256,192,20639,12,4,23336,0:0:0:0:
364,172,24684,6,0,P|312:204|248:204,1,120,0|0,0:0|0:0,0:0:0:0:
152,144,26032,2,0,P|101:112|42:110,2,120,2|0|2,0:0|0:0|0:0,0:0:0:0:
254,205,28055,1,2,0:0:0:0:
328,304,28729,6,0,P|380:252|324:104,1,240,4|0,0:0|0:0,0:0:0:0:
256,20,30751,1,0,0:0:0:0:
177,109,31425,2,0,P|121:208|184:304,1,240,2|2,0:0|0:0,0:0:0:0:
298,339,33448,1,2,0:0:0:0:
388,260,34122,6,0,P|337:225|277:220,1,120,4|0,0:0|0:0,0:0:0:0:
167,261,35470,2,0,P|111:254|68:208,1,120,2|0,0:0|0:0,0:0:0:0:
172,136,36819,2,0,L|300:136,2,120,2|0|2,0:0|0:0|0:0,0:0:0:0:
77,62,38841,1,2,0:0:0:0:
69,181,39515,6,0,B|105:257|197:261|197:261|197:349,1,240,4|2,0:0|0:0,0:0:0:0:
315,362,41538,1,8,0:0:0:0:
408,284,42212,6,0,P|416:204|288:100,2,240,4|4|4,0:0|0:0|0:0,0:0:0:0:
304,224,45583,5,8,0:0:0:0:
188,256,46257,2,0,B|128:271|128:271|72:256,1,120,0|8,0:0|0:0,0:0:0:0:
72,136,47605,2,0,B|132:121|132:121|188:136,2,120,6|8|0,0:0|0:0|0:0,0:0:0:0:
131,240,49628,1,8,0:0:0:0:
248,212,50302,6,0,P|304:168|360:168,1,120,4|0,0:0|0:0,0:0:0:0:
432,252,51650,2,0,P|376:296|320:296,1,120,2|0,0:0|0:0,0:0:0:0:
208,300,52998,1,4,0:0:0:0:
104,240,53673,1,2,0:0:0:0:
176,144,54347,2,0,P|208:84|192:24,2,120,2|0|4,0:0|0:0|0:0,0:0:0:0:
104,240,56369,6,0,B|88:304|88:304|116:360,2,120,8|8|8,0:0|0:0|0:0,0:0:0:0:
224,256,58392,2,0,L|356:272,1,120,8|8,0:0|0:0,0:0:0:0:
460,288,59740,1,12,0:0:0:0:
256,192,60414,12,4,62437,0:0:0:0:
252,204,63785,6,0,B|192:204|192:204|176:236|128:248,1,120,2|0,0:0|0:0,0:0:0:0:
56,164,65133,2,0,B|116:164|116:164|132:132|180:120,1,120,2|0,0:0|0:0,0:0:0:0:
256,52,66482,1,2,0:0:0:0:
351,126,67156,1,0,0:0:0:0:
256,200,67830,5,2,0:0:0:0:
200,304,68504,2,0,P|257:322|312:304,2,120,0|2|0,0:0|0:0|0:0,0:0:0:0:
100,236,70527,2,0,P|76:176|120:72,1,180,8|12,0:0|0:0,0:0:0:0:
195,165,72212,2,0,B|259:181|299:121|299:121|371:141,1,180,2|4,0:0|0:0,0:0:0:0:
460,196,73897,5,2,0:0:0:0:
360,264,74571,2,0,P|280:308|220:312,1,120,2|0,0:0|0:0,0:0:0:0:
148,256,75920,2,0,P|68:212|8:208,2,120,2|0|2,0:0|0:0|0:0,0:0:0:0:
232,341,77942,2,0,P|268:277|252:209,1,120,2|4,0:0|0:0,0:0:0:0:
208,124,79291,5,2,0:0:0:0:
308,57,79965,2,0,L|432:29,1,120,2|0,0:0|0:0,0:0:0:0:
485,134,81313,2,2,P|501:196|473:252,2,120,0|2|4,0:0|0:0|0:0,0:0:0:0:
370,97,83336,1,10,0:0:0:0:
328,209,84010,6,0,B|272:209|272:209|240:181|196:173,1,120,4|2,0:0|0:0,0:0:0:0:
136,88,85358,2,0,B|192:88|192:88|224:60|268:52,1,120,2|0,0:0|0:0,0:0:0:0:
367,62,86706,2,0,P|405:93|420:141,2,90,8|8|8,0:0|0:0|0:0,0:0:0:0:
307,56,88055,2,0,B|224:120|313:144|220:214,1,180,4|8,0:0|0:0,0:0:0:0:
256,192,89403,12,2,92100,0:0:0:0:
