osu file format v13

[General]
AudioFilename: Colorful -Movie Mix-.mp3
AudioLeadIn: 0
PreviewTime: 65137
Countdown: 0
SampleSet: Soft
StackLeniency: 0.7
Mode: 0
LetterboxInBreaks: 0
WidescreenStoryboard: 0

[Editor]
DistanceSpacing: 1
BeatDivisor: 4
GridSize: 4
TimelineZoom: 1

[Metadata]
Title:Colorful -movie MIX-
TitleUnicode:カラフル -movie MIX-
Artist:ClariS
ArtistUnicode:ClariS
Creator:KantoKun
Version:Insane
Source:劇場版 魔法少女まどか☆マギカ[新編]叛逆の物語
Tags:Gekijouban Mahou Shoujo Madoka*Magica [Shinpen] Hangyaku no Monogatari Puella Magi Movie 3 The Rebellion Story Karafuru opening Momochikun No_Gu [_Lost_] Lost
BeatmapID:334576
BeatmapSetID:128223

[Difficulty]
HPDrainRate:7
CircleSize:4
OverallDifficulty:7.5
ApproachRate:9
SliderMultiplier:1.7
SliderTickRate:1

[Events]
//Background and Video events
0,0,"BG.jpg",0,0
//Break Periods
//Storyboard Layer 0 (Background)
//Storyboard Layer 1 (Fail)
//Storyboard Layer 2 (Pass)
//Storyboard Layer 3 (Foreground)
//Storyboard Sound Samples
//Background Colour Transformations
3,100,163,162,255

[TimingPoints]
6486,337.078651685393,4,2,1,20,1,0
15924,-117.647058823529,4,2,1,60,0,0
25362,-117.647058823529,4,2,1,20,0,0
25699,-117.647058823529,4,2,1,25,0,0
26036,-117.647058823529,4,2,1,30,0,0
26373,-117.647058823529,4,2,1,35,0,0
26710,-100,4,2,1,30,0,0
27047,-100,4,2,1,35,0,0
27384,-100,4,2,1,40,0,0
27553,-100,4,2,2,40,0,0
27721,-100,4,2,1,70,0,0
28059,-117.647058823529,4,2,2,50,0,0
43564,-117.647058823529,4,2,1,50,0,0
44238,-117.647058823529,4,2,2,50,0,0
46261,-117.647058823529,4,2,1,50,0,0
46429,-117.647058823529,4,2,2,50,0,0
46598,-117.647058823529,4,2,1,50,0,0
46766,-117.647058823529,4,2,1,20,0,0
46935,-117.647058823529,4,2,2,50,0,0
48957,-117.647058823529,4,2,2,70,0,0
54182,-117.647058823529,4,2,2,30,0,0
54463,-117.647058823529,4,2,2,20,0,0
54688,-117.647058823529,4,2,2,50,0,0
54800,-117.647058823529,4,2,2,20,0,0
55025,-100,4,2,2,60,0,0
64126,-100,4,2,2,40,0,0
64294,-100,4,2,2,60,0,0
65137,-200,4,2,1,30,0,0
65811,-200,4,2,1,40,0,0
66485,-133.333333333333,4,2,1,50,0,0
67160,-100,4,2,2,100,0,1
67244,-100,4,2,2,80,0,1
76935,-100,4,2,1,80,0,1
77103,-100,4,2,2,80,0,1
77272,-100,4,2,2,50,0,1
77862,-100,4,2,2,50,0,0
77946,-100,4,2,2,80,0,1
87553,-133.333333333333,4,2,1,80,0,1
87637,-133.333333333333,4,2,2,80,0,1
88059,-133.333333333333,4,2,1,80,0,1
88143,-133.333333333333,4,2,2,80,0,1
88733,-100,4,2,1,50,0,0
88817,-100,4,2,1,50,0,0
92272,-100,4,2,2,60,0,0
92778,-100,4,2,2,70,0,0
94126,-100,4,2,1,70,0,0
95474,-100,4,2,1,40,0,0
96823,-100,4,2,1,20,0,0

[Colours]
Combo1 : 255,128,192
Combo2 : 128,255,128
Combo3 : 255,255,128
Combo4 : 128,255,255
Combo5 : 255,128,128

[HitObjects]
316,128,15924,5,8,0:0:0:0:
408,84,16092,1,4,0:3:0:0:
408,84,16598,5,2,0:0:0:0:
316,128,16766,1,0,0:0:0:0:
332,228,16935,1,2,0:0:0:0:
432,244,17103,1,0,0:0:0:0:
480,156,17272,1,6,0:0:0:0:
432,244,18620,5,8,0:0:0:0:
332,228,19969,5,6,0:0:0:0:
316,128,21317,5,2,0:0:0:0:
264,308,21823,1,0,0:0:0:0:
264,308,21907,1,0,0:0:0:0:
264,308,21991,2,0,P|228:312|192:308,1,72.2500013780594,8|4,0:0|0:3,0:0:0:0:
112,264,22328,2,0,P|76:260|40:264,1,72.2500013780594,4|0,0:3|0:0,0:0:0:0:
144,88,22665,5,6,0:0:0:0:
144,88,23845,6,0,L|140:44,2,36.1250006890297,0|0|2,0:0|0:0|0:0,0:0:0:0:
156,184,24688,1,6,0:0:0:0:
156,184,25362,5,8,0:0:0:0:
284,216,25530,1,8,0:0:0:0:
256,84,25699,1,8,0:0:0:0:
192,312,25868,1,8,0:0:0:0:
408,252,26036,2,0,P|444:252|484:248,1,72.2500013780594,8|8,0:0|0:0,0:0:0:0:
372,64,26373,1,10,0:0:0:0:
348,68,26457,1,2,0:0:0:0:
324,72,26542,1,2,0:0:0:0:
300,76,26626,1,2,0:0:0:0:
276,80,26710,5,10,0:0:0:0:
284,216,26879,1,10,0:0:0:0:
140,176,27047,1,10,0:0:0:0:
224,284,27216,1,10,0:0:0:0:
56,328,27384,1,10,0:0:0:0:
196,368,27553,1,2,0:0:0:0:
356,316,27721,1,8,0:0:0:0:
496,336,27890,5,0,0:0:0:0:
496,336,27974,1,0,0:0:0:0:
496,336,28059,2,0,P|505:261|500:192,1,144.500002756119,6|2,0:0|0:0,0:0:0:0:
400,120,28564,1,0,0:0:0:0:
280,176,28733,2,0,P|271:251|276:320,1,144.500002756119,2|2,0:0|0:0,0:0:0:0:
384,264,29238,6,0,P|384:304|380:348,1,72.2500013780594,0|2,0:0|0:0,0:0:0:0:
156,311,29575,2,0,P|160:275|168:240,1,72.2500013780594,0|2,0:0|0:0,0:0:0:0:
392,164,29912,2,0,P|428:176|460:196,1,72.2500013780594,0|2,0:0|0:0,0:0:0:0:
180,140,30250,2,0,P|136:144|104:144,2,72.2500013780594,0|2|0,0:0|0:0|0:0,0:0:0:0:
256,64,30755,6,0,P|312:32|396:48,1,144.500002756119,2|2,0:0|0:0,0:0:0:0:
332,192,31261,2,0,P|332:152|336:116,1,72.2500013780594,0|2,0:0|0:0,0:0:0:0:
496,184,31598,2,0,P|496:224|492:260,1,72.2500013780594,0|2,0:0|0:0,0:0:0:0:
408,332,31935,1,0,0:0:0:0:
296,308,32103,6,0,P|248:296|152:296,1,144.500002756119,2|2,0:0|0:0,0:0:0:0:
64,336,32609,1,0,0:0:0:0:
100,208,32778,2,0,P|156:200|256:200,1,144.500002756119,2|2,0:0|0:0,0:0:0:0:
344,220,33283,1,0,0:0:0:0:
420,296,33452,6,0,P|444:244|424:144,2,144.500002756119,2|2|2,0:0|0:0|0:0,0:0:0:0:
272,216,34294,2,0,P|304:216|344:220,2,72.2500013780594,0|2|0,0:0|0:0|0:0,0:0:0:0:
184,280,34800,6,0,P|148:296|40:240,1,144.500002756119,2|2,0:0|0:0,0:0:0:0:
0,178,35306,2,0,P|36:162|144:218,1,144.500002756119,0|0,0:0|0:0,0:0:0:0:
221,168,35811,2,0,P|229:128|226:91,1,72.2500013780594,2|0,0:0|0:0,0:0:0:0:
320,152,36148,6,0,L|464:148,1,144.500002756119,2|2,0:0|0:0,0:0:0:0:
512,242,36654,1,0,0:0:0:0:
476,336,36823,2,0,L|332:340,1,144.500002756119,2|2,0:0|0:0,0:0:0:0:
234,304,37328,1,8,0:0:0:0:
138,266,37497,6,0,L|66:270,1,72.2500013780594,2|0,0:0|0:0,0:0:0:0:
67,174,37834,2,0,P|47:126|87:34,1,144.500002756119,2|2,0:0|0:0,0:0:0:0:
176,16,38339,1,0,0:0:0:0:
176,16,38424,1,0,0:0:0:0:
176,16,38508,1,2,0:0:0:0:
152,116,38677,1,8,0:0:0:0:
248,88,38845,6,0,P|288:80|392:116,1,144.500002756119,6|2,0:0|0:0,0:0:0:0:
412,192,39351,1,0,0:0:0:0:
308,244,39519,2,0,P|268:212|332:180,1,144.500002756119,2|2,0:0|0:0,0:0:0:0:
496,232,40025,6,0,P|499:267|500:303,1,72.2500013780594,0|2,0:0|0:0,0:0:0:0:
400,356,40362,2,0,P|396:320|395:284,1,72.2500013780594,0|2,0:0|0:0,0:0:0:0:
412,192,40699,1,0,0:0:0:0:
464,112,40868,2,0,P|468:72|468:40,1,72.2500013780594,2|0,0:0|0:0,0:0:0:0:
304,88,41205,2,0,P|304:124|308:160,1,72.2500013780594,2|8,0:0|0:0,0:0:0:0:
388,228,41542,6,0,P|336:256|228:236,1,144.500002756119,2|2,0:0|0:0,0:0:0:0:
56,304,42047,1,0,0:0:0:0:
56,304,42216,2,0,P|126:295|191:326,1,144.500002756119,2|2,0:0|0:0,0:0:0:0:
136,210,42721,1,0,0:0:0:0:
136,210,42890,6,0,L|132:66,1,144.500002756119,10|2,0:3|0:0,0:0:0:0:
248,82,43396,1,8,0:0:0:0:
343,20,43564,2,0,P|383:16|423:16,1,72.2500013780594,8|0,0:3|0:0,0:0:0:0:
464,172,43901,2,0,P|424:176|384:176,1,72.2500013780594,4|0,0:3|0:0,0:0:0:0:
288,164,44238,6,0,P|280:212|288:308,1,144.500002756119,6|2,0:0|0:0,0:0:0:0:
392,296,44744,1,0,0:0:0:0:
200,360,44912,2,0,P|188:312|184:212,1,144.500002756119,2|2,0:0|0:0,0:0:0:0:
440,44,45587,6,0,P|452:92|456:192,1,144.500002756119,2|2,0:0|0:0,0:0:0:0:
392,296,46092,1,8,0:0:0:0:
288,220,46261,2,0,P|248:216|208:216,1,72.2500013780594,4|2,0:3|0:0,0:0:0:0:
116,276,46598,1,8,0:3:0:0:
32,196,46766,1,8,0:0:0:0:
32,196,46851,1,8,0:0:0:0:
32,196,46935,6,0,P|24:152|28:48,1,144.500002756119,6|2,0:0|0:0,0:0:0:0:
240,0,47609,2,0,P|248:44|244:148,1,144.500002756119,2|2,0:0|0:0,0:0:0:0:
208,312,48283,5,2,0:0:0:0:
352,260,48452,1,8,0:0:0:0:
352,260,48789,1,2,0:0:0:0:
208,312,48957,2,0,P|188:272|192:204,1,108.375002067089,12|0,0:0|0:0,0:0:0:0:
200,176,49294,2,0,P|208:136|208:100,1,72.2500013780594,8|0,0:0|0:0,0:0:0:0:
144,24,49632,6,0,L|-12:36,1,144.500002756119,14|0,0:3|0:0,0:0:0:0:
32,252,50137,1,0,0:0:0:0:
104,192,50306,2,0,P|108:156|104:116,1,72.2500013780594,8|2,0:0|0:0,0:0:0:0:
104,120,50811,6,0,P|136:152|240:144,1,144.500002756119,4|8,0:0|0:0,0:0:0:0:
230,150,51485,1,2,0:0:0:0:
304,304,51654,2,0,P|316:268|324:228,1,72.2500013780594,8|0,0:0|0:0,0:0:0:0:
480,232,51991,2,0,P|442:239|404:252,1,72.2500013780594,2|0,0:0|0:0,0:0:0:0:
316,112,52328,6,0,P|352:144|448:132,1,144.500002756119,6|2,0:0|0:0,0:0:0:0:
396,52,52834,1,0,0:0:0:0:
236,40,53002,2,0,P|200:40|164:44,1,72.2500013780594,8|2,0:0|0:0,0:0:0:0:
48,236,53508,6,0,P|116:236|196:224,1,144.500002756119,4|8,0:0|0:0,0:0:0:0:
276,148,54014,1,2,0:0:0:0:
376,220,54182,1,8,0:0:0:0:
388,240,54266,1,8,0:0:0:0:
400,260,54351,6,0,L|396:312,2,48.1666675853729,8|2|2,0:0|0:0|0:0,0:0:0:0:
480,84,54688,2,0,L|484:32,2,48.1666675853729,8|2|2,0:0|0:0|0:0,0:0:0:0:
384,152,55025,6,0,P|336:172|252:92,1,170,6|8,0:0|0:0,0:0:0:0:
156,44,55530,2,0,P|108:40|64:40,1,85,2|0,0:0|0:0,0:0:0:0:
60,208,55868,2,0,P|108:212|152:212,1,85,2|8,0:0|0:0,0:0:0:0:
108,128,56205,1,0,0:0:0:0:
4,276,56373,6,0,P|-12:328|92:356,1,170,2|8,0:0|0:0,0:0:0:0:
160,320,56879,2,0,P|232:316|256:320,1,85,2|0,0:0|0:0,0:0:0:0:
336,344,57216,1,2,0:0:0:0:
336,344,57300,1,0,0:0:0:0:
336,344,57384,2,0,P|378:346|420:341,1,85,8|0,0:0|0:0,0:0:0:0:
372,96,57721,6,0,P|348:180|380:264,1,170,6|8,0:0|0:0,0:0:0:0:
464,304,58228,1,2,0:0:0:0:
340,224,58396,1,0,0:0:0:0:
488,172,58565,1,2,0:0:0:0:
372,96,58733,1,8,0:0:0:0:
225,137,58901,1,0,0:0:0:0:
225,137,59070,6,0,L|217:306,1,170,2|0,0:0|1:0,0:0:0:0:
320,182,59575,2,0,L|312:351,1,170,2|2,0:0|0:0,0:0:0:0:
415,219,60081,2,0,L|412:304,1,85,8|0,0:0|0:0,0:0:0:0:
420,36,60418,5,12,0:0:0:0:
224,76,60587,1,8,0:0:0:0:
224,76,60924,5,8,0:0:0:0:
320,56,61092,1,8,0:0:0:0:
420,36,61261,1,8,0:0:0:0:
276,196,61598,5,8,0:0:0:0:
372,176,61766,1,8,0:0:0:0:
472,156,61935,1,8,0:0:0:0:
220,340,62272,5,8,0:0:0:0:
316,320,62440,1,8,0:0:0:0:
416,300,62609,1,8,0:0:0:0:
104,296,62946,5,2,0:0:0:0:
104,296,63030,1,0,0:0:0:0:
104,296,63115,2,0,P|96:252|100:208,1,85,8|8,0:0|0:0,0:0:0:0:
324,64,63620,5,8,0:0:0:0:
328,164,63789,1,8,0:0:0:0:
240,120,63957,2,0,P|228:72|232:24,1,85,8|2,0:0|0:0,0:0:0:0:
324,64,64294,5,8,0:0:0:0:
300,284,64463,1,8,0:0:0:0:
128,148,64632,1,6,0:0:0:0:
128,148,65137,5,2,0:0:0:0:
144,236,65306,1,0,0:0:0:0:
232,220,65474,1,2,0:0:0:0:
216,132,65643,1,0,0:0:0:0:
128,148,65811,5,2,0:0:0:0:
200,312,65980,1,0,0:0:0:0:
360,240,66148,1,2,0:0:0:0:
288,76,66317,1,0,0:0:0:0:
360,240,66485,6,0,L|356:288,2,42.5000016212464,2|0|0,0:0|0:0|0:0,0:0:0:0:
456,76,66823,2,0,L|460:28,2,42.5000016212464,2|0|0,0:0|0:0|0:0,0:0:0:0:
344,128,67160,6,0,P|304:96|180:96,1,170,14|8,0:3|0:0,0:0:0:0:
112,188,67665,2,0,P|108:232|108:272,1,85,2|0,0:0|0:0,0:0:0:0:
288,340,68002,1,2,0:0:0:0:
288,340,68087,1,0,0:0:0:0:
288,340,68171,2,0,P|292:296|292:256,1,85,8|0,0:0|0:0,0:0:0:0:
224,160,68508,5,2,0:0:0:0:
291,255,68677,1,0,0:0:0:0:
404,212,68845,2,0,P|448:212|492:220,1,85,8|2,0:0|0:0,0:0:0:0:
504,92,69182,2,0,P|460:92|416:84,1,85,0|2,0:0|0:0,0:0:0:0:
345,4,69519,1,8,0:0:0:0:
240,45,69688,1,0,0:0:0:0:
240,45,69772,1,0,0:0:0:0:
240,45,69856,6,0,P|189:74|94:30,1,170,2|8,0:0|0:0,0:0:0:0:
0,68,70362,2,0,P|-4:112|-4:160,1,85,2|0,0:0|0:0,0:0:0:0:
108,280,70699,2,0,P|112:232|112:196,1,85,2|8,0:0|0:0,0:0:0:0:
32,348,71036,1,0,0:0:0:0:
32,348,71120,1,0,0:0:0:0:
32,348,71205,6,0,P|72:376|192:328,1,170,2|8,0:0|0:0,0:0:0:0:
296,144,71710,1,2,0:0:0:0:
272,360,71879,1,0,0:0:0:0:
208,244,72047,1,2,0:0:0:0:
340,272,72216,1,8,0:0:0:0:
208,244,72384,1,0,0:0:0:0:
340,272,72553,6,0,P|384:288|480:204,1,170,6|8,0:0|0:0,0:0:0:0:
392,104,73059,2,0,P|388:156|392:192,1,85,0|0,0:0|0:0,0:0:0:0:
480,128,73396,1,2,0:0:0:0:
320,24,73564,1,8,0:0:0:0:
440,16,73733,1,0,0:0:0:0:
296,144,73901,6,0,P|240:160|176:132,1,127.5,2|0,0:0|0:0,0:0:0:0:
140,164,74238,2,0,P|140:208|136:256,1,85,8|2,0:0|0:0,0:0:0:0:
234,254,74575,1,0,0:0:0:0:
60,96,74744,1,2,0:0:0:0:
40,204,74912,1,8,0:0:0:0:
156,40,75081,1,0,0:0:0:0:
235,255,75250,6,0,P|291:267|355:215,1,127.5,6|0,0:0|0:0,0:0:0:0:
371,246,75587,2,0,P|374:200|380:161,1,85,8|0,0:0|0:0,0:0:0:0:
400,40,75924,1,6,0:0:0:0:
160,120,76261,1,12,0:0:0:0:
368,348,76598,6,0,P|320:348|284:344,1,85,2|8,0:0|0:0,0:0:0:0:
164,272,76935,2,0,P|116:272|80:276,1,85,4|0,0:3|0:0,0:0:0:0:
160,120,77272,5,8,0:0:0:0:
188,136,77356,1,8,0:0:0:0:
216,144,77441,1,8,0:0:0:0:
244,144,77525,1,8,0:0:0:0:
272,140,77609,1,8,0:0:0:0:
296,128,77693,1,8,0:0:0:0:
324,120,77778,1,8,0:0:0:0:
352,116,77862,1,8,0:0:0:0:
380,120,77946,6,0,P|424:124|464:120,1,85,6|0,0:0|0:0,0:0:0:0:
508,36,78283,1,8,0:0:0:0:
512,208,78452,2,0,P|472:216|340:216,1,170,2|2,0:0|0:0,0:0:0:0:
272,140,78957,1,8,0:0:0:0:
240,244,79126,1,0,0:0:0:0:
316,324,79294,6,0,P|360:328|404:328,1,85,2|0,0:0|0:0,0:0:0:0:
476,204,79632,1,8,0:0:0:0:
416,72,79800,2,0,P|372:68|328:68,1,85,2|0,0:0|0:0,0:0:0:0:
148,112,80137,1,2,0:0:0:0:
148,112,80221,1,0,0:0:0:0:
148,112,80306,2,0,P|105:111|63:107,1,85,8|0,0:0|0:0,0:0:0:0:
216,32,80643,6,0,P|244:80|212:192,1,170,2|8,0:0|0:0,0:0:0:0:
172,292,81148,2,0,P|220:296|256:296,1,85,2|0,0:0|0:0,0:0:0:0:
355,216,81485,2,0,P|397:216|440:220,1,85,2|8,0:0|0:0,0:0:0:0:
496,324,81823,1,0,0:0:0:0:
504,128,81991,6,0,P|448:120|328:116,1,170,2|8,0:0|0:0,0:0:0:0:
248,192,82497,2,0,P|196:200|76:204,1,170,2|2,0:0|0:0,0:0:0:0:
148,28,83002,2,0,P|156:72|152:112,1,85,8|0,0:0|0:0,0:0:0:0:
60,352,83339,6,0,P|48:308|56:180,1,170,6|8,0:0|0:0,0:0:0:0:
236,280,83845,2,0,L|148:272,1,85,0|0,0:0|0:0,0:0:0:0:
360,212,84182,2,0,L|448:220,1,85,2|8,0:0|0:0,0:0:0:0:
256,172,84519,1,0,0:0:0:0:
256,172,84603,1,0,0:0:0:0:
256,172,84688,6,0,P|248:124|248:88,1,85,2|0,0:0|0:0,0:0:0:0:
420,52,85025,2,0,P|428:100|428:136,1,85,8|2,0:0|0:0,0:0:0:0:
368,280,85362,1,0,0:0:0:0:
256,172,85530,2,0,P|212:168|168:172,1,85,2|8,0:0|0:0,0:0:0:0:
76,264,85868,1,0,0:0:0:0:
76,264,85952,1,0,0:0:0:0:
76,264,86036,6,0,P|56:216|68:100,1,170,6|8,0:0|0:0,0:0:0:0:
184,36,86542,2,0,P|228:39|268:44,1,85,2|0,0:0|0:0,0:0:0:0:
248,236,86879,2,0,P|204:232|164:228,1,85,2|8,0:0|0:0,0:0:0:0:
224,136,87216,1,0,0:0:0:0:
340,184,87384,6,0,P|348:228|344:272,1,85,2|8,0:0|0:3,0:0:0:0:
264,332,87721,1,0,0:0:0:0:
164,320,87890,1,2,0:0:0:0:
76,360,88059,1,4,0:3:0:0:
16,288,88227,1,0,0:0:0:0:
64,204,88396,2,0,P|68:148|64:112,1,63.7500024318696,8|0,0:0|0:0,0:0:0:0:
56,44,88733,5,2,0:0:0:0:
56,44,90081,5,2,0:0:0:0:
56,44,91429,5,2,0:0:0:0:
100,192,91935,5,4,0:3:0:0:
100,192,92272,1,2,0:0:0:0:
136,272,92441,1,8,0:0:0:0:
224,284,92609,1,0,0:0:0:0:
292,220,92778,6,0,P|332:208|432:280,1,170,6|8,0:0|0:0,0:0:0:0:
384,360,93283,1,6,0:0:0:0:
384,360,93620,1,2,0:0:0:0:
292,220,93788,1,8,0:0:0:0:
448,120,93957,1,0,0:0:0:0:
412,240,94125,5,2,0:0:0:0:
256,192,94210,12,0,96823,0:0:0:0:
