osu file format v12

[General]
AudioFilename: colorful.mp3
AudioLeadIn: 2000
PreviewTime: 60197
Countdown: 0
SampleSet: Soft
StackLeniency: 0.9
Mode: 0
LetterboxInBreaks: 1
WidescreenStoryboard: 0

[Editor]
DistanceSpacing: 0.53
BeatDivisor: 4
GridSize: 4
TimelineZoom: 1.1

[Metadata]
Title:Colorful
TitleUnicode:カラフル
Artist:ClariS
ArtistUnicode:ClariS
Creator:CloudSplash16
Version:Insane
Source:劇場版 魔法少女まどか☆マギカ[新編] 叛逆の物語
Tags:gekijouban mahou shoujo madoka magika shinhen hangyaku no monogatari puella magi magica movie rebellion fycho xinely
BeatmapID:332216
BeatmapSetID:132007

[Difficulty]
HPDrainRate:7
CircleSize:4
OverallDifficulty:7
ApproachRate:9
SliderMultiplier:1.7
SliderTickRate:1

[Events]
//Background and Video events
0,0,"BG.jpg",0,0
//Break Periods
2,162283,170247
//Storyboard Layer 0 (Background)
//Storyboard Layer 1 (Fail)
//Storyboard Layer 2 (Pass)
//Storyboard Layer 3 (Foreground)
//Storyboard Sound Samples
//Background Colour Transformations
3,100,163,162,255

[TimingPoints]
-1064,674.157303370787,4,2,1,30,1,0
1632,-133.333333333333,4,2,1,50,0,0
1801,-133.333333333333,4,2,1,30,0,0
4329,-133.333333333333,4,2,1,50,0,0
4497,-133.333333333333,4,2,1,30,0,0
5677,-133.333333333333,4,2,2,40,0,0
6014,-133.333333333333,4,2,1,30,0,0
7025,-133.333333333333,4,2,1,50,0,0
7194,-133.333333333333,4,2,1,30,0,0
9722,-133.333333333333,4,2,1,50,0,0
11070,-133.333333333333,4,2,2,35,0,0
12419,-200,4,2,1,40,0,0
17138,-200,4,2,2,40,0,0
17812,-200,4,2,1,40,0,0
20510,337.078651685393,4,2,3,50,1,0
21521,-100,4,2,1,55,0,0
21858,-100,4,2,3,60,0,0
23206,-100,4,2,3,55,0,0
30622,-100,4,2,5,45,0,0
30706,-100,4,2,3,55,0,0
33318,-100,4,2,5,45,0,0
33403,-100,4,2,3,55,0,0
33824,-100,4,2,1,55,0,0
33993,-100,4,2,3,55,0,0
38880,-100,4,2,3,50,0,0
38965,-100,4,2,3,55,0,0
41577,-100,4,2,3,45,0,0
42083,-100,4,2,3,55,0,0
44779,-133.333333333333,4,2,3,55,0,0
50172,-100,4,2,3,60,0,0
55566,-100,4,2,3,65,0,0
60285,-100,4,2,1,35,0,0
61633,-100,4,2,1,50,0,0
62307,-100,4,2,3,65,0,1
71914,-100,4,2,1,45,0,1
72420,-100,4,2,3,55,0,1
73009,-100,4,2,3,55,0,0
73094,-100,4,2,3,65,0,1
82532,-200,4,2,3,65,0,1
83880,-200,4,2,1,50,0,0
85566,-200,4,2,1,30,0,0
85650,-200,4,2,1,50,0,0
86914,-100,4,2,1,50,0,0
87420,-100,4,2,3,60,0,0
87925,-100,4,2,3,65,0,0
92644,-100,4,2,1,50,0,0
93993,-100,4,2,3,55,0,0
94667,-100,4,2,1,55,0,0
102083,-100,4,2,6,45,0,0
102251,-100,4,2,1,55,0,0
102757,-133.333333333333,4,2,1,55,0,0
103599,-200,4,2,1,55,0,0
103936,-80,4,2,3,55,0,0
105453,-100,4,2,3,60,0,0
107476,-100,4,2,5,50,0,0
107560,-100,4,2,3,60,0,0
110172,-100,4,2,5,50,0,0
110257,-100,4,2,3,60,0,0
113543,-100,4,2,3,65,0,0
116240,-133.333333333333,4,2,3,60,0,0
120453,-133.333333333333,4,2,3,40,0,0
120622,-133.333333333333,4,2,3,60,0,0
121633,-100,4,2,3,65,0,0
122307,-100,4,2,5,50,0,0
122392,-100,4,2,3,50,0,0
123824,-100,4,2,5,50,0,0
123908,-100,4,2,3,50,0,0
127026,-100,4,2,3,70,0,0
133094,-100,4,2,3,55,0,0
133768,-100,4,2,3,70,0,1
144470,-100,4,2,3,70,0,0
144554,-100,4,2,3,70,0,1
155341,-100,4,2,3,65,0,0
160734,-100,4,2,1,50,0,0
162083,-100,4,2,1,5,0,0
170847,-100,4,2,1,50,0,0
171521,-100,4,2,1,55,0,0
172869,-100,4,2,1,60,0,0
173712,-100,4,2,3,60,0,0
174217,-100,4,2,3,65,0,0
174892,-100,4,2,5,55,0,0
174976,-100,4,2,3,65,0,0
175229,-100,4,2,1,65,0,0
175566,-100,4,2,3,65,0,0
176914,-100,4,2,3,50,0,0
178220,-100,4,2,1,50,0,0
178936,-100,4,2,1,55,0,0
179274,-100,4,2,1,60,0,0
179611,-100,4,2,3,65,0,0
190060,-100,4,2,3,45,0,0
190397,-100,4,2,3,65,0,0
191071,-100,4,2,5,55,0,0
191156,-100,4,2,3,65,0,0
191577,-100,4,2,1,65,0,0
191745,-100,4,2,3,65,0,0
192420,-100,4,2,1,65,0,0
192588,-100,4,2,3,65,0,0
194274,-100,4,2,1,65,0,0
194442,-100,4,2,3,65,0,0
195790,-133.333333333333,4,2,3,60,0,0
196802,-133.333333333333,4,2,1,60,0,0
197139,-133.333333333333,4,2,3,60,0,0
197476,-133.333333333333,4,2,1,60,0,0
197813,-133.333333333333,4,2,3,60,0,0
198150,-133.333333333333,4,2,1,60,0,0
198487,-200,4,2,3,60,0,0
199161,-200,4,2,2,50,0,0
199835,-200,4,2,3,50,0,0
201184,-100,4,2,3,75,0,0
202363,-100,4,2,1,75,0,0
202532,-100,4,2,3,75,0,0
202869,-100,4,2,1,75,0,0
203038,-100,4,2,3,75,0,0
205903,-100,4,2,1,40,0,0
208599,337.078651685393,4,2,3,75,1,1
216014,-100,4,2,5,65,0,1
216099,-100,4,2,3,75,0,1
218711,-100,4,2,3,55,0,1
219301,-100,4,2,3,75,0,0
219385,-83.3333333333333,4,2,3,75,0,1
223430,-83.3333333333333,4,2,5,65,0,1
223514,-83.3333333333333,4,2,3,75,0,1
226127,-100,4,2,3,70,0,0
227475,-200,4,2,3,75,0,1
229329,-200,4,2,5,65,0,1
229413,-200,4,2,3,75,0,1
232868,-100,4,2,3,55,0,1
234216,-100,4,2,3,60,0,1
235565,-100,4,2,3,65,0,1
236913,-200,4,2,3,70,0,1
238261,-200,4,2,1,50,0,0
239947,-200,4,2,1,30,0,0
240031,-200,4,2,1,50,0,0
241801,-100,4,2,3,60,0,0
242306,-100,4,2,3,65,0,0
243655,-200,4,2,1,50,0,0
245003,-100,4,2,3,70,0,0
251070,-100,4,2,5,60,0,0
251155,-100,4,2,3,70,0,0
254441,-100,4,2,1,70,0,0
254947,-100,4,2,3,70,0,0
261183,-100,4,2,1,50,0,0
263879,350.877192982456,4,2,1,50,1,0
263879,-200,4,2,1,50,0,0
265282,-200,4,2,1,40,0,0
265984,-200,4,2,1,25,0,0
266686,-200,4,2,1,15,0,0
267387,-200,4,2,1,5,0,0

[Colours]
Combo1 : 255,128,255
Combo2 : 255,128,128
Combo3 : 255,169,128
Combo4 : 255,255,128
Combo5 : 128,255,128
Combo6 : 128,191,255

[HitObjects]
232,236,621,53,0,0:0:0:0:
232,236,958,1,0,0:0:0:0:
232,236,1295,1,0,0:0:0:0:
328,296,1632,6,0,P|336:248|328:192,1,95.6250036478044,2|0,0:0|0:0,0:0:0:0:
208,44,2475,1,0,0:0:0:0:
208,44,2812,2,0,P|200:92|208:148,1,95.6250036478044
232,236,3655,1,0,0:0:0:0:
232,236,3992,1,0,0:0:0:0:
172,332,4329,102,0,P|220:340|276:332,1,95.6250036478044,2|0,0:0|0:0,0:0:0:0:
424,212,5171,1,0,0:0:0:0:
424,212,5509,2,0,P|376:204|320:212,1,95.6250036478044
232,236,6351,2,0,L|240:300,1,63.7500024318696
330,209,7025,6,0,L|338:145,1,63.7500024318696,2|0,0:0|0:0,0:0:0:0:
173,135,7700,2,0,L|114:168,1,63.7500024318696
133,295,8374,1,0,0:0:0:0:
170,360,8711,1,0,0:0:0:0:
253,268,9048,1,0,0:0:0:0:
183,238,9385,1,0,0:0:0:0:
245,345,9722,5,2,0:0:0:0:
245,345,10396,1,2,0:0:0:0:
376,293,11070,5,8,0:0:0:0:
385,262,11239,1,8,0:3:0:0:
389,230,11407,1,0,0:0:0:0:
385,198,11576,1,0,0:0:0:0:
271,151,11744,1,8,0:3:0:0:
247,173,11913,1,8,0:3:0:0:
228,199,12082,1,4,0:3:0:0:
215,228,12250,1,4,0:3:0:0:
208,258,12419,6,0,P|210:313|223:347,1,85,4|8,0:0|0:0,0:0:0:0:
369,176,13767,2,0,P|367:121|354:87,1,85,8|8,0:3|0:0,0:0:0:0:
88,158,15115,6,0,L|123:134,1,42.5,4|0,0:0|0:0,0:0:0:0:
203,155,15789,2,0,P|178:194|175:243,2,85,8|2|8,0:0|0:0|0:0,0:0:0:0:
266,105,17306,1,8,0:3:0:0:
344,87,17475,1,8,0:3:0:0:
344,87,17812,6,0,P|357:158|353:177,1,85,4|8,0:0|0:0,0:0:0:0:
168,297,19160,2,0,P|155:226|159:207,1,85,2|8,0:0|0:0,0:0:0:0:
332,295,20509,5,2,0:0:0:0:
332,295,20847,1,2,0:0:0:0:
332,295,21184,1,2,0:0:0:0:
332,295,21521,1,8,0:0:0:0:
348,256,21605,1,8,0:0:0:0:
352,213,21689,1,8,0:0:0:0:
344,170,21774,1,8,0:0:0:0:
324,132,21858,6,0,L|239:113,1,85,6|2,0:0|0:0,0:0:0:0:
154,213,22195,1,2,0:0:0:0:
228,331,22363,1,2,0:0:0:0:
348,256,22532,2,0,L|263:237,1,85,2|2,0:0|0:0,0:0:0:0:
154,213,22869,1,2,0:0:0:0:
104,96,23038,1,2,0:0:0:0:
236,132,23206,6,0,P|268:207|237:293,1,170,4|2,0:0|0:0,0:0:0:0:
154,213,23712,1,0,0:0:0:0:
372,168,23880,2,0,P|416:196|436:240,1,85,2|0,0:0|0:0,0:0:0:0:
341,314,24217,1,2,0:0:0:0:
276,160,24386,2,0,P|291:110|328:79,1,85,0|2,0:0|0:0,0:0:0:0:
341,314,24723,2,0,P|302:349|254:357,1,85,0|2,0:0|0:0,0:0:0:0:
272,184,25060,1,0,0:0:0:0:
328,304,25229,2,0,P|289:339|241:347,1,85,2|0,0:0|0:0,0:0:0:0:
136,316,25566,1,2,0:0:0:0:
88,200,25734,1,0,0:0:0:0:
156,92,25903,6,0,B|228:112|284:80|284:80|304:112,1,170,2|2,0:0|0:0,0:0:0:0:
328,304,26408,2,0,P|289:339|241:347,1,85,0|2,0:0|0:0,0:0:0:0:
128,224,26745,2,0,P|88:237|58:267,1,85,0|2,0:0|0:0,0:0:0:0:
136,316,27083,1,0,0:0:0:0:
224,252,27251,2,0,P|244:208|240:88,1,170,2|2,0:0|0:0,0:0:0:0:
156,92,27757,1,0,0:0:0:0:
332,208,27925,2,0,P|384:200|428:176,1,85,2|0,0:0|0:0,0:0:0:0:
392,45,28262,2,0,P|349:50|311:66,1,85,2|0,0:0|0:0,0:0:0:0:
148,216,28599,102,0,P|74:186|32:104,1,170,2|2,0:0|0:0,0:0:0:0:
156,92,29105,1,0,0:0:0:0:
272,168,29274,2,0,L|260:256,1,85,2|0,0:0|0:0,0:0:0:0:
148,216,29611,1,2,0:0:0:0:
272,168,29779,1,0,0:0:0:0:
314,359,29948,6,0,P|235:367|156:313,1,170,2|2,0:0|0:0,0:0:0:0:
272,168,30453,2,0,P|355:160|424:206,1,170
260,252,30959,2,0,L|272:168,1,85,2|0,0:0|0:0,0:0:0:0:
208,24,31296,102,0,L|196:108,1,85,2|0,0:0|0:0,0:0:0:0:
112,216,31633,1,2,0:0:0:0:
272,168,31802,2,0,P|336:156|368:160,1,85,0|2,0:0|0:0,0:0:0:0:
312,348,32139,2,0,P|248:360|216:356,1,85,0|2,0:0|0:0,0:0:0:0:
112,216,32476,1,8,0:0:0:0:
219,115,32644,2,0,P|232:156|238:198,2,85,2|0|2,0:0|0:0|0:0,0:0:0:0:
112,216,33150,2,0,B|124:288|188:316|188:316|160:348,1,170
239,199,33656,2,0,P|276:178|332:174,1,85,2|2,0:0|0:0,0:0:0:0:
392,232,33993,6,0,P|363:157|395:67,1,170,4|2,0:0|0:0,0:0:0:0:
480,152,34498,1,0,0:0:0:0:
440,320,34667,2,0,L|356:336,1,85,2|0,0:0|0:0,0:0:0:0:
244,276,35004,1,2,0:0:0:0:
307,122,35172,2,0,P|352:97|401:101,1,85,0|2,0:0|0:0,0:0:0:0:
244,276,35509,2,0,P|191:273|152:244,1,85,0|2,0:0|0:0,0:0:0:0:
287,136,35847,1,0,0:0:0:0:
241,260,36015,2,0,P|188:257|149:228,1,85,2|0,0:0|0:0,0:0:0:0:
93,132,36352,1,2,0:0:0:0:
100,292,36521,1,8,0:0:0:0:
186,157,36689,102,0,P|181:94|96:35,1,170,2|2,0:0|0:0,0:0:0:0:
120,228,37195,2,0,P|155:250|197:253,1,85,0|2,0:0|0:0,0:0:0:0:
93,132,37532,2,0,P|48:158|27:202,1,85,0|2,0:0|0:0,0:0:0:0:
54,310,37869,1,0,0:0:0:0:
198,254,38038,2,0,P|280:238|370:265,1,170,2|2,0:0|0:0,0:0:0:0:
435,364,38543,2,0,L|453:271,1,85,8|2,0:3|0:0,0:0:0:0:
414,157,38880,1,2,0:0:0:0:
298,118,39049,2,0,P|284:60|291:24,1,85,2|0,0:0|0:0,0:0:0:0:
414,157,39386,6,0,B|377:222|315:239|315:239|352:272,1,170,2|2,0:0|0:0,0:0:0:0:
257,186,39892,2,0,P|213:154|176:136,1,85,0|2,0:0|0:0,0:0:0:0:
89,288,40229,1,0,0:0:0:0:
127,204,40397,2,0,P|72:198|31:217,1,85,2|0,0:0|0:0,0:0:0:0:
148,352,40734,2,0,B|199:356|199:356|248:300|317:304,1,170,2|2,0:0|0:0,0:0:0:0:
474,272,41240,1,8,0:0:0:0:
425,357,41408,1,2,0:0:0:0:
338,193,41577,1,4,0:3:0:0:
387,278,41745,1,4,0:3:0:0:
475,113,41914,1,4,0:3:0:0:
426,198,42083,102,0,P|397:173|377:122,1,85,2|0,0:0|0:0,0:0:0:0:
387,278,42420,2,0,P|362:307|311:327,1,85,2|0,0:0|0:0,0:0:0:0:
160,240,42757,2,0,P|197:247|240:281,1,85,2|0,0:0|0:0,0:0:0:0:
44,296,43094,2,0,P|31:259|39:205,1,85,2|0,0:0|0:0,0:0:0:0:
64,105,43431,1,2,0:0:0:0:
235,127,43599,1,8,0:0:0:0:
235,127,43936,1,2,0:0:0:0:
235,127,44105,1,8,0:0:0:0:
235,127,44442,1,2,0:0:0:0:
235,127,44779,6,0,P|227:204|229:255,1,127.500004863739,2|0,0:0|0:0,0:0:0:0:
306,227,45285,2,0,P|307:191|310:158,1,63.7500024318696,2|8,0:0|0:0,0:0:0:0:
173,168,45622,2,0,P|170:199|169:231,1,63.7500024318696,2|0,0:0|0:0,0:0:0:0:
169,231,45959,1,2,0:0:0:0:
169,231,46296,6,0,P|172:174|182:98,1,127.500004863739,8|2,0:0|0:0,0:0:0:0:
181,104,46802,1,8,0:0:0:0:
181,104,47139,1,0,0:0:0:0:
181,104,47476,6,0,P|104:112|53:110,1,127.500004863739,2|0,0:0|0:0,0:0:0:0:
83,36,47981,2,0,P|119:35|152:32,1,63.7500024318696,2|8,0:0|0:0,0:0:0:0:
159,191,48318,2,0,P|127:194|95:195,1,63.7500024318696,2|0,0:0|0:0,0:0:0:0:
95,195,48656,1,2,0:0:0:0:
95,195,48993,6,0,P|152:192|228:182,1,127.500004863739,8|0,0:0|0:0,0:0:0:0:
296,219,49498,1,8,0:0:0:0:
323,231,49611,1,0,0:0:0:0:
352,235,49723,1,0,0:0:0:0:
381,229,49836,1,8,0:0:0:0:
407,215,49948,1,0,0:0:0:0:
428,194,50060,1,0,0:0:0:0:
444,168,50172,102,0,P|446:121|422:74,1,85,2|0,0:0|0:0,0:0:0:0:
352,140,50509,1,8,0:0:0:0:
381,229,50678,2,0,P|418:252|472:249,1,85,0|2,0:0|0:0,0:0:0:0:
352,140,51015,2,0,P|315:161|294:197,2,85,2|8|0,0:0|0:0|0:0,0:0:0:0:
344,284,51521,2,0,P|256:289|197:222,2,170,2|8|2,0:0|0:0|0:0,0:0:0:0:
352,140,52363,1,2,0:0:0:0:
201,234,52532,2,0,L|179:316,1,85,8|0,0:0|0:0,0:0:0:0:
294,197,52869,6,0,P|271:158|221:137,1,85,2|0,0:0|0:0,0:0:0:0:
76,77,53206,2,0,P|99:116|149:137,1,85,8|0,0:0|0:0,0:0:0:0:
267,109,53543,1,2,0:0:0:0:
169,265,53712,1,2,0:0:0:0:
353,297,53880,1,8,0:0:0:0:
250,212,54049,1,0,0:0:0:0:
260,377,54217,2,0,L|349:385,1,85,2|0,0:0|0:0,0:0:0:0:
449,323,54554,1,8,0:0:0:0:
312,220,54723,1,0,0:0:0:0:
459,226,54892,2,0,L|467:137,1,85,2|2,0:0|0:0,0:0:0:0:
312,220,55229,2,0,L|304:304,1,85,8|0,0:0|0:0,0:0:0:0:
191,310,55566,21,4,0:0:0:0:
78,218,55734,1,2,0:0:0:0:
165,289,56071,5,2,0:0:0:0:
80,171,56240,1,8,0:0:0:0:
80,171,56408,1,2,0:0:0:0:
146,263,56745,5,2,0:0:0:0:
94,127,56914,1,2,0:0:0:0:
94,127,57083,1,8,0:0:0:0:
134,233,57420,5,2,0:0:0:0:
119,88,57588,1,8,0:0:0:0:
119,88,57757,1,2,0:0:0:0:
131,201,58094,5,2,0:0:0:0:
154,57,58262,1,2,0:0:0:0:
154,57,58431,1,8,0:0:0:0:
136,169,58768,5,2,0:0:0:0:
195,36,58936,1,8,0:0:0:0:
195,36,59105,1,2,0:0:0:0:
256,192,59274,5,8,0:3:0:0:
149,139,59442,1,4,0:3:0:0:
240,26,59611,1,8,0:0:0:0:
350,146,59779,1,8,0:0:0:0:
350,146,60285,5,2,0:0:0:0:
422,169,60453,1,2,0:0:0:0:
422,246,60622,1,2,0:0:0:0:
350,269,60790,1,2,0:0:0:0:
305,207,60959,1,2,0:0:0:0:
233,230,61127,1,2,0:0:0:0:
233,307,61296,1,2,0:0:0:0:
305,330,61465,1,2,0:0:0:0:
350,269,61633,5,8,0:3:0:0:
372,243,61745,1,0,0:0:0:0:
381,210,61858,1,0,0:0:0:0:
375,176,61970,1,0,0:0:0:0:
355,148,62083,1,0,0:0:0:0:
324,132,62195,1,0,0:0:0:0:
290,131,62307,22,0,L|201:153,1,85,4|0,0:0|0:0,0:0:0:0:
96,96,62644,1,8,0:0:0:0:
216,24,62813,2,0,P|232:64|236:116,1,85,0|2,0:0|0:0,0:0:0:0:
180,320,63150,2,0,P|164:280|160:228,1,85,0|8,0:0|0:0,0:0:0:0:
312,248,63487,1,0,0:0:0:0:
312,248,63656,2,0,P|389:271|450:217,1,170,2|8,0:0|0:0,0:0:0:0:
312,248,64161,2,0,L|300:336,1,85,2|0,0:0|0:0,0:0:0:0:
450,217,64498,2,0,L|415:135,1,85,2|8,0:0|0:0,0:0:0:0:
250,112,64835,1,0,0:0:0:0:
119,175,65004,6,0,P|103:215|99:267,1,85,2|0,0:0|0:0,0:0:0:0:
243,252,65341,1,8,0:0:0:0:
374,189,65509,2,0,P|390:149|394:97,1,85,0|2,0:0|0:0,0:0:0:0:
243,252,65847,2,0,P|249:294|271:341,1,85,2|8,0:0|0:0,0:0:0:0:
347,264,66184,1,0,0:0:0:0:
286,182,66352,2,0,P|204:179|160:247,1,170,2|8,0:0|0:0,0:0:0:0:
347,264,66858,2,0,P|372:229|390:180,1,85,2|0,0:0|0:0,0:0:0:0:
317,78,67195,1,2,0:0:0:0:
174,211,67363,1,8,0:0:0:0:
286,182,67532,1,0,0:0:0:0:
144,60,67701,6,0,L|98:147,1,85,2|0,0:0|0:0,0:0:0:0:
392,116,68038,2,0,L|317:78,1,85,8|0,0:0|0:0,0:0:0:0:
112,60,68375,2,0,L|66:147,1,85,2|0,0:0|0:0,0:0:0:0:
360,116,68712,2,0,L|284:77,1,85,8|0,0:0|0:0,0:0:0:0:
134,203,69049,2,0,B|172:267|244:252|244:252|229:291,1,170,2|8,0:0|0:0,0:0:0:0:
220,160,69554,2,0,P|240:120|276:92,1,85,0|2,0:0|0:0,0:0:0:0:
384,224,69892,1,2,0:0:0:0:
284,236,70060,1,8,0:0:0:0:
360,116,70229,1,2,0:0:0:0:
327,311,70397,6,0,P|286:324|245:314,1,85,12|0,0:0|0:0,0:0:0:0:
433,71,70734,2,0,P|444:123|429:163,1,85,8|2,0:0|0:0,0:0:0:0:
143,113,71071,2,0,P|182:76|224:70,1,85,4|0,0:3|0:0,0:0:0:0:
246,315,71408,2,0,P|167:320|95:260,1,170,12|2,0:0|0:0,0:0:0:0:
143,113,71914,1,2,0:0:0:0:
204,194,72083,1,2,0:0:0:0:
285,133,72251,1,2,0:0:0:0:
224,52,72420,5,8,0:0:0:0:
191,24,72504,1,2,0:0:0:0:
151,12,72588,1,2,0:0:0:0:
109,18,72672,1,2,0:0:0:0:
73,40,72757,1,8,0:0:0:0:
50,75,72841,1,2,0:0:0:0:
43,117,72925,1,8,0:0:0:0:
54,158,73009,1,2,0:0:0:0:
80,192,73094,6,0,P|121:212|167:211,1,85,4|0,0:0|0:0,0:0:0:0:
285,133,73431,1,8,0:0:0:0:
204,194,73599,2,0,L|182:275,1,85,0|2,0:0|0:0,0:0:0:0:
362,199,73936,2,0,L|383:117,1,85,2|8,0:0|0:0,0:0:0:0:
286,266,74274,1,0,0:0:0:0:
286,266,74442,2,0,P|350:300|437:267,1,170,2|8,0:0|0:0,0:0:0:0:
286,266,74948,2,0,L|265:348,1,85,2|0,0:0|0:0,0:0:0:0:
362,199,75285,2,0,L|383:117,1,85,2|8,0:0|0:0,0:0:0:0:
256,184,75622,1,0,0:0:0:0:
256,184,75790,6,0,P|192:218|105:185,1,170,2|8,0:0|0:0,0:0:0:0:
223,100,76296,2,0,P|270:95|315:116,1,85,0|2,0:0|0:0,0:0:0:0:
319,340,76633,2,0,P|293:307|286:266,1,85,2|8,0:0|0:0,0:0:0:0:
362,199,76970,1,0,0:0:0:0:
382,298,77139,1,2,0:0:0:0:
286,265,77307,1,0,0:0:0:0:
346,107,77476,1,8,0:0:0:0:
453,237,77644,1,2,0:0:0:0:
286,266,77813,2,0,L|193:258,1,85,0|2,0:0|0:0,0:0:0:0:
346,107,78150,2,0,L|439:115,1,85,8|0,0:0|0:0,0:0:0:0:
207,171,78487,6,0,L|122:163,1,85,4|0,0:0|0:0,0:0:0:0:
35,257,78824,1,8,0:0:0:0:
159,333,78993,1,0,0:0:0:0:
286,266,79161,2,0,P|299:226|294:184,1,85,2|2,0:0|0:0,0:0:0:0:
137,76,79498,2,0,P|123:115|128:157,1,85,8|0,0:0|0:0,0:0:0:0:
305,267,79835,2,0,P|318:227|313:185,1,85,2|0,0:0|0:0,0:0:0:0:
156,77,80172,2,0,P|142:116|147:158,1,85,8|0,0:0|0:0,0:0:0:0:
324,268,80509,1,2,0:0:0:0:
394,109,80678,1,2,0:0:0:0:
238,193,80847,1,8,0:0:0:0:
390,201,81015,1,0,0:0:0:0:
281,98,81184,5,2,0:0:0:0:
237,289,81352,1,0,0:0:0:0:
133,153,81521,1,12,0:0:0:0:
271,171,81689,1,0,0:0:0:0:
143,248,81858,2,0,L|130:334,1,85,2|2,0:0|0:0,0:0:0:0:
238,193,82195,2,0,L|250:108,1,85,12|0,0:0|0:0,0:0:0:0:
237,289,82532,1,2,0:0:0:0:
237,289,82701,1,2,0:0:0:0:
394,256,83206,5,0,0:0:0:0:
394,256,83543,2,0,P|404:206|392:159,1,85,4|2,0:0|0:0,0:0:0:0:
121,213,85229,6,0,P|111:263|123:310,1,85,2|0,0:0|0:0,0:0:0:0:
291,343,86577,6,0,P|300:301|295:260,1,85,8|2,0:0|0:0,0:0:0:0:
295,260,87083,1,4,0:3:0:0:
168,99,87420,6,0,P|141:132|129:172,2,85,0|8|0,0:0|0:0|0:0,0:0:0:0:
232,180,87925,2,0,P|215:229|107:273,1,170,4|8,0:0|0:0,0:0:0:0:
168,99,88431,2,0,P|214:76|322:121,1,170,6|2,0:0|0:0,0:0:0:0:
318,116,88936,1,8,0:0:0:0:
256,192,89274,12,4,91970,0:0:0:0:
121,248,92644,6,0,P|101:207|96:157,1,85,8|0,0:0|0:0,0:0:0:0:
289,159,92981,2,0,P|309:200|314:250,1,85,2|0,0:0|0:0,0:0:0:0:
209,122,93318,1,0,0:0:0:0:
207,318,93487,1,0,0:0:0:0:
370,185,93656,1,0,0:0:0:0:
259,222,93824,1,0,0:0:0:0:
416,303,93993,1,2,0:0:0:0:
462,146,94161,1,2,0:0:0:0:
316,76,94330,6,0,P|310:120|316:162,1,85,2|2,0:0|0:0,0:0:0:0:
388,224,94667,2,0,P|306:190|222:227,1,170,4|8,0:0|0:0,0:0:0:0:
307,306,95172,1,0,0:0:0:0:
352,88,95341,2,0,P|324:44|280:24,1,85,8|0,0:0|0:0,0:0:0:0:
206,119,95678,1,8,0:0:0:0:
360,184,95847,2,0,P|410:169|441:132,1,85,0|10,0:0|0:0,0:0:0:0:
206,119,96184,2,0,P|171:158|163:206,1,85,0|8,0:0|0:0,0:0:0:0:
336,188,96521,1,2,0:0:0:0:
216,132,96689,2,0,P|181:171|173:219,1,85,8|0,0:0|0:0,0:0:0:0:
204,324,97026,1,8,0:0:0:0:
320,372,97195,1,0,0:0:0:0:
424,268,97363,6,0,P|453:194|421:104,1,170,2|8,0:0|0:0,0:0:0:0:
226,145,97869,2,0,P|191:184|183:232,1,85,0|8,0:0|0:0,0:0:0:0:
328,132,98206,2,0,P|311:82|274:51,1,85,0|8,0:0|0:0,0:0:0:0:
288,232,98543,1,0,0:0:0:0:
134,289,98712,2,0,P|107:210|136:132,1,170,2|8,0:0|0:0,0:0:0:0:
288,232,99217,2,0,P|339:221|384:238,1,85,2|8,0:0|0:0,0:0:0:0:
236,324,99554,1,2,0:0:0:0:
182,214,99723,2,0,P|196:174|226:145,1,85,8|0,0:0|0:0,0:0:0:0:
402,238,100060,6,0,B|395:310|328:340|328:340|353:368,1,170,2|8,0:0|0:0,0:0:0:0:
288,232,100566,1,0,0:0:0:0:
288,232,100734,2,0,P|256:188|224:156,1,85,8|0,0:0|0:0,0:0:0:0:
40,160,101071,2,0,P|72:204|104:236,1,85,8|0,0:0|0:0,0:0:0:0:
313,80,101408,2,0,P|229:52|149:83,1,170,2|8,0:0|0:0,0:0:0:0:
208,307,101914,2,0,P|292:335|372:304,1,170,2|0,0:0|0:0,0:0:0:0:
177,216,102420,2,0,P|140:236|116:271,1,85,8|0,0:0|0:0,0:0:0:0:
288,232,102757,6,0,P|296:155|294:104,1,127.500004863739
365,184,103262,2,0,P|361:225|356:257,1,63.7500024318696,2|0,0:0|0:0,0:0:0:0:
226,159,103599,2,0,P|226:128|223:96,1,63.75,2|0,0:0|0:0,0:0:0:0:
217,67,103936,6,0,P|164:59|111:59,1,106.25,0|2,0:0|0:0,0:0:0:0:
140,248,105116,5,0,0:0:0:0:
216,328,105285,1,2,0:0:0:0:
216,328,105369,1,2,0:0:0:0:
216,327,105453,2,0,B|263:337|300:322|300:322|328:281|380:266,1,170,4|2,0:0|0:0,0:0:0:0:
394,372,105959,1,0,0:0:0:0:
313,262,106127,2,0,P|311:216|322:171,1,85,2|0,0:0|0:0,0:0:0:0:
400,97,106465,1,2,0:0:0:0:
235,192,106633,2,0,P|189:194|144:183,1,85,0|2,0:0|0:0,0:0:0:0:
400,97,106970,2,0,P|446:95|491:106,1,85,0|2,0:0|0:0,0:0:0:0:
419,280,107307,2,0,B|406:310|406:310|351:255|280:264,1,170
98,364,107813,2,0,P|139:372|181:370,1,85,2|0,0:0|0:0,0:0:0:0:
235,192,108150,6,0,P|218:143|110:99,1,170,2|2,0:0|0:0,0:0:0:0:
186,279,108656,2,0,P|225:293|266:286,1,85,0|2,0:0|0:0,0:0:0:0:
134,199,108993,2,0,P|103:228|92:268,1,85,0|2,0:0|0:0,0:0:0:0:
235,192,109330,1,0,0:0:0:0:
161,100,109498,2,0,B|89:120|33:88|33:88|13:120,1,170,2|2,0:0|0:0,0:0:0:0:
224,45,110004,2,0,B|296:25|352:57|352:57|372:25,1,170,0|0,0:0|0:0,0:0:0:0:
282,148,110509,2,0,P|270:188|281:228,1,85,2|8,0:0|0:0,0:0:0:0:
400,323,110847,6,0,P|361:250|282:229,1,170,2|2,0:0|0:0,0:0:0:0:
400,323,111352,2,0,L|497:344,1,85,0|2,0:0|0:0,0:0:0:0:
461,173,111689,2,0,L|364:152,1,85,0|2,0:0|0:0,0:0:0:0:
230,193,112026,1,0,0:0:0:0:
299,331,112195,2,0,B|363:304|383:228|383:228|409:248,1,170,2|2,0:0|0:0,0:0:0:0:
414,370,112701,1,0,0:0:0:0:
299,331,112869,1,2,0:0:0:0:
461,173,113038,1,0,0:0:0:0:
389,270,113206,1,2,0:0:0:0:
230,193,113375,1,0,0:0:0:0:
329,64,113543,6,0,P|377:59|429:73,1,85,2|0,0:0|0:0,0:0:0:0:
230,193,113880,2,0,P|182:198|130:184,1,85,2|0,0:0|0:0,0:0:0:0:
370,208,114217,1,2,0:0:0:0:
489,277,114386,1,0,0:0:0:0:
366,346,114554,1,2,0:0:0:0:
245,274,114723,1,0,0:0:0:0:
317,153,114892,1,2,0:0:0:0:
438,225,115060,1,8,0:0:0:0:
366,346,115229,1,0,0:0:0:0:
370,208,115397,1,2,0:0:0:0:
370,208,115566,2,0,L|405:286,1,85,8|0,0:0|0:0,0:0:0:0:
230,193,115903,2,0,L|192:107,1,85,8|0,0:0|0:0,0:0:0:0:
311,77,116240,6,0,P|308:137|317:213,1,127.500004863739,6|0,0:0|0:0,0:0:0:0:
356,326,116745,2,0,P|393:331|433:332,1,63.7500024318696,2|8,0:0|0:0,0:0:0:0:
324,235,117083,2,0,P|289:249|254:268,1,63.7500024318696,2|0,0:0|0:0,0:0:0:0:
169,322,117420,1,2,0:0:0:0:
169,322,117757,6,0,P|166:262|175:186,1,127.500004863739,8|2,0:0|0:0,0:0:0:0:
214,73,118262,2,0,P|251:68|291:67,1,63.7500024318696,8|2,0:0|0:0,0:0:0:0:
182,164,118599,2,0,P|147:149|112:130,1,63.7500024318696
279,154,118936,6,0,P|339:151|415:160,1,127.500004863739,2|0,0:0|0:0,0:0:0:0:
315,323,119442,2,0,P|283:343|247:360,1,63.7500024318696,2|8,0:0|0:0,0:0:0:0:
305,225,119779,2,0,P|343:223|382:226,1,63.7500024318696,2|0,0:0|0:0,0:0:0:0:
213,219,120116,2,0,P|196:192|182:164,1,63.7500024318696,4|0,0:0|0:0,0:0:0:0:
338,53,120453,5,8,0:0:0:0:
338,53,120538,1,8,0:0:0:0:
338,53,120622,2,0,L|300:120,1,63.7500024318696,8|8,0:0|0:3,0:0:0:0:
214,219,120959,1,4,0:3:0:0:
315,323,121127,1,2,0:0:0:0:
305,225,121296,1,8,0:0:0:0:
298,184,121380,1,2,0:0:0:0:
273,149,121465,1,2,0:0:0:0:
236,130,121549,1,2,0:0:0:0:
194,129,121633,6,0,P|152:150|129:188,1,85,4|0,0:0|0:0,0:0:0:0:
192,300,121970,1,8,0:0:0:0:
305,225,122139,2,0,B|377:198|441:235|441:235|466:212,1,170,0|2,0:0|0:0,0:0:0:0:
382,109,122644,2,0,P|374:153|386:203,1,85,8|0,0:0|0:0,0:0:0:0:
445,32,122981,2,0,P|404:12|353:11,1,85,2|0,0:0|0:0,0:0:0:0:
220,22,123318,1,8,0:0:0:0:
102,107,123487,1,0,0:0:0:0:
169,235,123656,2,0,B|241:262|305:225|305:225|330:248,1,170,2|8,0:0|0:0,0:0:0:0:
326,244,124161,1,0,0:0:0:0:
230,106,124330,6,0,L|220:22,1,85,4|0,0:0|0:0,0:0:0:0:
359,166,124667,2,0,L|326:244,1,85,8|0,0:0|0:0,0:0:0:0:
152,381,125004,1,2,0:0:0:0:
169,235,125172,1,2,0:0:0:0:
250,271,125341,1,8,0:0:0:0:
242,362,125509,1,2,0:0:0:0:
106,301,125678,2,0,P|79:251|132:151,1,170,2|8,0:0|0:0,0:0:0:0:
333,231,126184,2,0,P|341:275|329:325,1,85,0|2,0:0|0:0,0:0:0:0:
226,147,126521,2,0,P|218:103|230:53,2,85,2|8|0,0:0|0:0|0:0,0:0:0:0:
333,231,127026,21,4,0:0:0:0:
438,107,127195,1,2,0:0:0:0:
438,293,127532,5,2,0:0:0:0:
340,209,127701,1,8,0:0:0:0:
409,62,127869,1,2,0:0:0:0:
457,242,128206,5,2,0:0:0:0:
342,187,128375,1,8,0:0:0:0:
371,27,128543,1,2,0:0:0:0:
464,188,128880,5,2,0:0:0:0:
338,165,129049,1,8,0:0:0:0:
324,3,129217,1,2,0:0:0:0:
445,45,129386,1,4,0:0:0:0:
232,136,129554,1,2,0:0:0:0:
360,138,129723,5,4,0:0:0:0:
401,294,129892,1,2,0:0:0:0:
232,136,130229,1,2,0:0:0:0:
370,166,130397,5,8,0:0:0:0:
351,213,130509,1,8,0:0:0:0:
317,251,130622,1,8,0:0:0:0:
272,274,130734,1,8,0:3:0:0:
221,279,130847,1,4,0:3:0:0:
171,266,130959,1,4,0:3:0:0:
130,235,131071,5,8,0:0:0:0:
130,235,131240,1,8,0:0:0:0:
168,162,133094,5,8,0:3:0:0:
177,129,133206,1,0,0:0:0:0:
203,104,133319,1,0,0:0:0:0:
234,91,133431,1,0,0:0:0:0:
270,98,133544,1,0,0:0:0:0:
298,118,133656,1,0,0:0:0:0:
313,148,133768,6,0,P|312:208|228:284,1,170,4|8,0:0|0:0,0:0:0:0:
129,126,134274,2,0,P|165:158|179:204,1,85,2|0,0:0|0:0,0:0:0:0:
34,128,134611,2,0,P|43:80|76:45,1,85,2|8,0:0|0:0,0:0:0:0:
221,56,134948,1,0,0:0:0:0:
221,56,135116,2,0,P|259:98|373:101,1,170,2|8,0:0|0:0,0:0:0:0:
274,143,135622,2,0,P|268:184|283:224,1,85,2|0,0:0|0:0,0:0:0:0:
454,135,135959,2,0,P|459:93|444:53,1,85,2|8,0:0|0:0,0:0:0:0:
317,13,136296,1,0,0:0:0:0:
317,13,136465,6,0,B|262:56|273:124|273:124|224:112,1,170,2|8,0:0|0:0,0:0:0:0:
378,102,136970,2,0,P|420:109|454:135,1,85,2|0,0:0|0:0,0:0:0:0:
344,256,137307,2,0,P|302:248|268:223,1,85,2|8,0:0|0:0,0:0:0:0:
452,252,137644,1,0,0:0:0:0:
452,252,137813,2,0,P|440:307|342:366,1,170,2|8,0:0|0:0,0:0:0:0:
180,269,138318,2,0,P|167:228|175:187,1,85,2|0,0:0|0:0,0:0:0:0:
267,43,138656,1,2,0:0:0:0:
267,43,138824,2,0,L|345:76,1,85,8|0,0:0|0:0,0:0:0:0:
180,269,139161,6,0,L|103:304,1,85,2|0,0:0|0:0,0:0:0:0:
43,47,139498,2,0,L|121:80,1,85,8|0,0:0|0:0,0:0:0:0:
180,279,139835,2,0,L|103:314,1,85,2|0,0:0|0:0,0:0:0:0:
43,57,140172,2,0,L|121:90,1,85,8|0,0:0|0:0,0:0:0:0:
249,190,140509,2,0,P|292:121|267:43,1,170,2|8,0:0|0:0,0:0:0:0:
134,211,141015,2,0,P|148:250|180:279,1,85,0|2,0:0|0:0,0:0:0:0:
354,238,141352,1,2,0:0:0:0:
249,352,141521,1,8,0:0:0:0:
249,190,141689,1,0,0:0:0:0:
316,300,141858,6,0,L|361:376,1,85,12|0,0:0|0:0,0:0:0:0:
351,182,142195,2,0,L|396:258,1,85,8|2,0:0|0:0,0:0:0:0:
386,64,142532,2,0,L|431:140,1,85,8|0,0:0|0:0,0:0:0:0:
316,300,142869,2,0,P|234:302|179:242,1,170,12|2,0:0|0:0,0:0:0:0:
450,222,143375,1,2,0:0:0:0:
271,222,143543,1,8,0:0:0:0:
405,300,143712,1,2,0:0:0:0:
316,144,143880,1,8,0:0:0:0:
316,300,144049,1,2,0:0:0:0:
405,144,144217,1,8,0:0:0:0:
400,112,144302,1,8,0:0:0:0:
384,85,144386,1,8,0:0:0:0:
360,64,144470,1,0,0:0:0:0:
330,54,144554,6,0,P|280:60|248:84,1,85,4|0,0:0|0:0,0:0:0:0:
224,225,144892,1,8,0:0:0:0:
230,123,145060,2,0,L|158:71,1,85,2|0,0:0|0:0,0:0:0:0:
139,278,145397,2,0,L|207:327,1,85,2|8,0:0|0:0,0:0:0:0:
137,181,145734,1,0,0:0:0:0:
137,181,145903,2,0,P|63:217|44:297,1,170,2|8,0:0|0:0,0:0:0:0:
137,181,146408,2,0,L|68:131,1,85,2|0,0:0|0:0,0:0:0:0:
130,362,146745,2,0,L|208:328,1,85,2|8,0:0|0:0,0:0:0:0:
324,180,147083,1,0,0:0:0:0:
324,180,147251,6,0,P|360:254|440:273,1,170,2|8,0:0|0:0,0:0:0:0:
332,80,147757,2,0,P|290:83|254:106,1,85,2|0,0:0|0:0,0:0:0:0:
172,272,148094,2,0,P|213:268|249:245,1,85,2|8,0:0|0:0,0:0:0:0:
88,224,148431,1,0,0:0:0:0:
88,224,148599,2,0,P|82:306|141:362,1,170,2|8,0:0|0:0,0:0:0:0:
312,348,149105,1,2,0:0:0:0:
404,212,149274,2,0,L|344:144,1,85,0|2,0:0|0:0,0:0:0:0:
160,152,149611,2,0,L|216:215,1,85,8|0,0:0|0:0,0:0:0:0:
195,63,149948,6,0,P|154:55|113:68,1,85,4|0,0:0|0:0,0:0:0:0:
88,224,150285,1,8,0:0:0:0:
184,320,150453,1,0,0:0:0:0:
313,288,150622,2,0,L|341:202,1,85,2|2,0:0|0:0,0:0:0:0:
242,46,150959,2,0,L|214:126,1,85,8|0,0:0|0:0,0:0:0:0:
328,308,151296,2,0,L|356:222,1,85,2|0,0:0|0:0,0:0:0:0:
257,66,151633,2,0,L|229:146,1,85,8|0,0:0|0:0,0:0:0:0:
343,328,151970,1,2,0:0:0:0:
461,211,152139,1,2,0:0:0:0:
260,239,152307,1,8,0:0:0:0:
422,282,152476,1,0,0:0:0:0:
317,151,152644,5,6,0:0:0:0:
226,298,152813,1,0,0:0:0:0:
198,148,152981,1,8,0:0:0:0:
320,225,153150,1,0,0:0:0:0:
170,222,153318,2,0,L|108:292,1,85,2|2,0:0|0:0,0:0:0:0:
320,225,153656,2,0,L|382:155,1,85,8|0,0:0|0:0,0:0:0:0:
234,340,153993,1,2,0:0:0:0:
234,340,154161,1,0,0:0:0:0:
152,250,154330,1,8,0:0:0:0:
152,250,154498,1,0,0:0:0:0:
241,140,154667,2,0,P|288:112|324:106,1,85,2|0,0:0|0:0,0:0:0:0:
234,340,155004,2,0,P|179:340|145:327,1,85,8|0,0:0|0:0,0:0:0:0:
320,225,155341,6,0,B|392:245|448:213|448:213|468:245,1,170,4|2,0:0|0:0,0:0:0:0:
363,357,155847,1,0,0:0:0:0:
221,252,156015,2,0,P|220:197|233:163,1,85,2|2,0:0|0:0,0:0:0:0:
385,43,156352,2,0,P|388:85|377:126,1,85,8|0,0:0|0:0,0:0:0:0:
265,337,156689,6,0,P|182:339|128:277,1,170,4|8,0:0|0:0,0:0:0:0:
270,184,157195,2,0,P|251:222|221:252,1,85,2|0,0:0|0:0,0:0:0:0:
237,85,157532,2,0,P|279:82|319:93,1,85,2|8,0:0|0:0,0:0:0:0:
453,154,157869,1,0,0:0:0:0:
453,154,158038,6,0,B|433:226|465:282|465:282|433:302,1,170,4|8,0:0|0:0,0:0:0:0:
319,331,158543,1,8,0:0:0:0:
212,168,158712,1,8,0:0:0:0:
116,210,158880,1,8,0:0:0:0:
228,333,159049,1,8,0:0:0:0:
278,245,159217,1,8,0:0:0:0:
126,313,159386,6,0,P|69:301|26:258,1,85,4|0,0:0|0:0,0:0:0:0:
212,168,159723,1,8,0:0:0:0:
104,328,159892,2,0,P|47:316|4:273,1,85,4|0,0:0|0:0,0:0:0:0:
112,145,160229,1,2,0:0:0:0:
228,333,160397,1,8,0:0:0:0:
104,328,160566,1,0,0:0:0:0:
256,192,160734,5,4,0:0:0:0:
256,192,160818,12,0,162083,0:0:0:0:
340,98,170847,53,2,0:0:0:0:
340,98,171184,1,0,0:0:0:0:
354,106,171268,1,0,0:0:0:0:
365,118,171352,1,0,0:0:0:0:
374,132,171436,1,0,0:0:0:0:
379,147,171521,5,4,0:0:0:0:
178,293,171858,1,8,0:0:0:0:
255,58,172195,1,8,0:0:0:0:
331,293,172532,1,8,0:0:0:0:
131,147,172869,1,8,0:0:0:0:
337,233,173206,2,0,L|417:188,1,85,8|0,0:0|0:0,0:0:0:0:
274,89,173543,2,0,L|194:134,1,85,8|8,0:0|0:0,0:0:0:0:
121,254,173880,1,2,0:0:0:0:
244,260,174049,1,0,0:0:0:0:
94,160,174217,6,0,P|32:215|34:297,1,170,4|8,0:0|0:0,0:0:0:0:
191,181,174723,2,0,P|173:100|101:60,1,170,0|0,0:0|0:0,0:0:0:0:
101,60,175229,1,8,0:0:0:0:
243,318,175566,1,4,0:0:0:0:
309,169,175734,1,0,0:0:0:0:
194,237,175903,1,8,0:0:0:0:
370,261,176071,1,0,0:0:0:0:
309,169,176240,2,0,L|224:127,1,85,8|8,0:0|0:3,0:0:0:0:
243,318,176577,2,0,L|328:360,1,85,4|0,0:3|0:0,0:0:0:0:
256,192,176914,12,2,178220,0:0:0:0:
360,263,178936,5,0,0:0:0:0:
360,263,179049,1,0,0:0:0:0:
360,263,179161,1,0,0:0:0:0:
360,263,179274,1,0,0:0:0:0:
360,263,179386,1,0,0:0:0:0:
360,263,179498,1,0,0:0:0:0:
360,263,179611,6,0,B|309:288|248:256|248:256|218:264|212:292,1,170,4|8,0:0|0:0,0:0:0:0:
270,366,180116,1,0,0:0:0:0:
310,170,180285,2,0,P|314:122|311:84,1,85,2|2,0:0|0:0,0:0:0:0:
153,98,180622,2,0,P|149:146|152:184,1,85,8|0,0:0|0:0,0:0:0:0:
157,216,180875,1,0,0:0:0:0:
174,244,180959,2,0,B|246:264|302:232|302:232|322:264,1,170,2|8,0:0|0:0,0:0:0:0:
174,244,181465,2,0,P|152:206|135:158,1,85,0|2,0:0|0:0,0:0:0:0:
250,47,181802,1,0,0:0:0:0:
297,216,181970,1,8,0:0:0:0:
185,138,182139,1,0,0:0:0:0:
377,139,182307,6,0,P|407:202|373:299,1,170,2|8,0:0|0:0,0:0:0:0:
292,133,182813,2,0,L|377:139,1,85,0|2,0:0|0:0,0:0:0:0:
201,256,183150,1,2,0:0:0:0:
297,216,183318,1,8,0:0:0:0:
286,356,183487,1,0,0:0:0:0:
109,316,183656,2,0,P|95:272|94:225,1,85,2|0,0:0|0:0,0:0:0:0:
126,81,183993,1,8,0:0:0:0:
201,256,184161,1,0,0:0:0:0:
201,256,184498,1,2,0:0:0:0:
328,308,184667,1,0,0:0:0:0:
362,306,184751,1,0,0:0:0:0:
392,291,184835,1,0,0:0:0:0:
415,265,184920,1,0,0:0:0:0:
426,233,185004,6,0,P|420:185|392:149,1,85,2|0,0:0|0:0,0:0:0:0:
221,68,185341,2,0,P|227:116|255:152,1,85,8|0,0:0|0:0,0:0:0:0:
340,221,185678,1,2,0:0:0:0:
307,80,185847,1,2,0:0:0:0:
201,179,186015,1,8,0:0:0:0:
328,308,186184,1,0,0:0:0:0:
362,306,186268,1,0,0:0:0:0:
392,291,186352,2,0,P|421:252|427:207,1,85,2|0,0:0|0:0,0:0:0:0:
307,80,186689,1,8,0:0:0:0:
236,272,186858,1,0,0:0:0:0:
236,272,187195,1,2,0:0:0:0:
104,216,187363,1,8,0:0:0:0:
201,179,187532,1,0,0:0:0:0:
132,308,187701,6,0,P|62:302|8:216,1,170,2|8,0:0|0:0,0:0:0:0:
60,100,188206,1,0,0:0:0:0:
211,278,188375,2,0,L|132:308,1,85,2|2,0:0|0:0,0:0:0:0:
60,100,188712,2,0,L|114:166,1,85,8|0,0:0|0:0,0:0:0:0:
298,241,189049,2,0,P|273:207|236:188,1,85,4|0,0:0|0:0,0:0:0:0:
408,364,189386,2,0,P|449:359|485:336,1,85,12|0,0:0|0:0,0:0:0:0:
436,200,189723,1,12,0:0:0:0:
328,320,189892,1,0,0:0:0:0:
236,188,190060,1,8,0:0:0:0:
230,157,190144,1,8,0:0:0:0:
239,126,190229,1,8,0:0:0:0:
261,104,190313,1,8,0:0:0:0:
292,96,190397,6,0,L|384:104,1,85,4|0,0:0|0:0,0:0:0:0:
436,200,190734,1,8,0:0:0:0:
328,320,190903,2,0,B|268:360|200:328|200:328|176:276,1,170,0|2,0:0|0:0,0:0:0:0:
201,98,191408,2,0,L|239:177,1,85,8|8,0:0|0:0,0:0:0:0:
254,204,191661,1,8,0:0:0:0:
281,224,191745,2,0,B|351:241|404:187|404:187|406:152,1,170,2|8,0:0|0:0,0:0:0:0:
323,34,192251,2,0,L|317:119,1,85,2|8,0:0|0:0,0:0:0:0:
434,268,192588,1,2,0:0:0:0:
485,172,192757,2,0,L|491:87,1,85,8|0,0:0|0:0,0:0:0:0:
334,262,193094,6,0,P|339:303|362:339,1,85,2|0,0:0|0:0,0:0:0:0:
434,268,193431,1,8,0:0:0:0:
388,179,193599,2,0,L|303:173,1,85,0|2,0:0|0:0,0:0:0:0:
154,290,193936,1,2,0:0:0:0:
250,341,194105,2,0,L|335:347,1,85,8|8,0:0|0:0,0:0:0:0:
160,190,194442,2,0,P|119:195|83:218,1,85,2|8,0:0|0:0,0:0:0:0:
154,290,194779,1,0,0:0:0:0:
255,221,194948,1,0,0:0:0:0:
360,279,195116,5,8,0:3:0:0:
360,279,195201,1,2,0:0:0:0:
360,279,195285,1,2,0:0:0:0:
360,279,195369,1,2,0:0:0:0:
344,300,195453,1,4,0:3:0:0:
324,318,195538,1,2,0:0:0:0:
301,331,195622,1,2,0:0:0:0:
276,338,195706,1,2,0:0:0:0:
250,341,195790,6,0,P|193:324|148:273,1,127.500004863739,4|0,0:0|0:0,0:0:0:0:
202,138,196296,2,0,L|164:189,1,63.7500024318696,0|8,0:0|0:0,0:0:0:0:
137,69,196633,2,0,L|195:43,2,63.7500024318696,0|8|8,0:0|0:0|0:0,0:0:0:0:
164,189,197139,2,0,P|216:224|279:227,1,127.500004863739,2|8,0:0|0:0,0:0:0:0:
388,174,197644,1,0,0:0:0:0:
310,249,197813,2,0,L|316:318,1,63.7500024318696,8|0,0:0|0:0,0:0:0:0:
388,174,198150,2,0,L|382:105,1,63.7500024318696
297,62,198487,6,0,P|218:89|137:69,1,170,4|8,0:0|0:0,0:0:0:0:
113,69,199274,1,2,0:0:0:0:
91,77,199386,1,2,0:0:0:0:
75,93,199498,1,8,0:0:0:0:
65,113,199611,1,2,0:0:0:0:
65,135,199723,1,2,0:0:0:0:
69,157,199835,5,8,0:0:0:0:
81,177,199948,1,2,0:0:0:0:
99,194,200060,1,2,0:0:0:0:
124,203,200172,1,2,0:0:0:0:
152,203,200285,1,2,0:0:0:0:
181,198,200397,1,2,0:0:0:0:
210,187,200509,1,2,0:0:0:0:
241,176,200622,1,2,0:0:0:0:
274,170,200734,1,2,0:0:0:0:
309,173,200847,1,2,0:0:0:0:
343,187,200959,1,2,0:0:0:0:
374,209,201071,1,2,0:0:0:0:
399,244,201184,6,0,P|417:283|421:327,1,85,4|0,0:0|0:0,0:0:0:0:
281,271,201521,2,0,L|328:200,1,85
433,150,201858,6,0,P|468:174|493:210,1,85,2|0,0:0|0:0,0:0:0:0:
341,237,202195,2,0,L|345:152,1,85,0|8,0:0|0:0,0:0:0:0:
410,62,202532,6,0,P|452:65|492:84,1,85,2|0,0:0|0:0,0:0:0:0:
375,177,202869,2,0,L|299:215,1,85,8|8,0:0|0:0,0:0:0:0:
189,204,203206,6,0,P|171:164|167:121,1,85,2|4,0:0|0:0,0:0:0:0:
306,176,203543,2,0,L|259:247,1,85,0|8,0:0|0:0,0:0:0:0:
159,292,203880,6,0,P|123:267|98:231,1,85,4|0,0:0|0:0,0:0:0:0:
246,209,204217,2,0,L|330:213,1,85,2|0,0:0|0:0,0:0:0:0:
421,279,204554,6,0,P|417:321|398:361,1,85,2|2,0:0|0:0,0:0:0:0:
305,243,204892,1,8,0:3:0:0:
271,94,205060,1,4,0:3:0:0:
437,135,205229,5,8,0:0:0:0:
437,135,205397,1,8,0:0:0:0:
256,192,205903,5,2,0:0:0:0:
256,192,206577,1,2,0:0:0:0:
256,192,207251,1,2,0:0:0:0:
256,192,207335,12,0,208431,0:0:0:0:
120,80,208599,6,0,L|184:144,1,85,4|0,0:0|0:0,0:0:0:0:
276,236,208936,1,8,0:0:0:0:
404,192,209104,2,0,P|424:144|428:108,1,85,0|2,0:0|0:0,0:0:0:0:
276,236,209441,2,0,P|282:287|297:320,1,85,2|8,0:0|0:0,0:0:0:0:
320,152,209778,1,0,0:0:0:0:
320,152,209947,2,0,B|271:124|216:149|196:184|196:184|160:164,1,170,2|8,0:0|0:0,0:0:0:0:
276,236,210452,2,0,P|301:270|315:309,1,85,2|0,0:0|0:0,0:0:0:0:
72,184,210790,2,0,P|78:142|95:103,1,85,2|8,0:0|0:0,0:0:0:0:
320,152,211127,1,0,0:0:0:0:
320,152,211295,6,0,L|408:172,1,85,2|0,0:0|0:0,0:0:0:0:
340,36,211632,1,8,0:0:0:0:
212,120,211801,2,0,P|185:152|168:191,1,85,0|2,0:0|0:0,0:0:0:0:
296,340,212138,2,0,P|302:298|298:256,1,85,2|8,0:0|0:0,0:0:0:0:
180,296,212475,1,0,0:0:0:0:
180,296,212643,2,0,P|112:284|56:200,1,170,2|8,0:0|0:0,0:0:0:0:
212,120,213149,2,0,L|300:128,1,85,2|0,0:0|0:0,0:0:0:0:
240,216,213486,1,2,0:0:0:0:
296,80,213655,1,8,0:0:0:0:
416,160,213823,1,0,0:0:0:0:
300,276,213992,6,0,L|240:336,1,85,2|0,0:0|0:0,0:0:0:0:
296,80,214329,2,0,L|377:58,1,85,8|0,0:0|0:0,0:0:0:0:
252,286,214666,2,0,L|170:308,1,85,2|2,0:0|0:0,0:0:0:0:
346,115,215003,2,0,L|428:136,1,85,8|0,0:0|0:0,0:0:0:0:
205,271,215340,2,0,L|123:249,1,85,2|0,0:0|0:0,0:0:0:0:
206,184,215677,1,8,0:0:0:0:
206,304,215846,2,0,L|42:260,1,170,0|2,0:0|0:0,0:0:0:0:
42,110,216351,2,0,L|97:176,1,85,8|0,0:0|0:0,0:0:0:0:
206,304,216688,5,12,0:0:0:0:
348,187,216857,1,2,0:0:0:0:
206,184,217025,1,8,0:3:0:0:
371,274,217194,1,2,0:0:0:0:
333,79,217363,1,8,0:3:0:0:
276,238,217531,1,2,0:0:0:0:
472,143,217700,1,12,0:0:0:0:
472,143,218205,1,2,0:0:0:0:
425,211,218374,1,8,0:0:0:0:
348,187,218542,1,2,0:0:0:0:
342,108,218711,5,8,0:0:0:0:
331,83,218795,1,8,0:0:0:0:
314,60,218879,1,8,0:0:0:0:
288,43,218964,1,8,0:0:0:0:
256,34,219048,1,8,0:0:0:0:
222,35,219132,1,8,0:0:0:0:
189,50,219216,1,8,0:0:0:0:
162,75,219301,1,8,0:0:0:0:
145,111,219385,6,0,P|144:163|168:206,1,101.999996887207,4|0,0:0|0:0,0:0:0:0:
244,136,219722,1,8,0:0:0:0:
189,50,219891,2,0,P|139:35|91:47,1,101.999996887207,0|2,0:0|0:0,0:0:0:0:
263,248,220228,2,0,P|312:262|360:250,1,101.999996887207,2|8,0:0|0:0,0:0:0:0:
244,136,220565,1,0,0:0:0:0:
244,136,220733,2,0,P|219:230|194:338,1,203.999993774414,2|8,0:0|0:0,0:0:0:0:
138,133,221239,2,0,P|152:84|189:50,1,101.999996887207,2|0,0:0|0:0,0:0:0:0:
327,198,221576,1,2,0:0:0:0:
156,260,221745,1,8,0:0:0:0:
186,109,221913,1,0,0:0:0:0:
260,270,222082,6,0,P|355:291|421:220,1,203.999993774414,4|8,0:0|0:0,0:0:0:0:
260,270,222587,2,0,L|276:373,1,101.999996887207,0|2,0:0|0:0,0:0:0:0:
421,220,222924,2,0,L|405:119,1,101.999996887207,2|8,0:0|0:0,0:0:0:0:
252,181,223261,2,0,P|156:202|90:131,1,203.999993774414
186,109,223767,1,8,0:0:0:0:
357,182,223936,1,2,0:0:0:0:
216,276,224104,2,0,L|252:181,1,101.999996887207,0|2,0:0|0:0,0:0:0:0:
392,86,224441,2,0,L|357:182,1,101.999996887207,8|0,0:0|0:0,0:0:0:0:
214,369,224778,6,0,P|165:355|131:318,1,101.999996887207,4|0,0:0|0:0,0:0:0:0:
186,109,225115,2,0,P|235:123|269:160,1,101.999996887207,8|0,0:0|0:0,0:0:0:0:
214,359,225452,2,0,P|165:345|131:308,1,101.999996887207,2|2,0:0|0:0,0:0:0:0:
186,99,225789,2,0,P|235:113|269:150,1,101.999996887207,8|0,0:0|0:0,0:0:0:0:
182,200,226127,6,0,P|115:176|86:79,1,170,12|0,0:0|0:0,0:0:0:0:
190,208,226632,1,2,0:0:0:0:
190,208,226801,2,0,L|210:302,1,85,8|8,0:0|0:3,0:0:0:0:
330,184,227138,2,0,L|310:90,1,85,4|4,0:3|0:3,0:0:0:0:
113,59,227475,6,0,P|145:86|186:99,1,85,4|0,0:0|0:0,0:0:0:0:
402,144,228149,2,0,P|370:171|330:184,1,85,8|0,0:0|0:0,0:0:0:0:
190,208,228655,1,0,0:0:0:0:
318,74,228823,2,0,L|307:31,1,42.5,2|8,0:0|0:0,0:0:0:0:
250,161,229160,2,0,P|287:181|330:184,1,85,0|8,0:0|0:0,0:0:0:0:
221,71,229666,2,0,P|185:93|162:128,1,85,2|0,0:0|0:0,0:0:0:0:
95,254,230172,6,0,P|135:242|177:247,1,85,4|0,0:0|0:0,0:0:0:0:
276,296,230677,2,0,L|265:339,1,42.5,0|2,0:0|0:0,0:0:0:0:
300,203,231014,2,0,P|337:223|362:256,1,85,8|0,0:0|0:0,0:0:0:0:
204,225,231520,2,0,L|193:182,1,42.5,2|8,0:0|0:0,0:0:0:0:
143,70,231857,2,0,L|132:113,1,42.5,8|8,0:0|0:0,0:0:0:0:
103,253,232194,1,2,0:0:0:0:
251,331,232363,1,2,0:0:0:0:
118,351,232531,1,2,0:0:0:0:
204,225,232700,1,2,0:0:0:0:
318,280,232868,6,0,L|398:317,1,85,4|0,0:0|0:0,0:0:0:0:
343,163,233205,2,0,L|265:127,1,85,8|0,0:0|0:0,0:0:0:0:
204,225,233542,2,0,L|167:305,1,85,2|2,0:0|0:0,0:0:0:0:
343,163,233879,2,0,L|378:85,1,85,8|0,0:0|0:0,0:0:0:0:
318,280,234216,1,2,0:0:0:0:
204,225,234385,1,0,0:0:0:0:
343,163,234554,2,0,L|431:123,1,85,8|0,0:0|0:0,0:0:0:0:
204,225,234891,2,0,L|126:260,1,85,2|2,0:0|0:0,0:0:0:0:
366,121,235228,2,0,L|454:81,1,85,8|0,0:0|0:0,0:0:0:0:
318,280,235565,5,2,0:0:0:0:
286,104,235733,1,0,0:0:0:0:
204,225,235902,1,12,0:0:0:0:
348,189,236070,1,0,0:0:0:0:
184,123,236239,1,2,0:0:0:0:
144,315,236407,1,2,0:0:0:0:
250,189,236576,1,12,0:0:0:0:
77,216,236745,1,0,0:0:0:0:
254,288,236913,5,4,0:0:0:0:
254,288,237082,1,8,0:0:0:0:
394,128,237587,5,2,0:0:0:0:
394,128,237924,2,0,P|404:178|392:225,1,85,0|2,0:0|0:0,0:0:0:0:
121,171,239610,6,0,P|111:121|123:74,1,85,2|0,0:0|0:0,0:0:0:0:
291,40,240958,6,0,P|301:82|295:123,1,85,8|2,0:0|0:0,0:0:0:0:
296,124,241464,1,4,0:3:0:0:
92,168,241801,5,2,0:0:0:0:
100,296,241969,1,8,0:0:0:0:
223,328,242138,1,2,0:0:0:0:
321,247,242306,2,0,B|393:227|449:259|449:259|469:227,1,170,4|8,0:0|0:0,0:0:0:0:
280,160,242812,2,0,P|240:196|244:304,1,170,4|2,0:0|0:0,0:0:0:0:
160,188,243318,2,0,L|68:208,1,85,8|0,0:0|0:0,0:0:0:0:
140,312,243655,6,0,P|172:328|248:244,1,170
240,216,244441,1,0,0:0:0:0:
231,180,244553,1,0,0:0:0:0:
237,144,244665,1,0,0:0:0:0:
257,113,244778,1,0,0:0:0:0:
287,93,244890,1,0,0:0:0:0:
323,87,245003,6,0,P|368:88|420:104,1,85,4|0,0:0|0:0,0:0:0:0:
348,212,245340,1,8,0:0:0:0:
428,332,245509,2,0,P|436:288|411:235,1,85,0|2,0:0|0:0,0:0:0:0:
232,308,245846,1,2,0:0:0:0:
348,212,246014,1,8,0:0:0:0:
240,216,246183,1,0,0:0:0:0:
352,304,246351,2,0,P|420:268|432:176,1,170,4|8,0:0|0:0,0:0:0:0:
240,216,246857,2,0,L|272:296,1,85,2|0,0:0|0:0,0:0:0:0:
348,212,247194,1,2,0:0:0:0:
307,114,247363,2,0,L|222:101,1,85,8|0,0:0|0:0,0:0:0:0:
187,108,247615,1,0,0:0:0:0:
164,120,247700,6,0,B|148:168|148:168|176:208|184:240|168:288,1,170,2|8,0:0|0:0,0:0:0:0:
72,348,248205,1,0,0:0:0:0:
4,268,248374,2,0,P|41:248|84:244,1,85,2|2,0:0|0:0,0:0:0:0:
256,200,248711,2,0,P|218:219|176:224,1,85,8|0,0:0|0:0,0:0:0:0:
52,132,249048,2,0,P|53:89|70:51,2,85,2|0|8,0:0|0:0|0:0,0:0:0:0:
60,220,249554,1,2,0:0:0:0:
380,321,249891,1,2,0:0:0:0:
380,321,250059,2,0,L|407:234,1,85,8|0,0:0|0:0,0:0:0:0:
324,94,250396,6,0,P|383:148|460:121,1,170,2|8,0:0|0:0,0:0:0:0:
400,71,250902,2,0,L|366:240,1,170,0|2,0:0|0:0,0:0:0:0:
380,321,251407,1,8,0:0:0:0:
249,269,251576,1,0,0:0:0:0:
117,178,251745,2,0,B|123:236|163:251|163:251|173:202|222:184,1,170,2|8,0:0|0:0,0:0:0:0:
330,208,252250,1,0,0:0:0:0:
261,351,252419,2,0,P|213:346|177:310,1,85,2|2,0:0|0:0,0:0:0:0:
249,269,252756,2,0,P|218:231|218:181,1,85,8|0,0:0|0:0,0:0:0:0:
365,130,253093,6,0,L|330:208,1,85,4|0,0:0|0:0,0:0:0:0:
184,109,253430,2,0,L|268:100,1,85,4|2,0:3|0:0,0:0:0:0:
249,269,253767,2,0,L|199:199,1,85,4|0,0:3|0:0,0:0:0:0:
377,308,254104,2,0,B|411:337|478:292|478:292|484:254|467:224,1,170,4|8,0:0|0:0,0:0:0:0:
365,130,254610,1,0,0:0:0:0:
249,269,254778,1,8,0:0:0:0:
357,226,254947,1,2,0:0:0:0:
198,142,255115,1,8,0:0:0:0:
164,297,255284,1,2,0:0:0:0:
272,186,255452,1,8,0:0:0:0:
282,155,255536,1,8,0:0:0:0:
281,124,255620,1,8,0:0:0:0:
269,94,255704,1,0,0:0:0:0:
248,71,255790,6,0,B|178:38|126:91|126:91|126:142,1,170,4|8,0:0|0:0,0:0:0:0:
164,297,256295,1,0,0:0:0:0:
333,272,256464,2,0,P|370:225|375:193,1,85,2|2,0:0|0:0,0:0:0:0:
242,277,256801,2,0,P|263:332|289:353,1,85,8|0,0:0|0:0,0:0:0:0:
272,186,257138,2,0,P|210:186|148:266,1,170,2|8,0:0|0:0,0:0:0:0:
148,265,257643,2,0,L|84:206,1,85,2|0,0:0|0:0,0:0:0:0:
80,71,257981,1,2,0:0:0:0:
248,29,258149,1,8,0:0:0:0:
246,215,258318,5,0,0:0:0:0:
246,215,258402,1,0,0:0:0:0:
246,215,258486,2,0,P|284:254|321:266,1,85,2|0,0:0|0:0,0:0:0:0:
446,187,258823,1,8,0:0:0:0:
305,114,258992,1,0,0:0:0:0:
346,243,259160,1,2,0:0:0:0:
406,98,259329,1,2,0:0:0:0:
218,102,259497,1,8,0:0:0:0:
321,146,259666,1,0,0:0:0:0:
248,29,259834,2,0,P|196:26|145:128,1,170,2|8,0:0|0:0,0:0:0:0:
239,223,260340,1,2,0:0:0:0:
146,336,260509,2,0,L|49:349,1,85,0|2,0:0|0:0,0:0:0:0:
239,223,260846,2,0,L|316:282,2,85,8|0|0,0:0|0:0|0:0,0:0:0:0:
400,152,262531,5,2,0:0:0:0:
256,192,263879,6,0,P|216:208|185:251,1,85,2|0,0:0|0:0,0:0:0:0:
414,240,264405,2,0,P|453:223|484:180,1,85,2|0,0:0|0:0,0:0:0:0:
256,192,264931,1,2,0:0:0:0:
256,192,265019,12,0,267387,0:0:0:0:
