osu file format v12

[General]
AudioFilename: colorful.mp3
AudioLeadIn: 2000
PreviewTime: 60197
Countdown: 0
SampleSet: Soft
StackLeniency: 0.9
Mode: 0
LetterboxInBreaks: 1
WidescreenStoryboard: 1

[Editor]
DistanceSpacing: 1.2
BeatDivisor: 4
GridSize: 4
TimelineZoom: 1

[Metadata]
Title:Colorful
TitleUnicode:カラフル
Artist:ClariS
ArtistUnicode:ClariS
Creator:CloudSplash16
Version:Easy
Source:劇場版 魔法少女まどか☆マギカ[新編] 叛逆の物語
Tags:gekijouban mahou shoujo madoka magika shinhen hangyaku no monogatari puella magi magica movie rebellion fycho xinely
BeatmapID:333751
BeatmapSetID:132007

[Difficulty]
HPDrainRate:2
CircleSize:3
OverallDifficulty:2
ApproachRate:3
SliderMultiplier:0.7
SliderTickRate:1

[Events]
//Background and Video events
0,0,"BG.jpg",0,0
//Break Periods
2,84080,86485
2,89473,93227
2,160934,169407
2,245203,252664
//Storyboard Layer 0 (Background)
//Storyboard Layer 1 (Fail)
//Storyboard Layer 2 (Pass)
//Storyboard Layer 3 (Foreground)
//Storyboard Sound Samples
//Background Colour Transformations
3,100,163,162,255

[TimingPoints]
-1064,674.157303370787,4,2,1,30,1,0
1632,-50,4,2,1,50,0,0
1801,-50,4,2,1,30,0,0
4329,-50,4,2,1,50,0,0
4497,-50,4,2,1,30,0,0
5677,-50,4,2,1,50,0,0
5846,-50,4,2,1,30,0,0
7025,-50,4,2,1,50,0,0
7194,-50,4,2,1,30,0,0
9722,-50,4,2,1,50,0,0
11070,-50,4,2,2,35,0,0
11239,-50,4,2,1,35,0,0
11744,-50,4,2,2,35,0,0
11913,-50,4,2,1,35,0,0
12419,-50,4,2,1,40,0,0
17138,-50,4,2,2,40,0,0
17812,-50,4,2,1,40,0,0
20510,337.078651685393,4,2,3,50,1,0
21521,-100,4,2,3,55,0,0
22532,-100,4,2,3,60,0,0
23206,-100,4,2,3,55,0,0
24217,-100,4,2,5,45,0,0
24302,-100,4,2,3,55,0,0
24892,-100,4,2,5,45,0,0
24976,-100,4,2,3,55,0,0
26240,-100,4,2,5,45,0,0
26324,-100,4,2,3,55,0,0
27588,-100,4,2,5,45,0,0
27672,-100,4,2,3,55,0,0
30285,-100,4,2,5,45,0,0
30369,-100,4,2,3,55,0,0
30622,-100,4,2,5,45,0,0
30706,-100,4,2,3,55,0,0
32981,-100,4,2,5,45,0,0
33066,-100,4,2,3,55,0,0
33318,-100,4,2,5,45,0,0
33403,-100,4,2,3,55,0,0
34330,-100,4,2,5,45,0,0
34414,-100,4,2,3,55,0,0
35678,-100,4,2,5,45,0,0
35762,-100,4,2,3,55,0,0
37026,-100,4,2,5,45,0,0
37111,-100,4,2,3,55,0,0
37363,-100,4,2,5,45,0,0
37448,-100,4,2,3,55,0,0
38375,-100,4,2,5,45,0,0
38459,-100,4,2,3,55,0,0
38712,-100,4,2,5,45,0,0
38796,-100,4,2,3,55,0,0
39723,-100,4,2,5,45,0,0
39807,-100,4,2,3,55,0,0
41071,-100,4,2,5,45,0,0
41156,-100,4,2,3,55,0,0
43599,-100,4,2,4,45,0,0
43768,-100,4,2,3,55,0,0
43936,-100,4,2,5,45,0,0
44021,-100,4,2,3,55,0,0
44105,-100,4,2,4,45,0,0
44274,-100,4,2,3,55,0,0
44779,-100,4,2,3,55,0,0
50172,-100,4,2,3,60,0,0
50847,-100,4,2,5,50,0,0
51099,-100,4,2,3,60,0,0
51858,-100,4,2,4,50,0,0
52026,-100,4,2,3,60,0,0
52363,-100,4,2,5,50,0,0
52448,-100,4,2,3,60,0,0
52532,-100,4,2,4,50,0,0
52701,-100,4,2,3,60,0,0
53880,-100,4,2,4,50,0,0
54049,-100,4,2,3,60,0,0
54892,-100,4,2,5,50,0,0
55144,-100,4,2,3,60,0,0
55566,-100,4,2,3,65,0,0
60285,-100,4,2,1,35,0,0
61633,-100,4,2,1,50,0,0
62307,-100,4,2,3,65,0,1
62981,-100,4,2,5,55,0,1
63234,-100,4,2,3,65,0,1
63993,-100,4,2,4,55,0,1
64161,-100,4,2,5,55,0,1
64245,-100,4,2,3,65,0,1
65341,-100,4,2,4,55,0,1
65509,-100,4,2,3,65,0,1
66689,-100,4,2,4,55,0,1
66858,-100,4,2,5,55,0,1
66942,-100,4,2,3,65,0,1
69386,-100,4,2,4,55,0,1
69554,-100,4,2,3,65,0,1
72083,-100,4,2,1,45,0,1
72420,-100,4,2,3,65,0,1
73009,-100,4,2,3,65,0,0
73094,-100,4,2,3,65,0,1
73431,-100,4,2,4,55,0,1
73599,-100,4,2,3,65,0,1
74779,-100,4,2,4,55,0,1
74948,-100,4,2,5,55,0,1
75032,-100,4,2,3,65,0,1
76127,-100,4,2,4,55,0,1
76296,-100,4,2,3,65,0,1
76465,-100,4,2,5,55,0,1
76717,-100,4,2,3,65,0,1
77644,-100,4,2,5,55,0,1
77729,-100,4,2,3,65,0,1
82532,-100,4,2,3,65,0,1
83880,-100,4,2,1,50,0,0
87925,-100,4,2,3,65,0,0
88768,-100,4,2,5,55,0,0
88852,-100,4,2,3,65,0,0
88936,-100,4,2,4,55,0,0
89105,-100,4,2,3,65,0,0
94667,-100,4,2,1,55,0,0
102083,-100,4,2,6,45,0,0
102251,-100,4,2,1,55,0,0
102757,-100,4,2,1,55,0,0
103599,-100,4,2,1,55,0,0
103936,-100,4,2,3,55,0,0
105453,-100,4,2,3,60,0,0
105790,-100,4,2,5,50,0,0
105875,-100,4,2,3,60,0,0
107139,-100,4,2,5,50,0,0
107223,-100,4,2,3,60,0,0
108487,-100,4,2,5,50,0,0
108571,-100,4,2,3,60,0,0
109835,-100,4,2,5,50,0,0
109920,-100,4,2,3,60,0,0
110172,-100,4,2,5,50,0,0
110257,-100,4,2,3,60,0,0
111184,-100,4,2,5,50,0,0
111268,-100,4,2,3,60,0,0
112532,-100,4,2,5,50,0,0
112616,-100,4,2,3,60,0,0
113206,-100,4,2,5,50,0,0
113290,-100,4,2,3,60,0,0
113543,-100,4,2,3,65,0,0
114554,-100,4,2,5,55,0,0
114639,-100,4,2,3,65,0,0
115060,-100,4,2,4,55,0,0
115229,-100,4,2,3,65,0,0
115397,-100,4,2,5,55,0,0
115481,-100,4,2,3,65,0,0
116240,-100,4,2,3,60,0,0
116914,-100,4,2,4,50,0,0
117083,-100,4,2,3,60,0,0
118094,-100,4,2,5,50,0,0
118178,-100,4,2,3,60,0,0
119611,-100,4,2,4,50,0,0
119779,-100,4,2,3,60,0,0
120790,-100,4,2,5,50,0,0
120875,-100,4,2,3,60,0,0
120959,-100,4,2,5,50,0,0
121043,-100,4,2,3,60,0,0
121127,-100,4,2,5,50,0,0
121212,-100,4,2,3,60,0,0
121633,-100,4,2,3,65,0,0
121970,-100,4,2,4,55,0,0
122139,-100,4,2,3,65,0,0
123824,-100,4,2,5,55,0,0
123908,-100,4,2,3,65,0,0
124667,-100,4,2,4,55,0,0
124835,-100,4,2,3,65,0,0
125004,-100,4,2,5,55,0,0
125257,-100,4,2,3,65,0,0
126352,-100,4,2,5,55,0,0
126605,-100,4,2,3,65,0,0
127026,-100,4,2,3,70,0,0
133094,-100,4,2,3,55,0,0
133768,-100,4,2,3,70,0,1
134105,-100,4,2,4,60,0,1
134274,-100,4,2,5,60,0,1
134358,-100,4,2,3,70,0,1
135959,-100,4,2,5,60,0,1
136043,-100,4,2,3,70,0,1
136802,-100,4,2,4,60,0,1
136970,-100,4,2,3,70,0,1
137813,-100,4,2,5,60,0,1
137897,-100,4,2,3,70,0,1
138150,-100,4,2,4,60,0,1
138318,-100,4,2,3,70,0,1
140847,-100,4,2,4,60,0,1
141015,-100,4,2,3,70,0,1
142195,-100,4,2,4,60,0,1
142363,-100,4,2,5,60,0,1
142448,-100,4,2,3,70,0,1
142869,-100,4,2,4,60,0,1
143038,-100,4,2,3,70,0,1
144470,-100,4,2,3,70,0,0
144554,-100,4,2,3,70,0,1
144892,-100,4,2,4,60,0,1
145060,-100,4,2,5,60,0,1
145144,-100,4,2,3,70,0,1
146240,-100,4,2,4,60,0,1
146408,-100,4,2,3,70,0,1
146745,-100,4,2,5,60,0,1
146830,-100,4,2,3,70,0,1
148262,-100,4,2,4,60,0,1
148431,-100,4,2,3,70,0,1
149442,-100,4,2,5,60,0,1
149526,-100,4,2,3,70,0,1
150285,-100,4,2,4,60,0,1
150453,-100,4,2,3,70,0,1
151633,-100,4,2,4,60,0,1
151802,-100,4,2,3,70,0,1
152981,-100,4,2,4,60,0,1
153150,-100,4,2,3,70,0,1
155341,-100,4,2,3,65,0,0
156015,-100,4,2,5,55,0,0
156268,-100,4,2,3,65,0,0
157026,-100,4,2,4,55,0,0
157195,-100,4,2,3,65,0,0
158038,-100,4,2,5,55,0,0
158122,-100,4,2,3,65,0,0
159723,-100,4,2,4,55,0,0
159892,-100,4,2,3,65,0,0
160397,-100,4,2,4,55,0,0
160566,-100,4,2,1,50,0,0
171521,-100,4,2,1,55,0,0
172869,-100,4,2,1,60,0,0
173880,-100,4,2,3,60,0,0
174217,-100,4,2,3,65,0,0
175229,-100,4,2,1,65,0,0
175566,-100,4,2,3,65,0,0
176408,-100,4,2,5,55,0,0
176661,-100,4,2,3,50,0,0
178936,-100,4,2,1,55,0,0
179274,-100,4,2,1,60,0,0
179611,-100,4,2,3,65,0,0
179948,-100,4,2,4,55,0,0
180116,-100,4,2,3,65,0,0
181296,-100,4,2,4,55,0,0
181465,-100,4,2,3,65,0,0
181802,-100,4,2,5,55,0,0
181886,-100,4,2,3,65,0,0
182644,-100,4,2,4,55,0,0
182813,-100,4,2,3,65,0,0
183150,-100,4,2,5,55,0,0
183234,-100,4,2,3,65,0,0
184498,-100,4,2,5,55,0,0
184583,-100,4,2,3,65,0,0
184667,-100,4,2,4,55,0,0
184835,-100,4,2,3,65,0,0
185847,-100,4,2,5,55,0,0
185931,-100,4,2,3,65,0,0
186689,-100,4,2,4,55,0,0
186858,-100,4,2,3,65,0,0
187195,-100,4,2,5,65,0,0
187279,-100,4,2,3,65,0,0
188038,-100,4,2,4,55,0,0
188206,-100,4,2,3,65,0,0
188543,-100,4,2,5,55,0,0
188627,-100,4,2,3,65,0,0
188712,-100,4,2,4,55,0,0
188880,-100,4,2,3,65,0,0
190734,-100,4,2,4,55,0,0
190903,-100,4,2,3,65,0,0
192083,-100,4,2,4,55,0,0
192251,-100,4,2,3,65,0,0
192588,-100,4,2,5,55,0,0
192672,-100,4,2,3,65,0,0
193431,-100,4,2,4,55,0,0
193599,-100,4,2,3,65,0,0
193768,-100,4,2,5,55,0,0
194021,-100,4,2,3,65,0,0
195790,-100,4,2,3,60,0,0
196802,-100,4,2,1,60,0,0
197139,-100,4,2,3,60,0,0
198150,-100,4,2,1,60,0,0
198487,-100,4,2,3,60,0,0
199161,-100,4,2,3,50,0,0
199498,-100,4,2,4,40,0,0
199667,-100,4,2,3,50,0,0
201184,-100,4,2,3,75,0,0
205903,-100,4,2,3,60,0,0
208599,337.078651685393,4,2,3,75,1,1
209273,-100,4,2,5,65,0,1
209525,-100,4,2,3,75,0,1
210790,-100,4,2,5,65,0,1
210874,-100,4,2,3,75,0,1
211632,-100,4,2,4,65,0,1
211801,-100,4,2,3,75,0,1
212643,-100,4,2,5,65,0,1
212728,-100,4,2,3,75,0,1
212981,-100,4,2,4,65,0,1
213149,-100,4,2,3,75,0,1
213655,-100,4,2,4,65,0,1
213823,-100,4,2,3,75,0,1
214834,-100,4,2,5,65,0,1
214919,-100,4,2,3,75,0,1
215677,-100,4,2,4,65,0,1
215846,-100,4,2,3,75,0,1
219301,-100,4,2,3,75,0,0
219385,-100,4,2,3,75,0,1
220059,-100,4,2,5,65,0,1
220312,-100,4,2,3,75,0,1
221576,-100,4,2,5,65,0,1
221660,-100,4,2,3,75,0,1
222419,-100,4,2,4,65,0,1
222587,-100,4,2,3,75,0,1
223093,-100,4,2,4,65,0,1
223261,-100,4,2,3,75,0,1
226127,-100,4,2,3,70,0,0
227475,-100,4,2,3,75,0,1
228992,-100,4,2,4,65,0,1
229160,-100,4,2,3,75,0,1
229329,-100,4,2,5,65,0,1
229413,-100,4,2,3,75,0,1
230846,-100,4,2,5,65,0,1
230930,-100,4,2,3,75,0,1
232025,-100,4,2,4,65,0,1
232194,-100,4,2,3,75,0,1
232363,-100,4,2,5,65,0,1
232447,-100,4,2,3,75,0,1
232868,-100,4,2,3,55,0,1
233205,-100,4,2,4,45,0,1
233374,-100,4,2,3,55,0,1
234216,-100,4,2,3,60,0,1
235565,-100,4,2,3,65,0,1
236913,-100,4,2,3,70,0,1
238261,-100,4,2,1,50,0,0
241801,-100,4,2,5,50,0,0
241885,-100,4,2,3,60,0,0
242306,-100,4,2,3,65,0,0
243149,-100,4,2,5,65,0,0
243233,-100,4,2,3,65,0,0
243655,-100,4,2,1,35,0,0
245003,-100,4,2,3,70,0,0
256632,-100,4,2,5,60,0,0
256716,-100,4,2,3,70,0,0
257475,-100,4,2,4,60,0,0
257643,-100,4,2,5,60,0,0
257728,-100,4,2,3,70,0,0
259329,-100,4,2,5,60,0,0
259413,-100,4,2,3,70,0,0
260677,-100,4,2,5,60,0,0
260761,-100,4,2,3,70,0,0
261183,-100,4,2,1,50,0,0
263879,350.877192982456,4,2,1,50,1,0
265282,-100,4,2,1,40,0,0
265984,-100,4,2,1,25,0,0
266686,-100,4,2,1,15,0,0
267387,-100,4,2,1,5,0,0

[Colours]
Combo1 : 255,128,255
Combo2 : 255,128,128
Combo3 : 255,169,128
Combo4 : 255,255,128
Combo5 : 128,255,128
Combo6 : 128,191,255

[HitObjects]
252,64,1632,6,0,P|316:36|392:60,2,140,2|0|0,0:0|0:0|0:0,0:0:0:0:
184,188,3655,1,0,0:0:0:0:
312,244,4329,6,0,P|340:308|316:384,2,140,2|0|2,0:0|0:0|0:0,0:0:0:0:
184,188,6351,1,0,0:0:0:0:
79,283,7025,6,0,P|206:327|312:244,1,280,2|0,0:0|0:0,0:0:0:0:
329,105,9048,1,0,0:0:0:0:
196,60,9722,2,0,P|188:96|196:200,1,140,2|0,0:0|0:0,0:0:0:0:
294,297,11070,6,0,B|350:297|392:254|392:254|432:260,2,140,8|8|4,0:0|0:3|0:0,0:0:0:0:
112,84,13767,2,0,P|112:136|88:228,1,140,8|8,0:3|0:0,0:0:0:0:
188,320,15115,6,0,P|256:336|328:348,2,140,4|8|0,0:0|0:0|0:0,0:0:0:0:
90,221,17138,1,8,0:0:0:0:
164,104,17812,6,0,P|220:84|308:100,1,140,4|8,0:0|0:0,0:0:0:0:
375,212,19160,2,0,P|309:233|241:220,1,140,2|0,0:0|0:0,0:0:0:0:
256,192,20510,12,4,23206,0:0:0:0:
424,176,23880,6,0,B|412:140|412:140|440:88|412:32,2,140,2|2|2,0:0|0:0|0:0,0:0:0:0:
404,256,25566,1,2,0:0:0:0:
328,292,25903,6,0,P|261:294|195:260,1,140,2|2,0:0|0:0,0:0:0:0:
65,155,27251,2,0,L|32:291,1,140,2|2,0:0|0:0,0:0:0:0:
192,348,28599,5,2,0:0:0:0:
328,248,29274,1,2,0:0:0:0:
424,112,29948,2,0,P|466:146|484:199,2,105,2|0|2,0:0|0:0|0:0,0:0:0:0:
344,84,31296,5,2,0:0:0:0:
224,128,31802,2,0,L|244:216,2,70,0|0|8,0:0|0:0|0:0,0:0:0:0:
194,98,32644,2,0,B|140:94|140:94|75:158|103:239,1,210,2|2,0:0|0:0,0:0:0:0:
164,296,33993,6,0,B|224:332|224:332|301:308,1,140,4|2,0:0|0:0,0:0:0:0:
372,288,35004,1,2,0:0:0:0:
436,236,35341,2,0,P|447:183|415:95,1,140,2|2,0:0|0:0,0:0:0:0:
344,68,36352,1,2,0:0:0:0:
272,24,36689,6,0,B|244:72|280:124|280:124|256:184|192:192,1,210,2|2,0:0|0:0,0:0:0:0:
124,208,38038,2,0,P|84:176|60:128,2,105,2|8|2,0:0|0:3|0:0,0:0:0:0:
180,268,39386,6,0,L|324:300,1,140,2|2,0:0|0:0,0:0:0:0:
408,160,40734,2,0,L|271:129,1,140,2|2,0:0|0:0,0:0:0:0:
104,116,42083,6,0,P|116:64|112:36,2,70,2|2|2,0:0|0:0|0:0,0:0:0:0:
76,196,43094,1,2,0:0:0:0:
48,276,43431,2,0,B|52:336|112:348|112:348|160:324|220:344,1,210,2|2,0:0|0:0,0:0:0:0:
297,334,44779,6,0,P|321:246|325:218,1,105,2|2,0:0|0:0,0:0:0:0:
300,152,45622,2,0,L|372:120,1,70,2|2,0:0|0:0,0:0:0:0:
168,44,46802,1,8,0:0:0:0:
96,88,47139,1,0,0:0:0:0:
40,152,47476,6,0,P|39:243|42:271,1,105,2|2,0:0|0:0,0:0:0:0:
86,325,48319,2,0,L|24:374,1,70,2|2,0:0|0:0,0:0:0:0:
152,196,49498,2,0,P|216:200|240:208,1,70,8|8,0:0|0:0,0:0:0:0:
304,220,50172,5,2,0:0:0:0:
368,276,50509,2,0,P|388:208|344:144,1,140,8|8,0:0|0:0,0:0:0:0:
272,136,51521,2,0,P|200:120|136:68,2,140,2|2|2,0:0|0:0|0:0,0:0:0:0:
355,151,53206,5,8,0:0:0:0:
432,188,53543,2,0,P|456:224|400:308,1,140,2|2,0:0|0:0,0:0:0:0:
332,304,54554,2,0,P|272:280|180:280,1,140,8|0,0:0|0:0,0:0:0:0:
112,284,55566,5,4,0:0:0:0:
107,115,56240,1,8,0:0:0:0:
250,28,56914,1,2,0:0:0:0:
397,108,57588,1,8,0:0:0:0:
401,275,58262,5,2,0:0:0:0:
258,361,58936,1,8,0:0:0:0:
112,284,59611,2,0,L|118:249,1,35,8|8,0:0|0:0,0:0:0:0:
200,152,60285,6,0,P|157:127|62:134,2,140,2|2|8,0:0|0:0|0:3,0:0:0:0:
300,287,62307,5,4,0:0:0:0:
380,262,62644,2,0,B|433:238|425:171|425:171|443:135,1,140,8|8,0:0|0:0,0:0:0:0:
414,63,63656,2,0,P|366:38|279:47,1,140,2|0,0:0|0:0,0:0:0:0:
204,75,64667,1,8,0:0:0:0:
130,115,65004,6,0,P|137:186|105:261,1,140,2|2,0:0|0:0,0:0:0:0:
67,319,66015,1,8,0:0:0:0:
150,324,66352,2,0,B|184:310|184:310|233:340|290:340,1,140,2|0,0:0|0:0,0:0:0:0:
362,360,67363,1,8,0:0:0:0:
432,314,67701,6,0,P|450:263|447:228,1,70,2|8,0:0|0:0,0:0:0:0:
440,164,68375,2,0,P|391:187|368:214,1,70,2|8,0:0|0:0,0:0:0:0:
309,243,69049,2,0,P|252:259|173:243,1,140,2|2,0:0|0:0,0:0:0:0:
97,209,70060,1,8,0:0:0:0:
68,130,70397,6,0,P|63:76|75:43,2,70,12|8|4,0:0|0:0|0:3,0:0:0:0:
145,96,71408,2,0,L|296:69,1,140,12|2,0:0|0:0,0:0:0:0:
360,36,72420,2,0,P|365:90|353:123,1,70,8|8,0:0|0:0,0:0:0:0:
296,156,73094,6,0,P|248:176|216:268,1,140,4|0,0:0|0:0,0:0:0:0:
252,328,74105,1,8,0:0:0:0:
335,326,74442,2,0,B|385:312|385:312|419:276|423:219,1,140,2|0,0:0|0:0,0:0:0:0:
428,150,75453,1,8,0:0:0:0:
348,124,75790,6,0,P|380:80|448:68,2,105,2|0|8,0:0|0:0|0:0,0:0:0:0:
308,200,77139,1,2,0:0:0:0:
292,284,77476,2,0,L|276:368,1,70,8|0,0:0|0:0,0:0:0:0:
200,328,78150,2,0,L|213:259,1,70,8|4,0:0|0:0,0:0:0:0:
153,199,78824,6,0,L|69:183,1,70,8|2,0:0|0:0,0:0:0:0:
109,107,79498,2,0,L|177:120,1,70,8|2,0:0|0:0,0:0:0:0:
261,120,80172,2,0,L|277:36,1,70,8|2,0:0|0:0,0:0:0:0:
353,76,80846,2,0,L|339:144,1,70,8|2,0:0|0:0,0:0:0:0:
324,228,81521,5,12,0:0:0:0:
168,288,82195,1,4,0:0:0:0:
92,252,82532,2,0,P|60:200|72:112,1,140,2|0,0:0|0:0,0:0:0:0:
128,68,83543,2,0,L|204:64,1,70,4|2,0:0|0:0,0:0:0:0:
328,96,87925,5,4,0:0:0:0:
440,156,88431,2,0,P|456:212|364:304,1,175,2|4,0:0|0:0,0:0:0:0:
140,88,94667,6,0,P|112:160|136:236,1,140,4|8,0:0|0:0,0:0:0:0:
269,299,96015,2,0,P|296:235|284:168,1,140,8|8,0:0|0:0,0:0:0:0:
304,88,97026,1,8,0:0:0:0:
376,44,97363,6,0,L|456:168,1,140,2|8,0:0|0:0,0:0:0:0:
451,245,98375,1,8,0:0:0:0:
400,312,98712,2,0,P|468:328|508:308,2,105,8|0|8,0:0|0:0|0:0,0:0:0:0:
320,288,100060,6,0,P|264:272|172:296,1,140,2|8,0:0|0:0,0:0:0:0:
104,312,101071,1,8,0:0:0:0:
44,252,101408,2,0,P|28:204|32:144,2,105,2|2|8,0:0|0:0|0:0,0:0:0:0:
104,312,102757,6,0,L|212:300,1,105,0|2,0:0|0:0,0:0:0:0:
292,300,103599,2,0,P|324:264|324:196,1,105,2|2,0:0|0:0,0:0:0:0:
32,52,105453,6,0,P|40:96|124:124,1,140,4|2,0:0|0:0,0:0:0:0:
188,76,106465,1,2,0:0:0:0:
240,144,106802,2,0,L|208:288,1,140,2|2,0:0|0:0,0:0:0:0:
132,316,107813,1,2,0:0:0:0:
50,336,108150,6,0,P|62:268|130:232,1,140,2|2,0:0|0:0,0:0:0:0:
197,262,109161,1,2,0:0:0:0:
263,313,109498,2,0,P|320:333|368:318,2,105,2|0|2,0:0|0:0|0:0,0:0:0:0:
318,249,110847,6,0,L|345:111,1,140,2|2,0:0|0:0,0:0:0:0:
177,127,112195,2,0,L|150:265,2,140,2|2|2,0:0|0:0|0:0,0:0:0:0:
250,86,113880,5,2,0:0:0:0:
333,79,114217,2,0,P|381:95|414:188,2,140,2|2|8,0:0|0:0|0:0,0:0:0:0:
335,163,115903,1,8,0:0:0:0:
367,240,116240,5,6,0:0:0:0:
249,284,116745,2,0,L|295:342,2,70,2|2|2,0:0|0:0|0:0,0:0:0:0:
166,265,117757,2,0,L|193:158,1,105,8|8,0:0|0:0,0:0:0:0:
215,82,118599,1,0,0:0:0:0:
143,38,118936,5,6,0:0:0:0:
96,155,119442,2,0,L|36:110,2,70,2|2|4,0:0|0:0|0:0,0:0:0:0:
176,179,120453,2,0,P|181:248|291:275,1,175,8|8,0:0|0:0,0:0:0:0:
353,271,121633,6,0,P|378:200|378:126,1,140,4|2,0:0|0:0,0:0:0:0:
322,74,122644,1,8,0:0:0:0:
239,90,122981,2,0,L|149:108,1,70,2|8,0:0|0:0,0:0:0:0:
179,187,123656,2,0,L|247:173,1,70,2|8,0:0|0:0,0:0:0:0:
331,180,124330,6,0,B|400:213|396:295|396:295|323:322,1,210,4|8,0:0|0:0,0:0:0:0:
251,343,125678,1,2,0:0:0:0:
167,333,126015,2,0,P|129:295|119:206,1,140,8|8,0:0|0:0,0:0:0:0:
178,154,127026,6,0,L|310:221,1,140,4|8,0:0|0:0,0:0:0:0:
440,121,128375,2,0,L|315:57,1,140,8|8,0:0|0:0,0:0:0:0:
241,98,129386,1,2,0:0:0:0:
178,154,129723,5,4,0:0:0:0:
245,307,130397,2,0,P|297:317|346:243,1,140,8|8,0:0|0:0,0:0:0:0:
414,42,133094,6,0,L|427:118,1,70,4|2,0:0|0:0,0:0:0:0:
461,187,133768,6,0,P|479:230|425:324,1,140,4|0,0:0|0:0,0:0:0:0:
367,343,134779,1,8,0:0:0:0:
283,348,135116,2,0,P|234:346|201:333,1,70,2|8,0:0|0:0,0:0:0:0:
143,294,135790,2,0,P|120:250|114:215,1,70,0|8,0:0|0:0,0:0:0:0:
101,147,136465,6,0,P|156:153|195:200,1,105,2|2,0:0|0:0,0:0:0:0:
252,243,137307,1,2,0:0:0:0:
327,279,137644,2,0,P|341:206|336:138,1,140,0|2,0:0|0:0,0:0:0:0:
268,92,138656,2,0,P|218:75|167:90,1,105,0|2,0:0|0:0,0:0:0:0:
96,132,139498,5,8,0:0:0:0:
68,217,139835,2,0,L|119:272,1,70,2|8,0:0|0:0,0:0:0:0:
178,324,140509,2,0,P|226:282|323:284,1,140,2|2,0:0|0:0,0:0:0:0:
379,302,141521,1,8,0:0:0:0:
458,329,141858,6,0,P|477:244|481:188,2,140,12|4|0,0:0|0:3|0:0,0:0:0:0:
379,302,143543,1,8,0:0:0:0:
329,234,143880,2,0,P|320:195|325:160,1,70,8|8,0:0|0:0,0:0:0:0:
346,84,144554,6,0,P|286:54|212:98,1,140,4|0,0:0|0:0,0:0:0:0:
170,147,145566,1,8,0:0:0:0:
208,221,145903,2,0,P|218:265|191:323,2,105,2|2|8,0:0|0:0|0:0,0:0:0:0:
170,147,147251,5,2,0:0:0:0:
47,116,147757,2,0,L|85:44,2,70,2|2|0,0:0|0:0|0:0,0:0:0:0:
48,241,148936,1,8,0:0:0:0:
92,312,149274,2,0,L|170:300,1,70,0|8,0:0|0:0,0:0:0:0:
241,327,149948,6,0,P|290:271|371:269,1,140,4|2,0:0|0:0,0:0:0:0:
445,123,151296,2,0,P|395:66|314:64,1,140,2|2,0:0|0:0,0:0:0:0:
251,67,152307,1,8,0:0:0:0:
168,79,152644,6,0,P|177:119|152:223,1,140,6|2,0:0|0:0,0:0:0:0:
118,289,153656,1,8,0:0:0:0:
190,332,153993,1,2,0:0:0:0:
358,339,154667,2,0,L|350:264,1,70,2|8,0:0|0:0,0:0:0:0:
419,221,155341,5,4,0:0:0:0:
410,137,155678,2,0,B|359:166|311:121|311:121|261:127,1,140,2|8,0:0|0:0,0:0:0:0:
199,148,156689,2,0,P|213:211|217:278,1,105,4|2,0:0|0:0,0:0:0:0:
167,319,157532,1,2,0:0:0:0:
83,316,157869,6,0,P|47:271|75:139,1,175,0|8,0:0|0:0,0:0:0:0:
123,107,159049,1,8,0:0:0:0:
205,92,159386,2,0,L|304:133,1,105,4|4,0:0|0:0,0:0:0:0:
382,156,160229,2,0,P|362:205|353:277,1,105,2|4,0:0|0:0,0:0:0:0:
52,71,170847,5,2,0:0:0:0:
134,88,171184,1,0,0:0:0:0:
196,144,171521,6,0,P|234:239|203:337,1,210,4|8,0:0|0:0,0:0:0:0:
121,319,172869,2,0,L|30:336,2,70,8|8|8,0:0|0:0|0:0,0:0:0:0:
204,338,173880,1,2,0:0:0:0:
287,330,174217,6,0,L|341:263,1,70,4|8,0:0|0:0,0:0:0:0:
281,207,174892,2,0,L|237:261,1,70,4|8,0:0|0:0,0:0:0:0:
152,261,175566,2,0,P|135:186|174:129,2,140,4|8|4,0:0|0:0|0:0,0:0:0:0:
59,62,178936,6,0,L|81:149,1,70,0|0,0:0|0:0,0:0:0:0:
92,212,179611,6,0,B|120:224|144:256|144:256|220:272,1,140,4|2,0:0|0:0,0:0:0:0:
296,288,180622,1,8,0:0:0:0:
380,272,180959,2,0,P|404:224|396:160,2,105,2|0|8,0:0|0:0|0:0,0:0:0:0:
324,208,182307,6,0,P|276:184|212:192,2,105,2|0|8,0:0|0:0|0:0,0:0:0:0:
260,264,183656,1,2,0:0:0:0:
148,212,184161,2,0,P|152:152|248:104,1,175,0|2,0:0|0:0,0:0:0:0:
328,120,185341,5,8,0:0:0:0:
304,200,185678,2,0,P|296:248|296:284,1,70,2|8,0:0|0:0,0:0:0:0:
292,352,186352,2,0,P|236:340|176:336,2,105
376,340,187701,6,0,P|413:275|405:198,2,140,2|2|4,0:0|0:0|0:0,0:0:0:0:
292,352,189386,1,12,0:0:0:0:
208,348,189723,2,0,L|128:344,1,70,12|8,0:0|0:0,0:0:0:0:
68,300,190397,6,0,B|51:271|51:232|51:232|101:169,1,140,4|0,0:0|0:0,0:3:0:0:
152,116,191408,1,8,0:0:0:0:
146,33,191745,2,0,P|97:53|69:107,2,105,2|2|8,0:0|0:0|0:0,0:0:0:0:
152,116,193094,6,0,P|191:149|242:153,2,105,2|0|8,0:0|0:0|0:0,0:0:0:0:
224,71,194442,1,2,0:0:0:0:
328,142,194947,2,0,P|313:200|210:230,1,175,0|4,0:0|0:0,0:0:0:0:
133,206,196127,5,0,0:0:0:0:
127,289,196464,2,0,P|137:327|125:364,1,70,8|8,0:0|0:0,0:0:0:0:
52,328,197138,2,0,P|38:264|52:190,1,140,2|8,0:0|0:0,0:0:0:0:
102,122,198149,1,8,0:0:0:0:
185,143,198487,6,0,P|192:217|152:283,2,140,4|8|8,0:0|0:0|0:0,0:0:0:0:
155,63,200172,1,2,0:0:0:0:
238,73,200509,2,0,L|316:90,1,70,2|2,0:0|0:0,0:0:0:0:
355,157,201184,6,0,L|286:287,1,140,4|2,0:0|0:0,0:0:0:0:
122,281,202533,2,0,L|188:156,1,140,2|2,0:0|0:0,0:0:0:0:
271,147,203544,1,0,0:0:0:0:
355,157,203881,5,4,0:0:0:0:
388,321,204554,2,0,P|360:354|330:365,2,70,2|8|8,0:0|0:3|0:0,0:0:0:0:
256,192,205903,12,2,207925,0:0:0:0:
368,88,208599,5,4,0:0:0:0:
412,160,208936,2,0,P|428:220|388:304,1,140,8|8,0:0|0:0,0:0:0:0:
320,316,209947,2,0,P|280:312|232:316,1,70,2|8,0:0|0:0,0:0:0:0:
168,336,210621,2,0,P|133:328|101:315,1,70,0|8,0:0|0:0,0:0:0:0:
36,264,211295,6,0,P|68:212|80:160,1,105,2|0,0:0|0:0,0:0:0:0:
84,84,212138,1,2,0:0:0:0:
168,96,212475,2,0,L|312:120,1,140,0|2,0:0|0:0,0:0:0:0:
384,148,213486,2,0,P|408:200|396:256,1,105,2|2,0:0|0:0,0:0:0:0:
320,264,214329,6,0,P|285:269|257:289,2,70,8|2|8,0:0|0:0|0:0,0:0:0:0:
320,348,215340,2,0,P|250:375|190:344,1,140,2|0,0:0|0:0,0:0:0:0:
182,265,216351,1,8,0:0:0:0:
216,188,216688,6,0,L|184:116,1,70,12|8,0:0|0:3,0:0:0:0:
272,116,217363,2,0,L|300:179,1,70,8|12,0:3|0:0,0:0:0:0:
388,324,218374,2,0,P|432:304|456:280,2,70,8|8|8,0:0|0:0|0:0,0:0:0:0:
304,332,219385,5,4,0:0:0:0:
220,324,219722,2,0,B|192:296|160:292|160:292|144:264|144:216,1,140,8|8,0:0|0:0,0:0:0:0:
180,148,220733,2,0,P|216:124|240:104,1,70,2|8,0:0|0:0,0:0:0:0:
304,56,221407,2,0,P|338:50|373:48,1,70,0|8,0:0|0:0,0:0:0:0:
452,80,222082,6,0,P|468:132|468:188,1,105,4|0,0:0|0:0,0:0:0:0:
409,241,222924,2,0,L|329:229,1,70,2|0,0:0|0:0,0:0:0:0:
224,180,223767,2,0,P|216:144|196:108,2,70,8|2|8,0:0|0:0|0:0,0:0:0:0:
224,264,224778,5,2,0:0:0:0:
296,306,225115,2,0,P|330:317|365:319,2,70,8|2|8,0:0|0:0|0:0,0:0:0:0:
224,264,226127,1,8,0:0:0:0:
150,305,226464,2,0,P|124:328|105:357,2,70,0|8|4,0:0|0:0|0:3,0:0:0:0:
224,264,227475,6,0,P|248:196|232:120,1,140,4|8,0:0|0:0,0:0:0:0:
120,248,228823,2,0,P|133:318|204:368,2,140,2|8|4,0:0|0:0|0:0,0:0:0:0:
168,132,230677,6,0,P|180:92|180:60,2,70,0|8|0,0:0|0:0|0:0,0:0:0:0:
120,248,231857,2,0,L|40:272,2,70,8|2|2,0:0|0:0|0:0,0:0:0:0:
204,236,232868,6,0,P|252:236|328:288,1,140,4|2,0:0|0:0,0:0:0:0:
372,356,233879,1,8,0:0:0:0:
436,300,234216,2,0,P|456:256|460:224,1,70,2|8,0:0|0:0,0:0:0:0:
388,188,234891,2,0,P|383:139|370:110,1,70,2|8,0:0|0:0,0:0:0:0:
312,64,235565,5,2,0:0:0:0:
232,84,235902,2,0,P|188:84|152:72,2,70,12|2|12,0:0|0:0|0:0,0:0:0:0:
312,64,236913,1,4,0:0:0:0:
432,180,237587,2,0,L|408:252,2,70,2|0|2,0:0|0:0|0:0,0:0:0:0:
96,192,239610,5,2,0:0:0:0:
400,336,240958,6,0,P|432:296|440:232,2,105,8|8|8,0:0|0:3|0:0,0:0:0:0:
316,344,242306,1,4,0:0:0:0:
192,336,242812,2,0,P|123:336|72:346,1,105,4|8,0:0|0:0,0:0:0:0:
256,192,243655,12,4,245003,0:0:0:0:
256,192,254104,12,4,255790,0:0:0:0:
160,152,256464,6,0,P|172:200|176:240,1,70,2|8,0:0|0:0,0:0:0:0:
176,304,257138,2,0,P|256:332|320:308,1,140,2|0,0:0|0:0,0:0:0:0:
376,272,258149,1,8,0:0:0:0:
416,200,258486,6,0,P|420:160|412:120,1,70,2|8,0:0|0:0,0:0:0:0:
332,124,259160,2,0,P|306:92|272:70,1,70,2|8,0:0|0:0,0:0:0:0:
204,48,259834,1,2,0:0:0:0:
160,120,260172,2,0,P|168:172|164:200,2,70,8|0|8,0:0|0:0|0:0,0:0:0:0:
256,192,261183,12,2,263879,0:0:0:0:
340,132,264405,6,0,P|328:188|336:252,1,105,2|2,0:0|0:0,0:0:0:0:
256,192,265019,12,0,267387,0:0:0:0:
