osu file format v12

[General]
AudioFilename: CLICK (TV Size).mp3
AudioLeadIn: 1000
PreviewTime: 49184
Countdown: 0
SampleSet: Soft
StackLeniency: 0.3
Mode: 0
LetterboxInBreaks: 0
WidescreenStoryboard: 1

[Editor]
DistanceSpacing: 0.6
BeatDivisor: 4
GridSize: 8

[Metadata]
Title:CLICK (TV Size)
TitleUnicode:CLICK (TV Size)
Artist:ClariS
ArtistUnicode:ClariS
Creator:No_Gu
Version:Hard
Source:Nisekoi
Tags:ニセコイ kz livetune
BeatmapID:357410
BeatmapSetID:143387

[Difficulty]
HPDrainRate:6
CircleSize:4
OverallDifficulty:6
ApproachRate:7
SliderMultiplier:1.44
SliderTickRate:1

[Events]
//Background and Video events
0,0,"bg.jpg",0,0
Video,1084,"video.avi"
//Break Periods
//Storyboard Layer 0 (Background)
//Storyboard Layer 1 (Fail)
//Storyboard Layer 2 (Pass)
//Storyboard Layer 3 (Foreground)
//Storyboard Sound Samples
//Background Colour Transformations
3,100,163,162,255

[TimingPoints]
1185,444.444444444444,4,2,1,70,1,0
1185,-133.333333333333,4,2,1,70,0,0
8296,-100,4,1,1,30,0,0
8518,-100,4,1,1,50,0,0
8629,-100,4,1,1,30,0,0
8740,-100,4,1,1,50,0,0
8851,-100,4,1,1,30,0,0
9184,-100,4,1,1,50,0,0
9296,-100,4,1,1,30,0,0
9629,-100,4,2,1,70,0,0
10073,-90.9090909090909,4,2,1,70,0,0
15851,-90.9090909090909,4,2,2,100,0,0
15962,-90.9090909090909,4,2,1,70,0,0
16740,-90.9090909090909,4,2,2,100,0,0
16851,-90.9090909090909,4,2,1,70,0,0
17184,-100,4,1,1,65,0,0
17296,-100,4,2,1,70,0,0
17629,-100,4,1,1,65,0,0
17740,-100,4,2,1,70,0,0
18073,-100,4,1,1,65,0,0
18184,-100,4,2,1,70,0,0
18518,-100,4,1,1,65,0,0
18629,-100,4,2,1,70,0,0
18962,-100,4,1,1,65,0,0
19073,-100,4,2,1,70,0,0
19407,-100,4,1,1,65,0,0
19518,-100,4,2,1,70,0,0
19851,-100,4,1,1,65,0,0
19962,-100,4,2,1,70,0,0
20296,-100,4,1,1,65,0,0
20407,-100,4,2,1,70,0,0
20740,-100,4,1,1,70,0,0
20851,-100,4,2,1,70,0,0
21185,-100,4,1,1,65,0,0
21296,-100,4,2,1,70,0,0
21629,-100,4,1,1,65,0,0
21740,-100,4,2,1,70,0,0
22074,-100,4,1,1,65,0,0
22185,-100,4,2,1,70,0,0
22518,-100,4,1,1,65,0,0
22629,-100,4,2,1,70,0,0
22963,-100,4,1,1,65,0,0
23074,-100,4,2,1,70,0,0
23407,-100,4,1,1,65,0,0
23518,-100,4,2,1,70,0,0
23852,-100,4,1,1,65,0,0
23963,-100,4,2,1,70,0,0
24296,-100,4,1,1,65,0,0
24408,-100,4,2,1,70,0,0
24741,-100,4,1,1,65,0,0
24852,-100,4,2,1,70,0,0
25185,-100,4,1,1,65,0,0
25296,-100,4,2,1,70,0,0
25630,-100,4,1,1,65,0,0
25741,-100,4,2,1,70,0,0
26074,-100,4,1,1,65,0,0
26185,-100,4,2,1,70,0,0
26519,-100,4,1,1,65,0,0
26630,-100,4,2,1,70,0,0
26963,-100,4,1,1,65,0,0
27074,-100,4,2,1,70,0,0
27408,-100,4,1,1,65,0,0
27519,-100,4,2,1,70,0,0
27852,-100,4,1,1,70,0,0
27963,-100,4,2,1,70,0,0
28297,-100,4,1,1,65,0,0
28408,-100,4,2,1,70,0,0
28741,-100,4,1,1,65,0,0
28852,-100,4,2,1,70,0,0
29186,-100,4,1,1,65,0,0
29297,-100,4,2,1,70,0,0
29630,-100,4,1,1,65,0,0
29741,-100,4,2,1,70,0,0
30075,-100,4,1,1,65,0,0
30186,-100,4,2,1,70,0,0
30519,-100,4,1,1,65,0,0
30630,-100,4,2,1,70,0,0
30964,-100,4,2,2,70,0,0
31075,-100,4,2,1,70,0,0
31407,-100,4,1,1,70,0,0
31518,-100,4,2,1,70,0,0
31851,-100,4,1,1,70,0,0
31962,-100,4,2,1,70,0,0
32296,-100,4,1,1,70,0,0
32407,-100,4,2,1,70,0,0
32740,-100,4,2,2,60,0,0
32851,-100,4,2,1,70,0,0
33184,-100,4,1,1,70,0,0
33296,-100,4,2,1,70,0,0
33629,-100,4,1,1,70,0,0
33740,-100,4,2,1,70,0,0
34073,-100,4,1,1,70,0,0
34184,-100,4,2,1,70,0,0
34518,-100,4,2,2,60,0,0
34629,-100,4,2,1,70,0,0
34962,-100,4,1,1,70,0,0
35073,-100,4,2,1,70,0,0
35407,-100,4,1,1,70,0,0
35518,-100,4,2,1,70,0,0
35851,-100,4,1,1,70,0,0
35962,-100,4,2,1,70,0,0
36296,-100,4,2,2,60,0,0
36407,-100,4,2,1,70,0,0
36740,-100,4,1,1,70,0,0
36851,-100,4,2,1,70,0,0
37184,-100,4,1,1,70,0,0
37296,-100,4,2,1,70,0,0
37629,-100,4,1,1,70,0,0
37740,-100,4,2,1,70,0,0
38073,-100,4,2,2,60,0,0
38184,-100,4,2,1,70,0,0
38517,-100,4,1,1,70,0,0
38629,-100,4,2,1,70,0,0
38962,-100,4,1,1,70,0,0
39073,-100,4,2,1,70,0,0
39406,-100,4,1,1,70,0,0
39517,-100,4,2,1,70,0,0
39851,-100,4,2,2,60,0,0
39962,-100,4,2,1,70,0,0
40295,-100,4,1,1,70,0,0
40406,-100,4,2,1,70,0,0
40740,-100,4,1,1,70,0,0
40851,-100,4,2,1,70,0,0
41184,-100,4,1,1,70,0,0
41295,-100,4,2,1,70,0,0
41629,-100,4,2,2,60,0,0
41740,-100,4,2,1,70,0,0
42518,-100,4,2,2,70,0,0
42629,-100,4,2,1,70,0,0
45184,-100,4,2,2,100,0,0
45407,-200,4,2,1,70,0,0
45518,-200,4,2,1,5,0,0
47407,-200,4,1,1,30,0,0
47629,-100,4,1,1,50,0,0
47740,-200,4,1,1,30,0,0
47851,-200,4,1,1,50,0,0
48073,-200,4,1,1,30,0,0
48296,-100,4,1,1,50,0,0
48407,-100,4,1,1,30,0,0
48740,-133.333333333333,4,2,1,70,0,0
49073,-133.333333333333,4,2,1,5,0,0
49184,-90.9090909090909,4,1,1,70,0,1
49296,-90.9090909090909,4,2,1,70,0,1
49629,-90.9090909090909,4,1,1,70,0,1
49740,-90.9090909090909,4,2,1,70,0,1
50073,-90.9090909090909,4,1,1,70,0,1
50184,-90.9090909090909,4,2,1,70,0,1
50518,-90.9090909090909,4,1,1,70,0,1
50629,-90.9090909090909,4,2,1,70,0,1
50962,-90.9090909090909,4,1,1,70,0,1
51073,-90.9090909090909,4,2,1,70,0,1
51407,-90.9090909090909,4,1,1,70,0,1
51518,-90.9090909090909,4,2,1,70,0,1
51851,-90.9090909090909,4,1,1,70,0,1
51962,-90.9090909090909,4,2,1,70,0,1
52296,-90.9090909090909,4,1,1,70,0,1
52407,-90.9090909090909,4,2,1,70,0,1
52740,-90.9090909090909,4,1,1,70,0,1
52851,-90.9090909090909,4,2,1,70,0,1
53184,-90.9090909090909,4,1,1,70,0,1
53296,-90.9090909090909,4,2,1,70,0,1
53629,-90.9090909090909,4,1,1,70,0,1
53740,-90.9090909090909,4,2,1,70,0,1
54073,-90.9090909090909,4,1,1,70,0,1
54184,-90.9090909090909,4,2,1,70,0,1
54518,-90.9090909090909,4,1,1,70,0,1
54629,-90.9090909090909,4,2,1,70,0,1
54962,-90.9090909090909,4,1,1,70,0,1
55073,-90.9090909090909,4,2,1,70,0,1
55407,-90.9090909090909,4,1,1,70,0,1
55518,-90.9090909090909,4,2,1,70,0,1
55851,-90.9090909090909,4,1,1,70,0,1
55962,-90.9090909090909,4,2,1,70,0,1
56296,-90.9090909090909,4,1,1,70,0,1
56408,-90.9090909090909,4,2,1,70,0,1
56741,-90.9090909090909,4,1,1,70,0,1
56852,-90.9090909090909,4,2,1,70,0,1
57185,-90.9090909090909,4,1,1,70,0,1
57296,-90.9090909090909,4,2,1,70,0,1
57630,-90.9090909090909,4,1,1,70,0,1
57741,-90.9090909090909,4,2,1,70,0,1
58074,-90.9090909090909,4,1,1,70,0,1
58185,-90.9090909090909,4,2,1,70,0,1
58519,-90.9090909090909,4,1,1,70,0,1
58630,-90.9090909090909,4,2,1,70,0,1
58963,-90.9090909090909,4,1,1,70,0,1
59074,-90.9090909090909,4,2,1,70,0,1
59408,-90.9090909090909,4,1,1,70,0,1
59519,-90.9090909090909,4,2,1,70,0,1
59852,-90.9090909090909,4,1,1,70,0,1
59963,-90.9090909090909,4,2,1,70,0,1
60296,-90.9090909090909,4,1,1,70,0,1
60408,-90.9090909090909,4,2,1,70,0,1
60741,-90.9090909090909,4,1,1,70,0,1
60852,-90.9090909090909,4,2,1,70,0,1
61185,-90.9090909090909,4,1,1,70,0,1
61296,-90.9090909090909,4,2,1,70,0,1
61630,-90.9090909090909,4,1,1,70,0,1
61741,-90.9090909090909,4,2,1,70,0,1
62074,-90.9090909090909,4,1,1,70,0,1
62185,-90.9090909090909,4,2,1,70,0,1
62519,-90.9090909090909,4,1,1,70,0,1
62630,-90.9090909090909,4,2,1,70,0,1
62963,-90.9090909090909,4,2,2,100,0,1
63074,-90.9090909090909,4,2,1,70,0,1
63296,-90.9090909090909,4,2,1,70,0,0
63407,-90.9090909090909,4,1,1,70,0,1
63520,-90.9090909090909,4,2,1,70,0,1
63853,-90.9090909090909,4,1,1,70,0,1
63964,-90.9090909090909,4,2,1,70,0,1
64297,-90.9090909090909,4,1,1,70,0,1
64408,-90.9090909090909,4,2,1,70,0,1
64742,-90.9090909090909,4,1,1,70,0,1
64853,-90.9090909090909,4,2,1,70,0,1
65186,-90.9090909090909,4,1,1,70,0,1
65297,-90.9090909090909,4,2,1,70,0,1
65631,-90.9090909090909,4,1,1,70,0,1
65742,-90.9090909090909,4,2,1,70,0,1
66075,-90.9090909090909,4,1,1,70,0,1
66186,-90.9090909090909,4,2,1,70,0,1
66520,-90.9090909090909,4,1,1,70,0,1
66631,-90.9090909090909,4,2,1,70,0,1
66964,-90.9090909090909,4,1,1,70,0,1
67075,-90.9090909090909,4,2,1,70,0,1
67408,-90.9090909090909,4,1,1,70,0,1
67520,-90.9090909090909,4,2,1,70,0,1
67853,-90.9090909090909,4,1,1,70,0,1
67964,-90.9090909090909,4,2,1,70,0,1
68297,-90.9090909090909,4,1,1,70,0,1
68408,-90.9090909090909,4,2,1,70,0,1
68742,-90.9090909090909,4,1,1,70,0,1
68853,-90.9090909090909,4,2,1,70,0,1
69186,-90.9090909090909,4,1,1,70,0,1
69297,-90.9090909090909,4,2,1,70,0,1
69631,-90.9090909090909,4,1,1,70,0,1
69742,-90.9090909090909,4,2,1,70,0,1
70075,-90.9090909090909,4,2,2,100,0,1
70186,-90.9090909090909,4,2,1,70,0,1
70520,-90.9090909090909,4,1,1,70,0,1
70632,-90.9090909090909,4,2,1,70,0,1
70965,-90.9090909090909,4,1,1,70,0,1
71076,-90.9090909090909,4,2,1,70,0,1
71409,-90.9090909090909,4,1,1,70,0,1
71520,-90.9090909090909,4,2,1,70,0,1
71854,-90.9090909090909,4,1,1,70,0,1
71965,-90.9090909090909,4,2,1,70,0,1
72298,-90.9090909090909,4,1,1,70,0,1
72409,-90.9090909090909,4,2,1,70,0,1
72743,-90.9090909090909,4,1,1,70,0,1
72854,-90.9090909090909,4,2,1,70,0,1
73187,-90.9090909090909,4,1,1,70,0,1
73298,-90.9090909090909,4,2,1,70,0,1
73632,-90.9090909090909,4,1,1,70,0,1
73743,-90.9090909090909,4,2,1,70,0,1
74076,-90.9090909090909,4,1,1,70,0,1
74187,-90.9090909090909,4,2,1,70,0,1
74520,-90.9090909090909,4,1,1,70,0,1
74632,-90.9090909090909,4,2,1,70,0,1
74965,-90.9090909090909,4,1,1,70,0,1
75076,-90.9090909090909,4,2,1,70,0,1
75409,-90.9090909090909,4,1,1,70,0,1
75520,-90.9090909090909,4,2,1,70,0,1
75854,-90.9090909090909,4,1,1,70,0,1
75965,-90.9090909090909,4,2,1,70,0,1
76298,-90.9090909090909,4,1,1,70,0,1
76409,-90.9090909090909,4,2,1,70,0,1
76743,-90.9090909090909,4,1,1,70,0,1
76854,-90.9090909090909,4,2,1,70,0,1
77187,-90.9090909090909,4,2,2,70,0,1
77259,-90.9090909090909,4,2,1,70,0,1
77629,-90.9090909090909,4,2,1,70,0,0
84296,-90.9090909090909,4,2,2,100,0,0
84407,-90.9090909090909,4,2,1,70,0,0

[Colours]
Combo1 : 128,255,128
Combo2 : 255,255,128
Combo3 : 128,255,255
Combo4 : 255,128,128

[HitObjects]
80,144,1185,6,0,P|88:200|64:248,2,108.000004119873,2|0|2,0:0|0:0|0:0,0:0:0:0:
136,80,2296,1,0,0:0:0:0:
208,120,2518,2,0,L|280:120,1,54.0000020599366,2|0,0:0|0:0,0:0:0:0:
328,264,2962,6,0,P|296:264|248:224,2,81.0000030899049,0|2|0,0:0|0:0|0:0,0:0:0:0:
392,208,3851,2,0,P|416:264|400:312,1,108.000004119873,0|2,0:0|0:0,0:0:0:0:
320,344,4518,1,0,0:0:0:0:
392,208,4740,6,0,L|488:200,2,81.0000030899049,0|2|0,0:0|0:0|0:0,0:0:0:0:
256,152,5629,2,0,L|208:156,3,27.0000010299683,2|0|2|0,0:0|0:0|0:0|0:0,0:0:0:0:
192,136,6073,2,0,P|184:112|184:80,1,54.0000020599366,2|0,0:0|0:0,0:0:0:0:
192,224,6518,6,2,P|160:248|104:248,2,81.0000030899049,0|0|0,0:0|0:0|0:0,0:0:0:0:
312,272,7407,2,2,P|344:248|400:248,2,81.0000030899049,0|0|0,0:0|0:0|0:0,0:0:0:0:
232,336,8296,6,0,L|168:328,3,36,0|0|8|0,0:0|0:0|0:3|0:0,0:0:0:0:
176,312,8740,2,0,L|112:304,3,36,8|0|0|0,0:3|0:0|0:0|0:0,0:0:0:0:
112,288,9184,2,0,L|48:280,2,36,8|0|0,0:3|0:0|0:0,0:0:0:0:
280,160,9629,2,0,L|312:164,5,24,0|2|0|2|0|2,1:0|0:0|0:0|0:0|0:0|0:0,0:0:0:0:
312,168,10073,6,0,P|344:224|336:288,1,118.800003625488,4|2,1:0|0:0,0:0:0:0:
320,304,10518,1,8,1:0:0:0:
168,272,10740,2,0,L|248:264,1,79.2000024169923,2|0,0:0|1:0,0:0:0:0:
96,336,11184,2,0,L|16:328,1,79.2000024169923,0|8,0:0|1:0,0:0:0:0:
24,240,11629,1,2,0:0:0:0:
24,240,11740,1,2,0:0:0:0:
24,240,11851,6,0,P|48:192|32:120,1,118.800003625488,0|2,1:0|0:0,0:0:0:0:
16,104,12296,1,8,1:0:0:0:
128,152,12518,2,0,L|208:144,1,79.2000024169923,2|0,0:0|1:0,0:0:0:0:
296,192,12962,2,0,L|376:184,1,79.2000024169923,0|8,0:0|1:0,0:0:0:0:
464,232,13407,1,2,0:0:0:0:
464,232,13518,1,2,0:0:0:0:
464,232,13629,6,0,P|496:192|480:120,1,118.800003625488,0|2,1:0|0:0,0:0:0:0:
456,96,14073,1,8,1:0:0:0:
384,264,14296,2,0,L|416:336,1,79.2000024169923,2|0,0:0|1:0,0:0:0:0:
312,312,14740,2,0,P|272:312|232:336,1,79.2000024169923,0|8,0:0|1:0,0:0:0:0:
128,336,15184,1,2,0:0:0:0:
128,336,15296,1,2,0:0:0:0:
128,336,15407,5,0,1:0:0:0:
184,232,15629,1,0,0:0:0:0:
88,152,15851,1,4,0:1:0:0:
88,152,15962,2,0,L|80:264,1,79.2000024169923,2|8,0:0|0:0,0:0:0:0:
256,144,16518,2,0,P|248:72|240:64,1,79.2000024169923,2|0,0:0|0:0,0:0:0:0:
216,56,16851,1,0,0:0:0:0:
216,56,16962,1,0,0:0:0:0:
208,208,17184,6,0,P|264:224|328:176,1,144,4|0,0:0|0:0,0:0:0:0:
384,112,17851,1,2,0:0:0:0:
408,192,18073,2,0,L|488:184,1,72,0|2,0:0|0:0,0:0:0:0:
440,288,18518,2,0,L|360:280,1,72,0|2,0:0|0:0,0:0:0:0:
296,336,18962,6,0,L|288:184,1,144
216,136,19629,1,2,0:0:0:0:
128,160,19851,2,0,P|88:160|48:128,1,72,0|2,0:0|0:0,0:0:0:0:
120,80,20296,1,0,0:0:0:0:
200,112,20518,2,0,P|216:144|216:184,1,72,2|0,0:0|0:0,0:0:0:0:
56,344,21184,5,0,0:0:0:0:
280,304,21629,2,0,L|352:304,1,72,0|2,0:0|0:0,0:0:0:0:
424,360,22073,1,0,0:0:0:0:
496,304,22296,2,0,P|504:280|504:224,1,72,2|0,0:0|0:0,0:0:0:0:
448,152,22740,5,2,0:0:0:0:
448,152,22851,1,0,0:0:0:0:
448,152,22962,1,0,0:0:0:0:
376,216,23184,2,0,L|288:208,1,72,2|0,0:0|0:0,0:0:0:0:
288,120,23629,2,0,L|359:126,1,72,2|0,0:0|0:0,0:0:0:0:
224,304,24296,6,0,P|176:272|168:192,2,144
304,272,25407,2,0,P|312:312|296:352,1,72,2|0,0:0|0:0,0:0:0:0:
368,208,25851,2,0,P|360:168|376:128,1,72,2|0,0:0|0:0,0:0:0:0:
440,80,26296,1,2,0:0:0:0:
440,80,26407,1,0,0:0:0:0:
440,80,26518,5,0,0:0:0:0:
256,264,26962,1,0,0:0:0:0:
72,80,27407,1,0,0:0:0:0:
128,144,27629,1,2,0:0:0:0:
48,168,27851,6,0,L|48:320,1,144
112,368,28518,1,2,0:0:0:0:
112,368,28629,1,0,0:0:0:0:
112,368,28740,2,0,P|176:360|216:296,1,144
304,272,29407,2,0,L|296:200,1,72,2|0,0:0|0:0,0:0:0:0:
384,168,29851,6,0,L|392:240,1,72,2|0,0:0|0:0,0:0:0:0:
480,264,30296,1,0,0:0:0:0:
480,264,30407,1,8,0:0:0:0:
480,264,30518,1,0,0:0:0:0:
456,120,30740,2,0,P|424:88|392:80,1,72
176,248,31407,6,0,B|128:248|128:248|80:232|80:232|32:232,2,144,4|8|0,0:0|0:0|0:0,0:0:0:0:
160,168,32518,2,0,L|168:96,1,72,0|8,0:0|0:0,0:0:0:0:
240,40,32962,1,0,0:0:0:0:
304,104,33184,6,0,L|416:104,1,108
424,120,33629,1,8,0:0:0:0:
480,224,33851,2,0,P|448:240|400:232,1,72
296,304,34296,2,0,P|266:284|249:238,1,72,0|8,0:0|0:0,0:0:0:0:
272,168,34740,1,0,0:0:0:0:
168,248,34962,6,0,L|56:240,1,108
40,248,35407,1,8,0:0:0:0:
104,160,35629,2,0,L|96:88,1,72
184,48,36073,2,0,L|192:120,1,72,0|8,0:0|0:0,0:0:0:0:
272,168,36518,1,0,0:0:0:0:
352,120,36740,6,0,P|424:104|488:136,2,144,0|8|0,0:0|0:0|0:0,0:0:0:0:
408,264,37851,2,0,P|416:224|408:192,1,72,8|8,0:0|0:0,0:0:0:0:
328,224,38296,1,0,0:0:0:0:
328,224,38407,1,8,0:0:0:0:
328,224,38518,6,0,P|320:280|384:344,1,144,4|8,0:0|0:0,0:0:0:0:
456,328,39184,1,0,0:0:0:0:
504,256,39407,2,0,P|512:216|496:168,1,72
400,96,39851,2,0,P|392:136|408:184,1,72,8|0,0:0|0:0,0:0:0:0:
328,224,40296,6,0,L|208:216,1,108
200,232,40740,2,0,L|116:226,1,72,8|0,0:0|0:0,0:0:0:0:
64,80,41184,2,0,L|135:84,1,72
208,136,41629,1,8,0:0:0:0:
288,96,41851,6,0,B|312:64|304:24|304:24|336:40|344:80,1,144,4|0,1:0|1:0,0:0:0:0:
416,136,42518,2,0,P|416:176|392:208,1,72,8|0,0:0|1:0,0:0:0:0:
320,232,42962,1,8,2:0:0:0:
392,288,43184,2,0,L|464:280,1,72,0|0,1:0|1:0,0:0:0:0:
312,320,43629,6,0,P|264:320|224:240,1,144,4|0,1:0|1:0,0:0:0:0:
264,152,44296,1,8,1:0:0:0:
192,88,44518,1,0,0:0:0:0:
184,80,44629,1,8,0:0:0:0:
176,72,44740,2,0,L|184:32,2,36
112,248,45184,1,0,0:0:0:0:
64,304,45407,6,0,P|184:248|64:192,1,324,4|0,1:0|1:0,0:0:0:0:
112,80,47629,6,0,L|104:8,1,72,8|8,0:3|0:3,0:0:0:0:
248,48,48073,1,0,0:0:0:0:
245,74,48184,1,0,0:0:0:0:
242,101,48295,1,8,0:3:0:0:
239,128,48406,1,0,0:0:0:0:
236,155,48517,1,0,0:0:0:0:
360,288,48740,1,4,0:3:0:0:
360,288,49184,6,0,P|312:272|216:336,1,158.400004833985,4|8,0:0|0:0,0:0:0:0:
144,288,49851,1,2,0:0:0:0:
144,288,49962,1,8,0:0:0:0:
144,288,50073,2,0,L|136:208,1,79.2000024169923,0|2,0:0|0:0,0:0:0:0:
32,224,50518,2,0,L|39:145,1,79.2000024169923,8|2,0:0|0:0,0:0:0:0:
104,80,50962,6,0,P|152:64|224:88,1,118.800003625488,0|2,0:0|0:0,0:0:0:0:
232,112,51407,1,8,0:0:0:0:
328,96,51629,2,0,P|336:64|336:16,1,79.2000024169923,2|0,0:0|0:0,0:0:0:0:
440,272,52296,1,8,0:0:0:0:
360,240,52518,1,2,0:0:0:0:
368,328,52740,6,0,L|216:328,1,118.800003625488,0|2,0:0|0:0,0:0:0:0:
216,312,53184,2,0,P|200:280|208:232,1,79.2000024169923,8|2,0:0|0:0,0:0:0:0:
240,160,53629,2,0,P|200:224|120:216,1,158.400004833985,0|8,0:0|0:0,0:0:0:0:
160,144,54296,1,2,0:0:0:0:
288,96,54518,6,0,P|320:160|304:216,1,118.800003625488,0|2,0:0|0:0,0:0:0:0:
296,224,54962,2,0,L|376:216,1,79.2000024169923,8|2,0:0|0:0,0:0:0:0:
464,120,55407,1,0,0:0:0:0:
464,120,55518,1,0,0:0:0:0:
464,120,55629,1,2,0:0:0:0:
504,248,55851,1,4,0:3:0:0:
504,248,56296,6,0,B|480:224|480:224|456:288|376:272,1,158.400004833985,0|8,0:0|0:0,0:0:0:0:
320,208,56962,1,2,0:0:0:0:
296,288,57184,2,0,L|304:368,1,79.2000024169923,0|2,0:0|0:0,0:0:0:0:
208,272,57629,2,0,L|216:192,1,79.2000024169923,8|2,0:0|0:0,0:0:0:0:
136,280,58073,6,0,P|96:296|24:272,1,118.800003625488,0|2,0:0|0:0,0:0:0:0:
8,240,58518,1,8,0:0:0:0:
96,128,58740,2,0,L|88:224,1,79.2000024169923,2|0,0:0|0:0,0:0:0:0:
368,64,59407,1,8,0:0:0:0:
288,40,59629,1,2,0:0:0:0:
304,120,59851,6,0,P|352:144|416:128,1,118.800003625488,0|2,0:0|0:0,0:0:0:0:
440,112,60296,2,0,L|432:200,1,79.2000024169923,8|2,0:0|0:0,0:0:0:0:
336,240,60740,2,0,L|344:328,1,79.2000024169923,0|2,0:0|0:0,0:0:0:0:
336,336,61073,1,0,0:0:0:0:
328,352,61184,1,8,0:0:0:0:
176,320,61407,1,2,0:0:0:0:
264,192,61629,6,0,P|320:192|376:224,1,118.800003625488
384,240,62073,1,8,0:0:0:0:
392,256,62184,1,0,0:0:0:0:
400,272,62296,1,2,0:0:0:0:
504,152,62518,1,0,0:0:0:0:
496,168,62629,1,0,0:0:0:0:
488,184,62741,1,2,0:0:0:0:
416,96,62962,2,0,P|408:48|424:16,1,79.2000024169923,4|2,0:1|0:0,0:0:0:0:
376,208,63407,6,0,L|208:200,1,158.400004833985,4|8,0:0|0:0,0:0:0:0:
152,136,64073,1,2,0:0:0:0:
128,224,64296,2,0,L|136:320,1,79.2000024169923,0|2,0:0|0:0,0:0:0:0:
240,352,64740,2,0,L|233:273,1,79.2000024169923,8|2,0:0|0:0,0:0:0:0:
312,200,65184,6,0,P|360:176|424:192,1,118.800003625488,0|2,0:0|0:0,0:0:0:0:
448,216,65629,1,8,0:0:0:0:
496,120,65851,2,0,L|488:40,1,79.2000024169923,2|0,0:0|0:0,0:0:0:0:
384,16,66296,2,0,L|391:94,1,79.2000024169923,2|8,0:0|0:0,0:0:0:0:
328,168,66740,1,2,0:0:0:0:
240,136,66962,6,0,L|120:136,1,118.800003625488,0|2,0:0|0:0,0:0:0:0:
104,152,67407,1,8,0:0:0:0:
160,296,67629,2,0,L|168:216,1,79.2000024169923,2|0,0:0|0:0,0:0:0:0:
304,328,68073,2,0,L|296:249,1,79.2000024169923,2|8,0:0|0:0,0:0:0:0:
352,176,68518,1,2,0:0:0:0:
512,248,68740,6,0,P|472:288|408:272,1,118.800003625488,0|2,0:0|0:0,0:0:0:0:
384,256,69184,1,8,0:0:0:0:
448,184,69407,1,2,0:0:0:0:
336,336,69629,2,0,P|296:280|312:192,1,158.400004833985,0|0,0:0|0:0,0:0:0:0:
376,128,70296,1,2,0:0:0:0:
224,160,70518,6,0,L|136:152,1,79.2000024169923,0|2,0:0|0:0,0:0:0:0:
120,56,70962,2,0,L|198:63,1,79.2000024169923,8|2,0:0|0:0,0:0:0:0:
136,240,71407,2,0,P|72:216|64:128,1,158.400004833985,0|8,0:0|0:0,0:0:0:0:
208,200,72073,1,2,0:0:0:0:
208,200,72184,1,0,0:0:0:0:
208,200,72296,6,0,P|216:256|176:312,1,118.800003625488,0|2,0:0|0:0,0:0:0:0:
152,328,72740,2,0,L|72:320,1,79.2000024169923,8|2,0:0|0:0,0:0:0:0:
0,192,73184,1,0,0:0:0:0:
0,192,73629,1,8,0:0:0:0:
56,128,73851,1,2,0:0:0:0:
88,208,74073,6,0,L|208:208,1,118.800003625488,0|2,0:0|0:0,0:0:0:0:
240,200,74518,2,0,P|256:168|248:112,1,79.2000024169923,8|2,0:0|0:0,0:0:0:0:
352,184,74962,2,0,P|322:243|337:346,1,158.400004833985,0|8,0:0|0:0,0:0:0:0:
408,368,75629,1,2,0:0:0:0:
472,312,75851,6,0,L|456:192,1,118.800003625488,0|2,0:0|0:0,0:0:0:0:
464,176,76296,1,8,0:0:0:0:
416,80,76518,1,2,0:0:0:0:
320,128,76740,2,0,L|232:128,1,79.2000024169923,8|2,0:3|0:0,0:0:0:0:
88,216,77184,2,0,L|56:208,5,26.4000008056641,0|2|0|2|0|2,0:0|0:0|0:0|0:0|0:0|0:0,0:0:0:0:
96,224,77629,6,0,P|112:272|80:336,1,118.800003625488,4|2,1:0|0:0,0:0:0:0:
56,344,78073,1,8,1:0:0:0:
184,328,78296,2,0,L|264:344,1,79.2000024169923,2|0,0:0|1:0,0:0:0:0:
320,256,78740,2,0,L|242:240,1,79.2000024169923,0|8,0:0|1:0,0:0:0:0:
168,168,79184,1,2,0:0:0:0:
168,168,79296,1,2,0:0:0:0:
168,168,79407,6,0,P|160:104|192:56,1,118.800003625488,2|2,1:0|0:0,0:0:0:0:
192,24,79851,2,0,P|240:0|280:8,1,79.2000024169923,8|2,1:0|0:0,0:0:0:0:
336,56,80296,1,0,1:0:0:0:
336,56,80407,1,0,0:0:0:0:
336,56,80518,1,0,0:0:0:0:
352,144,80740,2,0,L|344:240,1,79.2000024169923,8|2,1:0|0:0,0:0:0:0:
344,240,81073,1,2,0:0:0:0:
344,256,81184,6,0,P|280:280|224:264,1,118.800003625488,0|2,1:0|0:0,0:0:0:0:
208,240,81629,1,8,1:0:0:0:
136,112,81851,2,0,L|128:200,1,79.2000024169923,2|0,0:0|1:0,0:0:0:0:
248,120,82296,2,0,L|240:32,1,79.2000024169923,0|8,0:0|1:0,0:0:0:0:
312,184,82740,1,0,0:0:0:0:
312,184,82851,1,8,0:0:0:0:
312,184,82962,6,0,P|352:200|400:192,1,79.2000024169923,0|2,1:0|0:0,0:0:0:0:
456,128,83407,1,8,1:0:0:0:
456,128,83518,1,2,0:0:0:0:
424,280,83740,1,8,0:0:0:0:
424,280,83851,2,0,L|432:320,1,39.6000012084961,0|8,0:0|0:0,0:0:0:0:
416,344,84073,2,0,P|376:360|336:352,1,79.2000024169923,2|0,0:0|0:0,0:0:0:0:
264,256,84518,1,0,0:0:0:0:
320,144,84740,6,0,L|448:152,1,118.800003625488,0|0,1:0|1:0,0:0:0:0:
456,168,85184,1,8,0:0:0:0:
352,56,85407,2,0,L|224:64,1,118.800003625488,0|4,1:0|0:3,0:0:0:0:
112,200,85962,2,0,L|48:196,1,39.6000012084961,4|4,0:3|1:0,0:0:0:0:
256,192,86184,12,2,88240,0:0:0:0:
