osu file format v12

[General]
AudioFilename: CLICK (TV Size).mp3
AudioLeadIn: 0
PreviewTime: 47850
Countdown: 0
SampleSet: Soft
StackLeniency: 0.7
Mode: 3
LetterboxInBreaks: 0
SpecialStyle: 0
WidescreenStoryboard: 1

[Editor]
Bookmarks: 29628,81183
DistanceSpacing: 0.8
BeatDivisor: 4
GridSize: 16
TimelineZoom: 1.5

[Metadata]
Title:CLICK (TV Size)
TitleUnicode:CLICK (TV Size)
Artist:ClariS
ArtistUnicode:ClariS
Creator:Luckman
Version:7K MX
Source:Nisekoi
Tags:Anime
BeatmapID:415533
BeatmapSetID:161332

[Difficulty]
HPDrainRate:7
CircleSize:7
OverallDifficulty:7
ApproachRate:5
SliderMultiplier:1.4
SliderTickRate:1

[Events]
//Background and Video events
0,0,"bg.jpg",0,0
Video,1084,"video.avi"
//Break Periods
//Storyboard Layer 0 (Background)
//Storyboard Layer 1 (Fail)
//Storyboard Layer 2 (Pass)
//Storyboard Layer 3 (Foreground)
//Storyboard Sound Samples
//Background Colour Transformations
3,100,163,162,255

[TimingPoints]
1185,444.436654275095,4,2,0,60,1,0
49184,-100,4,2,0,60,0,1
84739,-100,4,2,0,60,0,0

[HitObjects]
475,192,1185,5,0,0:0:0:0:
36,192,1185,128,0,2073:0:0:0:0:
109,192,1185,1,0,0:0:0:0:
329,192,1296,1,0,0:0:0:0:
182,192,1407,1,0,0:0:0:0:
329,192,1518,1,0,0:0:0:0:
475,192,1629,1,0,0:0:0:0:
256,192,1740,1,0,0:0:0:0:
402,192,1851,1,0,0:0:0:0:
109,192,1962,1,0,0:0:0:0:
256,192,2073,1,0,0:0:0:0:
475,192,2073,128,0,2962:0:0:0:0:
182,192,2184,1,0,0:0:0:0:
329,192,2296,1,0,0:0:0:0:
256,192,2407,1,0,0:0:0:0:
402,192,2518,1,0,0:0:0:0:
36,192,2629,1,0,0:0:0:0:
109,192,2740,1,0,0:0:0:0:
182,192,2851,1,0,0:0:0:0:
256,192,2962,1,0,0:0:0:0:
329,192,2962,128,0,3407:0:0:0:0:
36,192,3073,1,0,0:0:0:0:
182,192,3184,1,0,0:0:0:0:
256,192,3296,1,0,0:0:0:0:
182,192,3407,1,0,0:0:0:0:
109,192,3407,128,0,3851:0:0:0:0:
256,192,3518,1,0,0:0:0:0:
36,192,3629,1,0,0:0:0:0:
182,192,3740,1,0,0:0:0:0:
329,192,3851,1,0,0:0:0:0:
475,192,3851,128,0,4296:0:0:0:0:
182,192,3962,1,0,0:0:0:0:
36,192,4073,1,0,0:0:0:0:
182,192,4184,1,0,0:0:0:0:
329,192,4296,1,0,0:0:0:0:
402,192,4296,128,0,4740:0:0:0:0:
36,192,4407,1,0,0:0:0:0:
182,192,4518,1,0,0:0:0:0:
329,192,4629,1,0,0:0:0:0:
475,192,4740,1,0,0:0:0:0:
36,192,4740,128,0,5629:0:0:0:0:
402,192,4851,1,0,0:0:0:0:
475,192,4962,1,0,0:0:0:0:
182,192,5073,1,0,0:0:0:0:
329,192,5184,1,0,0:0:0:0:
109,192,5296,1,0,0:0:0:0:
402,192,5407,1,0,0:0:0:0:
109,192,5518,1,0,0:0:0:0:
402,192,5629,1,0,0:0:0:0:
182,192,5629,128,0,6518:0:0:0:0:
36,192,5740,1,0,0:0:0:0:
475,192,5851,1,0,0:0:0:0:
36,192,5962,1,0,0:0:0:0:
475,192,6073,1,0,0:0:0:0:
256,192,6184,1,0,0:0:0:0:
402,192,6296,1,0,0:0:0:0:
256,192,6407,1,0,0:0:0:0:
402,192,6518,1,0,0:0:0:0:
109,192,6518,128,0,7407:0:0:0:0:
256,192,6629,1,0,0:0:0:0:
329,192,6740,1,0,0:0:0:0:
402,192,6851,1,0,0:0:0:0:
475,192,6962,1,0,0:0:0:0:
182,192,6962,1,0,0:0:0:0:
256,192,7073,1,0,0:0:0:0:
329,192,7184,1,0,0:0:0:0:
402,192,7296,1,0,0:0:0:0:
36,192,7407,128,0,8295:0:0:0:0:
475,192,7407,1,0,0:0:0:0:
329,192,7518,1,0,0:0:0:0:
256,192,7629,1,0,0:0:0:0:
182,192,7740,1,0,0:0:0:0:
109,192,7851,1,0,0:0:0:0:
329,192,7962,1,0,0:0:0:0:
256,192,8073,1,0,0:0:0:0:
182,192,8184,1,0,0:0:0:0:
475,192,8295,128,0,9629:0:0:0:0:
109,192,8295,1,0,0:0:0:0:
182,192,8407,1,0,0:0:0:0:
256,192,8518,1,0,0:0:0:0:
36,192,8518,1,0,0:0:0:0:
329,192,8629,1,0,0:0:0:0:
182,192,8740,1,0,0:0:0:0:
256,192,8851,1,0,0:0:0:0:
329,192,8962,1,0,0:0:0:0:
109,192,8962,1,0,0:0:0:0:
402,192,9073,1,0,0:0:0:0:
36,192,9184,1,0,0:0:0:0:
109,192,9295,1,0,0:0:0:0:
182,192,9407,1,0,0:0:0:0:
329,192,9407,1,0,0:0:0:0:
402,192,9407,1,0,0:0:0:0:
329,192,9629,1,0,0:0:0:0:
182,192,9629,1,0,0:0:0:0:
402,192,9629,128,0,10073:0:0:0:0:
109,192,9703,1,0,0:0:0:0:
36,192,9777,1,0,0:0:0:0:
109,192,9851,1,0,0:0:0:0:
182,192,9925,1,0,0:0:0:0:
256,192,9999,1,0,0:0:0:0:
36,192,10073,1,0,0:0:0:0:
329,192,10073,128,0,10407:0:0:0:0:
475,192,10073,1,0,0:0:0:0:
182,192,10073,1,0,0:0:0:0:
36,192,10407,128,0,10740:0:0:0:0:
182,192,10407,1,0,0:0:0:0:
109,192,10629,1,0,0:0:0:0:
402,192,10740,128,0,11073:0:0:0:0:
256,192,10740,1,0,0:0:0:0:
109,192,11073,1,0,0:0:0:0:
475,192,11073,1,0,0:0:0:0:
402,192,11184,1,0,0:0:0:0:
329,192,11295,1,0,0:0:0:0:
256,192,11407,1,0,0:0:0:0:
36,192,11407,1,0,0:0:0:0:
475,192,11407,1,0,0:0:0:0:
256,192,11629,1,0,0:0:0:0:
329,192,11740,1,0,0:0:0:0:
402,192,11851,128,0,12184:0:0:0:0:
182,192,11851,1,0,0:0:0:0:
36,192,11851,1,0,0:0:0:0:
475,192,12184,128,0,12518:0:0:0:0:
109,192,12184,1,0,0:0:0:0:
256,192,12184,1,0,0:0:0:0:
402,192,12407,1,0,0:0:0:0:
329,192,12518,128,0,13184:0:0:0:0:
36,192,12518,1,0,0:0:0:0:
182,192,12518,1,0,0:0:0:0:
256,192,12851,1,0,0:0:0:0:
402,192,12851,1,0,0:0:0:0:
182,192,12962,1,0,0:0:0:0:
109,192,13073,1,0,0:0:0:0:
36,192,13184,1,0,0:0:0:0:
475,192,13184,1,0,0:0:0:0:
182,192,13185,1,0,0:0:0:0:
329,192,13407,1,0,0:0:0:0:
182,192,13518,1,0,0:0:0:0:
109,192,13629,128,0,13962:0:0:0:0:
402,192,13629,128,0,13962:0:0:0:0:
256,192,13629,1,0,0:0:0:0:
256,192,13851,1,0,0:0:0:0:
329,192,13962,128,0,14295:0:0:0:0:
182,192,13962,1,0,0:0:0:0:
36,192,13963,128,0,14296:0:0:0:0:
475,192,14295,128,0,14962:0:0:0:0:
256,192,14295,1,0,0:0:0:0:
182,192,14296,128,0,14629:0:0:0:0:
109,192,14629,1,0,0:0:0:0:
182,192,14740,1,0,0:0:0:0:
256,192,14851,1,0,0:0:0:0:
329,192,14962,1,0,0:0:0:0:
36,192,14962,1,0,0:0:0:0:
256,192,15184,1,0,0:0:0:0:
402,192,15295,1,0,0:0:0:0:
36,192,15406,1,0,0:0:0:0:
182,192,15406,1,0,0:0:0:0:
475,192,15406,1,0,0:0:0:0:
109,192,15629,1,0,0:0:0:0:
402,192,15629,1,0,0:0:0:0:
329,192,15851,1,0,0:0:0:0:
109,192,15851,128,0,16295:0:0:0:0:
182,192,15851,1,0,0:0:0:0:
402,192,15962,128,0,16184:0:0:0:0:
256,192,15962,1,0,0:0:0:0:
182,192,16073,1,0,0:0:0:0:
475,192,16184,128,0,16518:0:0:0:0:
329,192,16184,1,0,0:0:0:0:
36,192,16184,1,0,0:0:0:0:
182,192,16295,1,0,0:0:0:0:
402,192,16518,1,0,0:0:0:0:
256,192,16518,1,0,0:0:0:0:
109,192,16518,1,0,0:0:0:0:
475,192,16740,1,0,0:0:0:0:
36,192,16740,1,0,0:0:0:0:
402,192,16851,1,0,0:0:0:0:
109,192,16851,1,0,0:0:0:0:
329,192,16962,128,0,17184:0:0:0:0:
182,192,16962,128,0,17184:0:0:0:0:
256,192,16962,1,0,0:0:0:0:
36,192,17184,1,0,0:0:0:0:
402,192,17184,128,0,17629:0:0:0:0:
256,192,17406,1,0,0:0:0:0:
182,192,17629,1,0,0:0:0:0:
329,192,17629,1,0,0:0:0:0:
256,192,17851,1,0,0:0:0:0:
329,192,17851,128,0,18073:0:0:0:0:
182,192,17962,1,0,0:0:0:0:
109,192,18073,1,0,0:0:0:0:
402,192,18073,1,0,0:0:0:0:
256,192,18295,1,0,0:0:0:0:
475,192,18295,1,0,0:0:0:0:
109,192,18295,128,0,18518:0:0:0:0:
182,192,18518,1,0,0:0:0:0:
36,192,18518,128,0,18962:0:0:0:0:
402,192,18518,1,0,0:0:0:0:
329,192,18740,128,0,18962:0:0:0:0:
109,192,18740,1,0,0:0:0:0:
182,192,18851,1,0,0:0:0:0:
475,192,18962,128,0,19406:0:0:0:0:
256,192,18962,1,0,0:0:0:0:
256,192,19184,128,0,19406:0:0:0:0:
36,192,19184,1,0,0:0:0:0:
109,192,19406,1,0,0:0:0:0:
402,192,19406,1,0,0:0:0:0:
329,192,19629,128,0,19851:0:0:0:0:
182,192,19629,1,0,0:0:0:0:
109,192,19740,1,0,0:0:0:0:
36,192,19851,1,0,0:0:0:0:
182,192,19851,1,0,0:0:0:0:
402,192,20073,128,0,20295:0:0:0:0:
256,192,20073,1,0,0:0:0:0:
182,192,20295,1,0,0:0:0:0:
109,192,20295,128,0,20740:0:0:0:0:
329,192,20517,128,0,20740:0:0:0:0:
475,192,20517,1,0,0:0:0:0:
256,192,20629,1,0,0:0:0:0:
36,192,20740,1,0,0:0:0:0:
182,192,20740,1,0,0:0:0:0:
475,192,20740,128,0,21184:0:0:0:0:
402,192,20962,1,0,0:0:0:0:
109,192,20962,1,0,0:0:0:0:
329,192,21184,1,0,0:0:0:0:
182,192,21184,1,0,0:0:0:0:
402,192,21406,128,0,21629:0:0:0:0:
182,192,21406,1,0,0:0:0:0:
109,192,21517,1,0,0:0:0:0:
36,192,21629,1,0,0:0:0:0:
256,192,21629,1,0,0:0:0:0:
475,192,21851,1,0,0:0:0:0:
329,192,21851,128,0,22073:0:0:0:0:
109,192,21851,1,0,0:0:0:0:
256,192,22073,128,0,22517:0:0:0:0:
36,192,22073,1,0,0:0:0:0:
402,192,22295,128,0,22517:0:0:0:0:
109,192,22295,1,0,0:0:0:0:
329,192,22406,1,0,0:0:0:0:
182,192,22517,1,0,0:0:0:0:
36,192,22517,1,0,0:0:0:0:
475,192,22517,128,0,22962:0:0:0:0:
256,192,22740,1,0,0:0:0:0:
402,192,22740,1,0,0:0:0:0:
329,192,22962,1,0,0:0:0:0:
182,192,22962,1,0,0:0:0:0:
475,192,23184,128,0,23406:0:0:0:0:
256,192,23184,1,0,0:0:0:0:
109,192,23184,1,0,0:0:0:0:
329,192,23295,1,0,0:0:0:0:
36,192,23406,1,0,0:0:0:0:
182,192,23406,1,0,0:0:0:0:
329,192,23629,128,0,23851:0:0:0:0:
475,192,23629,1,0,0:0:0:0:
109,192,23851,128,0,24295:0:0:0:0:
182,192,23851,1,0,0:0:0:0:
475,192,24073,128,0,24295:0:0:0:0:
256,192,24073,1,0,0:0:0:0:
329,192,24184,1,0,0:0:0:0:
36,192,24295,1,0,0:0:0:0:
402,192,24295,128,0,24740:0:0:0:0:
182,192,24295,1,0,0:0:0:0:
256,192,24517,1,0,0:0:0:0:
109,192,24739,1,0,0:0:0:0:
329,192,24740,1,0,0:0:0:0:
256,192,24962,1,0,0:0:0:0:
475,192,24962,128,0,25184:0:0:0:0:
36,192,24962,1,0,0:0:0:0:
329,192,25073,1,0,0:0:0:0:
182,192,25184,1,0,0:0:0:0:
402,192,25184,1,0,0:0:0:0:
256,192,25406,1,0,0:0:0:0:
36,192,25406,128,0,25629:0:0:0:0:
475,192,25406,1,0,0:0:0:0:
329,192,25629,1,0,0:0:0:0:
109,192,25629,128,0,26073:0:0:0:0:
402,192,25629,1,0,0:0:0:0:
256,192,25851,128,0,26073:0:0:0:0:
475,192,25851,1,0,0:0:0:0:
402,192,25962,1,0,0:0:0:0:
36,192,26073,1,0,0:0:0:0:
475,192,26073,128,0,26517:0:0:0:0:
329,192,26073,1,0,0:0:0:0:
256,192,26295,1,0,0:0:0:0:
109,192,26517,1,0,0:0:0:0:
402,192,26517,1,0,0:0:0:0:
182,192,26740,1,0,0:0:0:0:
329,192,26740,1,0,0:0:0:0:
402,192,26740,128,0,26962:0:0:0:0:
109,192,26851,1,0,0:0:0:0:
475,192,26962,1,0,0:0:0:0:
36,192,26962,1,0,0:0:0:0:
256,192,27184,1,0,0:0:0:0:
475,192,27184,128,0,27406:0:0:0:0:
109,192,27406,1,0,0:0:0:0:
402,192,27406,1,0,0:0:0:0:
36,192,27406,128,0,27851:0:0:0:0:
256,192,27628,128,0,27851:0:0:0:0:
475,192,27628,1,0,0:0:0:0:
402,192,27740,1,0,0:0:0:0:
182,192,27851,1,0,0:0:0:0:
329,192,27851,1,0,0:0:0:0:
475,192,27851,128,0,28295:0:0:0:0:
256,192,28073,1,0,0:0:0:0:
109,192,28295,1,0,0:0:0:0:
402,192,28295,1,0,0:0:0:0:
329,192,28517,1,0,0:0:0:0:
182,192,28517,1,0,0:0:0:0:
109,192,28628,1,0,0:0:0:0:
402,192,28628,1,0,0:0:0:0:
36,192,28740,1,0,0:0:0:0:
475,192,28740,1,0,0:0:0:0:
329,192,28962,1,0,0:0:0:0:
109,192,28962,1,0,0:0:0:0:
182,192,29184,1,0,0:0:0:0:
402,192,29184,1,0,0:0:0:0:
256,192,29295,1,0,0:0:0:0:
109,192,29406,1,0,0:0:0:0:
329,192,29406,1,0,0:0:0:0:
402,192,29517,1,0,0:0:0:0:
36,192,29628,1,0,0:0:0:0:
256,192,29628,1,0,0:0:0:0:
475,192,29628,1,0,0:0:0:0:
329,192,29851,1,0,0:0:0:0:
182,192,29851,1,0,0:0:0:0:
36,192,30073,128,0,31406:0:0:0:0:
256,192,30073,1,0,0:0:0:0:
475,192,30073,128,0,30517:0:0:0:0:
182,192,30295,1,0,0:0:0:0:
329,192,30295,1,0,0:0:0:0:
109,192,30517,128,0,31406:0:0:0:0:
256,192,30517,1,0,0:0:0:0:
402,192,30517,1,0,0:0:0:0:
329,192,30628,1,0,0:0:0:0:
475,192,30740,1,0,0:0:0:0:
256,192,30740,1,0,0:0:0:0:
475,192,30962,1,0,0:0:0:0:
329,192,30962,1,0,0:0:0:0:
182,192,30962,128,0,31406:0:0:0:0:
256,192,31184,1,0,0:0:0:0:
402,192,31184,1,0,0:0:0:0:
475,192,31406,1,0,0:0:0:0:
256,192,31406,128,0,31628:0:0:0:0:
109,192,31628,1,0,0:0:0:0:
402,192,31628,1,0,0:0:0:0:
329,192,31740,1,0,0:0:0:0:
36,192,31851,1,0,0:0:0:0:
256,192,31851,1,0,0:0:0:0:
256,192,32073,1,0,0:0:0:0:
475,192,32073,1,0,0:0:0:0:
402,192,32184,1,0,0:0:0:0:
36,192,32295,1,0,0:0:0:0:
329,192,32295,1,0,0:0:0:0:
256,192,32406,1,0,0:0:0:0:
182,192,32517,1,0,0:0:0:0:
475,192,32517,1,0,0:0:0:0:
402,192,32740,1,0,0:0:0:0:
36,192,32740,1,0,0:0:0:0:
256,192,32740,1,0,0:0:0:0:
329,192,32962,1,0,0:0:0:0:
109,192,32962,128,0,33184:0:0:0:0:
182,192,33184,1,0,0:0:0:0:
475,192,33184,1,0,0:0:0:0:
109,192,33406,1,0,0:0:0:0:
402,192,33406,1,0,0:0:0:0:
329,192,33628,1,0,0:0:0:0:
182,192,33628,1,0,0:0:0:0:
256,192,33851,1,0,0:0:0:0:
329,192,33962,1,0,0:0:0:0:
109,192,34072,1,0,0:0:0:0:
402,192,34073,1,0,0:0:0:0:
329,192,34184,1,0,0:0:0:0:
182,192,34184,1,0,0:0:0:0:
402,192,34295,1,0,0:0:0:0:
109,192,34295,1,0,0:0:0:0:
475,192,34517,1,0,0:0:0:0:
256,192,34517,1,0,0:0:0:0:
36,192,34517,1,0,0:0:0:0:
256,192,34739,1,0,0:0:0:0:
475,192,34739,128,0,34962:0:0:0:0:
329,192,34851,1,0,0:0:0:0:
36,192,34961,1,0,0:0:0:0:
182,192,34962,1,0,0:0:0:0:
402,192,34962,128,0,35406:0:0:0:0:
109,192,35184,1,0,0:0:0:0:
256,192,35184,1,0,0:0:0:0:
182,192,35406,1,0,0:0:0:0:
329,192,35406,1,0,0:0:0:0:
256,192,35628,1,0,0:0:0:0:
182,192,35739,1,0,0:0:0:0:
109,192,35850,1,0,0:0:0:0:
402,192,35851,1,0,0:0:0:0:
475,192,35962,1,0,0:0:0:0:
36,192,35962,1,0,0:0:0:0:
329,192,36073,1,0,0:0:0:0:
182,192,36073,1,0,0:0:0:0:
256,192,36295,1,0,0:0:0:0:
109,192,36295,1,0,0:0:0:0:
402,192,36295,1,0,0:0:0:0:
182,192,36517,1,0,0:0:0:0:
36,192,36517,128,0,36739:0:0:0:0:
256,192,36628,1,0,0:0:0:0:
475,192,36739,1,0,0:0:0:0:
329,192,36739,1,0,0:0:0:0:
329,192,36962,1,0,0:0:0:0:
256,192,37073,1,0,0:0:0:0:
402,192,37073,1,0,0:0:0:0:
182,192,37184,1,0,0:0:0:0:
36,192,37184,1,0,0:0:0:0:
256,192,37406,1,0,0:0:0:0:
329,192,37517,1,0,0:0:0:0:
182,192,37517,1,0,0:0:0:0:
402,192,37628,1,0,0:0:0:0:
475,192,37628,1,0,0:0:0:0:
329,192,37851,1,0,0:0:0:0:
182,192,37851,1,0,0:0:0:0:
36,192,37851,1,0,0:0:0:0:
109,192,38073,1,0,0:0:0:0:
402,192,38073,1,0,0:0:0:0:
256,192,38073,1,0,0:0:0:0:
36,192,38295,128,0,38517:0:0:0:0:
329,192,38295,1,0,0:0:0:0:
256,192,38406,1,0,0:0:0:0:
475,192,38517,1,0,0:0:0:0:
182,192,38517,1,0,0:0:0:0:
109,192,38739,1,0,0:0:0:0:
182,192,38851,1,0,0:0:0:0:
402,192,38962,1,0,0:0:0:0:
256,192,38962,1,0,0:0:0:0:
475,192,39184,1,0,0:0:0:0:
182,192,39184,1,0,0:0:0:0:
402,192,39295,1,0,0:0:0:0:
109,192,39295,1,0,0:0:0:0:
36,192,39406,1,0,0:0:0:0:
329,192,39406,1,0,0:0:0:0:
256,192,39517,1,0,0:0:0:0:
182,192,39628,1,0,0:0:0:0:
475,192,39850,1,0,0:0:0:0:
109,192,39850,1,0,0:0:0:0:
329,192,39851,1,0,0:0:0:0:
36,192,40073,1,0,0:0:0:0:
256,192,40073,128,0,40295:0:0:0:0:
402,192,40073,1,0,0:0:0:0:
475,192,40295,1,0,0:0:0:0:
182,192,40295,1,0,0:0:0:0:
36,192,40517,1,0,0:0:0:0:
329,192,40517,1,0,0:0:0:0:
109,192,40628,1,0,0:0:0:0:
402,192,40739,1,0,0:0:0:0:
256,192,40739,1,0,0:0:0:0:
329,192,40962,1,0,0:0:0:0:
182,192,40962,1,0,0:0:0:0:
475,192,41073,1,0,0:0:0:0:
36,192,41073,1,0,0:0:0:0:
109,192,41184,1,0,0:0:0:0:
402,192,41184,1,0,0:0:0:0:
182,192,41295,1,0,0:0:0:0:
256,192,41406,1,0,0:0:0:0:
36,192,41628,1,0,0:0:0:0:
329,192,41628,1,0,0:0:0:0:
475,192,41628,1,0,0:0:0:0:
182,192,41628,1,0,0:0:0:0:
475,192,41850,1,0,0:0:0:0:
329,192,41850,1,0,0:0:0:0:
36,192,41850,1,0,0:0:0:0:
182,192,41850,1,0,0:0:0:0:
109,192,42295,1,0,0:0:0:0:
402,192,42295,1,0,0:0:0:0:
256,192,42295,1,0,0:0:0:0:
402,192,42517,1,0,0:0:0:0:
109,192,42517,1,0,0:0:0:0:
256,192,42517,1,0,0:0:0:0:
329,192,42739,1,0,0:0:0:0:
182,192,42739,1,0,0:0:0:0:
256,192,42962,1,0,0:0:0:0:
475,192,42962,1,0,0:0:0:0:
36,192,42962,1,0,0:0:0:0:
182,192,43184,1,0,0:0:0:0:
329,192,43184,1,0,0:0:0:0:
256,192,43406,1,0,0:0:0:0:
402,192,43628,1,0,0:0:0:0:
109,192,43628,1,0,0:0:0:0:
475,192,43628,128,0,44073:0:0:0:0:
36,192,43628,128,0,44073:0:0:0:0:
182,192,44073,1,0,0:0:0:0:
329,192,44073,1,0,0:0:0:0:
182,192,44295,1,0,0:0:0:0:
329,192,44295,1,0,0:0:0:0:
256,192,44517,1,0,0:0:0:0:
402,192,44628,1,0,0:0:0:0:
475,192,44628,1,0,0:0:0:0:
182,192,44739,1,0,0:0:0:0:
329,192,44850,1,0,0:0:0:0:
402,192,44850,1,0,0:0:0:0:
109,192,44962,1,0,0:0:0:0:
402,192,45073,1,0,0:0:0:0:
36,192,45184,1,0,0:0:0:0:
475,192,45184,1,0,0:0:0:0:
182,192,45184,1,0,0:0:0:0:
402,192,45406,128,0,47406:0:0:0:0:
109,192,45406,128,0,47406:0:0:0:0:
256,192,45406,1,0,0:0:0:0:
36,192,46073,128,0,47406:0:0:0:0:
475,192,46517,128,0,47406:0:0:0:0:
256,192,46961,128,0,47406:0:0:0:0:
182,192,47406,1,0,0:0:0:0:
329,192,47406,1,0,0:0:0:0:
402,192,47628,1,0,0:0:0:0:
109,192,47628,1,0,0:0:0:0:
256,192,47628,1,0,0:0:0:0:
475,192,47850,1,0,0:0:0:0:
36,192,47850,1,0,0:0:0:0:
256,192,47850,1,0,0:0:0:0:
182,192,48073,1,0,0:0:0:0:
329,192,48073,1,0,0:0:0:0:
109,192,48184,1,0,0:0:0:0:
402,192,48184,1,0,0:0:0:0:
256,192,48295,1,0,0:0:0:0:
36,192,48295,1,0,0:0:0:0:
475,192,48295,1,0,0:0:0:0:
402,192,48517,1,0,0:0:0:0:
109,192,48517,1,0,0:0:0:0:
329,192,48739,128,0,49184:0:0:0:0:
182,192,48739,128,0,49184:0:0:0:0:
256,192,49184,1,0,0:0:0:0:
36,192,49184,128,0,49628:0:0:0:0:
475,192,49184,1,0,0:0:0:0:
402,192,49406,1,0,0:0:0:0:
109,192,49406,1,0,0:0:0:0:
182,192,49628,1,0,0:0:0:0:
329,192,49628,1,0,0:0:0:0:
256,192,49850,1,0,0:0:0:0:
475,192,49850,1,0,0:0:0:0:
329,192,49961,1,0,0:0:0:0:
182,192,50073,1,0,0:0:0:0:
402,192,50073,128,0,50517:0:0:0:0:
109,192,50073,1,0,0:0:0:0:
475,192,50295,1,0,0:0:0:0:
256,192,50295,1,0,0:0:0:0:
329,192,50517,1,0,0:0:0:0:
182,192,50517,1,0,0:0:0:0:
256,192,50739,1,0,0:0:0:0:
475,192,50739,1,0,0:0:0:0:
402,192,50850,1,0,0:0:0:0:
36,192,50961,128,0,51406:0:0:0:0:
182,192,50961,1,0,0:0:0:0:
329,192,50961,1,0,0:0:0:0:
475,192,51184,1,0,0:0:0:0:
329,192,51184,1,0,0:0:0:0:
109,192,51406,128,0,51850:0:0:0:0:
256,192,51406,1,0,0:0:0:0:
402,192,51406,1,0,0:0:0:0:
329,192,51628,1,0,0:0:0:0:
475,192,51628,1,0,0:0:0:0:
182,192,51850,128,0,52295:0:0:0:0:
329,192,51850,128,0,52295:0:0:0:0:
475,192,51850,1,0,0:0:0:0:
256,192,52072,1,0,0:0:0:0:
109,192,52072,1,0,0:0:0:0:
475,192,52295,128,0,52739:0:0:0:0:
36,192,52295,1,0,0:0:0:0:
256,192,52517,1,0,0:0:0:0:
36,192,52517,128,0,52739:0:0:0:0:
109,192,52517,1,0,0:0:0:0:
402,192,52739,128,0,53184:0:0:0:0:
182,192,52739,1,0,0:0:0:0:
256,192,52961,1,0,0:0:0:0:
109,192,52961,1,0,0:0:0:0:
36,192,53184,1,0,0:0:0:0:
182,192,53184,1,0,0:0:0:0:
402,192,53406,1,0,0:0:0:0:
256,192,53406,1,0,0:0:0:0:
329,192,53517,1,0,0:0:0:0:
36,192,53628,128,0,54072:0:0:0:0:
256,192,53628,1,0,0:0:0:0:
109,192,53628,1,0,0:0:0:0:
329,192,53739,1,0,0:0:0:0:
402,192,53850,1,0,0:0:0:0:
182,192,53850,1,0,0:0:0:0:
329,192,54072,1,0,0:0:0:0:
475,192,54072,1,0,0:0:0:0:
402,192,54295,1,0,0:0:0:0:
256,192,54295,1,0,0:0:0:0:
182,192,54517,128,0,54961:0:0:0:0:
329,192,54517,1,0,0:0:0:0:
402,192,54739,1,0,0:0:0:0:
256,192,54739,1,0,0:0:0:0:
329,192,54961,1,0,0:0:0:0:
475,192,54961,1,0,0:0:0:0:
109,192,54961,128,0,55406:0:0:0:0:
475,192,55184,1,0,0:0:0:0:
256,192,55184,1,0,0:0:0:0:
182,192,55295,1,0,0:0:0:0:
402,192,55295,1,0,0:0:0:0:
329,192,55406,1,0,0:0:0:0:
36,192,55406,1,0,0:0:0:0:
256,192,55517,1,0,0:0:0:0:
475,192,55628,1,0,0:0:0:0:
329,192,55628,1,0,0:0:0:0:
182,192,55628,1,0,0:0:0:0:
256,192,55850,1,0,0:0:0:0:
402,192,55850,1,0,0:0:0:0:
182,192,56072,1,0,0:0:0:0:
329,192,56072,1,0,0:0:0:0:
402,192,56295,128,0,56739:0:0:0:0:
256,192,56295,1,0,0:0:0:0:
109,192,56295,1,0,0:0:0:0:
182,192,56517,1,0,0:0:0:0:
329,192,56517,1,0,0:0:0:0:
109,192,56739,128,0,57184:0:0:0:0:
256,192,56739,1,0,0:0:0:0:
329,192,56961,1,0,0:0:0:0:
182,192,56961,1,0,0:0:0:0:
256,192,57072,1,0,0:0:0:0:
36,192,57184,1,0,0:0:0:0:
475,192,57184,128,0,57628:0:0:0:0:
402,192,57184,1,0,0:0:0:0:
256,192,57406,1,0,0:0:0:0:
109,192,57406,1,0,0:0:0:0:
182,192,57628,1,0,0:0:0:0:
329,192,57628,1,0,0:0:0:0:
256,192,57850,1,0,0:0:0:0:
402,192,58072,128,0,58517:0:0:0:0:
182,192,58072,1,0,0:0:0:0:
36,192,58073,1,0,0:0:0:0:
329,192,58295,1,0,0:0:0:0:
182,192,58295,1,0,0:0:0:0:
36,192,58517,128,0,58961:0:0:0:0:
109,192,58517,1,0,0:0:0:0:
256,192,58517,1,0,0:0:0:0:
475,192,58739,1,0,0:0:0:0:
256,192,58739,1,0,0:0:0:0:
475,192,58961,128,0,59406:0:0:0:0:
329,192,58961,1,0,0:0:0:0:
182,192,58961,1,0,0:0:0:0:
109,192,59183,128,0,59406:0:0:0:0:
256,192,59183,1,0,0:0:0:0:
182,192,59405,1,0,0:0:0:0:
402,192,59406,128,0,59628:0:0:0:0:
329,192,59406,1,0,0:0:0:0:
36,192,59406,128,0,59850:0:0:0:0:
182,192,59628,128,0,59850:0:0:0:0:
256,192,59628,1,0,0:0:0:0:
329,192,59850,1,0,0:0:0:0:
475,192,59850,128,0,60295:0:0:0:0:
256,192,60072,1,0,0:0:0:0:
109,192,60072,1,0,0:0:0:0:
182,192,60294,1,0,0:0:0:0:
36,192,60295,1,0,0:0:0:0:
329,192,60517,1,0,0:0:0:0:
182,192,60517,1,0,0:0:0:0:
475,192,60628,1,0,0:0:0:0:
36,192,60628,1,0,0:0:0:0:
402,192,60739,128,0,61183:0:0:0:0:
109,192,60739,1,0,0:0:0:0:
182,192,60850,1,0,0:0:0:0:
109,192,60961,128,0,61183:0:0:0:0:
256,192,60961,1,0,0:0:0:0:
182,192,61183,1,0,0:0:0:0:
329,192,61183,1,0,0:0:0:0:
109,192,61406,1,0,0:0:0:0:
475,192,61406,1,0,0:0:0:0:
402,192,61517,1,0,0:0:0:0:
36,192,61628,1,0,0:0:0:0:
329,192,61628,128,0,62072:0:0:0:0:
402,192,61850,1,0,0:0:0:0:
109,192,61850,1,0,0:0:0:0:
475,192,62072,1,0,0:0:0:0:
182,192,62072,1,0,0:0:0:0:
402,192,62295,1,0,0:0:0:0:
329,192,62295,1,0,0:0:0:0:
182,192,62406,1,0,0:0:0:0:
402,192,62517,1,0,0:0:0:0:
329,192,62517,1,0,0:0:0:0:
182,192,62628,1,0,0:0:0:0:
36,192,62739,128,0,62961:0:0:0:0:
475,192,62739,1,0,0:0:0:0:
329,192,62739,1,0,0:0:0:0:
109,192,62961,1,0,0:0:0:0:
256,192,62961,1,0,0:0:0:0:
402,192,62961,128,0,63406:0:0:0:0:
329,192,63183,1,0,0:0:0:0:
182,192,63183,1,0,0:0:0:0:
36,192,63406,128,0,63850:0:0:0:0:
256,192,63406,1,0,0:0:0:0:
475,192,63406,1,0,0:0:0:0:
256,192,63628,128,0,63850:0:0:0:0:
402,192,63628,1,0,0:0:0:0:
109,192,63628,1,0,0:0:0:0:
329,192,63850,1,0,0:0:0:0:
475,192,63850,1,0,0:0:0:0:
329,192,64072,1,0,0:0:0:0:
256,192,64183,1,0,0:0:0:0:
109,192,64295,128,0,64739:0:0:0:0:
182,192,64295,1,0,0:0:0:0:
329,192,64517,128,0,64739:0:0:0:0:
256,192,64517,1,0,0:0:0:0:
36,192,64517,1,0,0:0:0:0:
402,192,64739,1,0,0:0:0:0:
475,192,64739,1,0,0:0:0:0:
36,192,64961,1,0,0:0:0:0:
109,192,65072,1,0,0:0:0:0:
182,192,65183,128,0,65628:0:0:0:0:
256,192,65183,1,0,0:0:0:0:
329,192,65406,1,0,0:0:0:0:
402,192,65406,1,0,0:0:0:0:
475,192,65628,1,0,0:0:0:0:
256,192,65628,1,0,0:0:0:0:
36,192,65628,128,0,66072:0:0:0:0:
402,192,65850,1,0,0:0:0:0:
109,192,65850,1,0,0:0:0:0:
182,192,66072,128,0,66517:0:0:0:0:
256,192,66072,1,0,0:0:0:0:
475,192,66072,1,0,0:0:0:0:
329,192,66294,1,0,0:0:0:0:
109,192,66294,1,0,0:0:0:0:
402,192,66517,128,0,66961:0:0:0:0:
256,192,66517,1,0,0:0:0:0:
475,192,66517,1,0,0:0:0:0:
36,192,66517,1,0,0:0:0:0:
329,192,66739,1,0,0:0:0:0:
256,192,66850,1,0,0:0:0:0:
475,192,66961,128,0,67406:0:0:0:0:
182,192,66961,1,0,0:0:0:0:
36,192,66961,1,0,0:0:0:0:
402,192,67183,1,0,0:0:0:0:
256,192,67183,1,0,0:0:0:0:
329,192,67406,1,0,0:0:0:0:
182,192,67406,1,0,0:0:0:0:
36,192,67628,1,0,0:0:0:0:
475,192,67628,1,0,0:0:0:0:
109,192,67739,1,0,0:0:0:0:
402,192,67739,1,0,0:0:0:0:
182,192,67850,128,0,68739:0:0:0:0:
329,192,67850,1,0,0:0:0:0:
256,192,67961,1,0,0:0:0:0:
329,192,68072,1,0,0:0:0:0:
36,192,68072,1,0,0:0:0:0:
402,192,68294,1,0,0:0:0:0:
475,192,68294,1,0,0:0:0:0:
329,192,68517,128,0,68739:0:0:0:0:
36,192,68517,1,0,0:0:0:0:
109,192,68739,128,0,69183:0:0:0:0:
256,192,68739,1,0,0:0:0:0:
329,192,68961,1,0,0:0:0:0:
182,192,68961,1,0,0:0:0:0:
475,192,69183,1,0,0:0:0:0:
402,192,69183,1,0,0:0:0:0:
182,192,69406,1,0,0:0:0:0:
329,192,69517,1,0,0:0:0:0:
475,192,69517,1,0,0:0:0:0:
109,192,69628,1,0,0:0:0:0:
329,192,69739,1,0,0:0:0:0:
475,192,69739,1,0,0:0:0:0:
182,192,69850,1,0,0:0:0:0:
475,192,70072,1,0,0:0:0:0:
402,192,70072,1,0,0:0:0:0:
256,192,70294,1,0,0:0:0:0:
109,192,70294,1,0,0:0:0:0:
402,192,70294,128,0,70517:0:0:0:0:
256,192,70517,1,0,0:0:0:0:
36,192,70517,128,0,70961:0:0:0:0:
329,192,70739,1,0,0:0:0:0:
182,192,70739,1,0,0:0:0:0:
475,192,70961,1,0,0:0:0:0:
256,192,70961,1,0,0:0:0:0:
329,192,71183,1,0,0:0:0:0:
109,192,71183,1,0,0:0:0:0:
256,192,71294,1,0,0:0:0:0:
475,192,71405,1,0,0:0:0:0:
109,192,71405,128,0,71850:0:0:0:0:
182,192,71405,1,0,0:0:0:0:
329,192,71628,1,0,0:0:0:0:
36,192,71628,1,0,0:0:0:0:
475,192,71850,1,0,0:0:0:0:
182,192,71850,1,0,0:0:0:0:
256,192,72072,1,0,0:0:0:0:
402,192,72072,1,0,0:0:0:0:
475,192,72072,128,0,72294:0:0:0:0:
329,192,72294,1,0,0:0:0:0:
36,192,72294,128,0,72739:0:0:0:0:
182,192,72294,1,0,0:0:0:0:
402,192,72517,1,0,0:0:0:0:
256,192,72517,1,0,0:0:0:0:
329,192,72739,1,0,0:0:0:0:
475,192,72739,128,0,73183:0:0:0:0:
182,192,72739,1,0,0:0:0:0:
256,192,72961,1,0,0:0:0:0:
402,192,72961,1,0,0:0:0:0:
182,192,73183,128,0,73628:0:0:0:0:
36,192,73183,1,0,0:0:0:0:
329,192,73183,1,0,0:0:0:0:
256,192,73405,1,0,0:0:0:0:
475,192,73405,1,0,0:0:0:0:
329,192,73628,1,0,0:0:0:0:
402,192,73628,128,0,74072:0:0:0:0:
109,192,73628,1,0,0:0:0:0:
475,192,73850,1,0,0:0:0:0:
256,192,73850,1,0,0:0:0:0:
109,192,73850,128,0,74072:0:0:0:0:
36,192,74072,128,0,74517:0:0:0:0:
182,192,74072,1,0,0:0:0:0:
329,192,74072,1,0,0:0:0:0:
256,192,74294,1,0,0:0:0:0:
402,192,74517,1,0,0:0:0:0:
109,192,74517,1,0,0:0:0:0:
36,192,74739,1,0,0:0:0:0:
475,192,74739,1,0,0:0:0:0:
109,192,74850,1,0,0:0:0:0:
402,192,74850,1,0,0:0:0:0:
182,192,74961,128,0,75405:0:0:0:0:
475,192,74961,1,0,0:0:0:0:
256,192,75072,1,0,0:0:0:0:
329,192,75183,1,0,0:0:0:0:
36,192,75183,1,0,0:0:0:0:
402,192,75405,1,0,0:0:0:0:
475,192,75405,1,0,0:0:0:0:
36,192,75628,128,0,75850:0:0:0:0:
329,192,75628,1,0,0:0:0:0:
182,192,75628,1,0,0:0:0:0:
475,192,75739,1,0,0:0:0:0:
109,192,75850,128,0,76294:0:0:0:0:
402,192,75850,1,0,0:0:0:0:
256,192,75850,1,0,0:0:0:0:
182,192,76072,1,0,0:0:0:0:
475,192,76072,1,0,0:0:0:0:
475,192,76294,1,0,0:0:0:0:
256,192,76294,1,0,0:0:0:0:
402,192,76517,1,0,0:0:0:0:
329,192,76739,1,0,0:0:0:0:
475,192,76739,128,0,77183:0:0:0:0:
256,192,76850,1,0,0:0:0:0:
109,192,76850,1,0,0:0:0:0:
182,192,76961,1,0,0:0:0:0:
36,192,76961,1,0,0:0:0:0:
109,192,77072,1,0,0:0:0:0:
36,192,77183,1,0,0:0:0:0:
329,192,77183,1,0,0:0:0:0:
109,192,77257,1,0,0:0:0:0:
182,192,77331,1,0,0:0:0:0:
256,192,77405,1,0,0:0:0:0:
36,192,77405,128,0,77628:0:0:0:0:
329,192,77479,1,0,0:0:0:0:
402,192,77554,1,0,0:0:0:0:
475,192,77628,128,0,77961:0:0:0:0:
109,192,77628,1,0,0:0:0:0:
256,192,77628,1,0,0:0:0:0:
402,192,77961,128,0,78294:0:0:0:0:
36,192,77961,1,0,0:0:0:0:
182,192,77961,1,0,0:0:0:0:
329,192,78294,128,0,78961:0:0:0:0:
109,192,78294,128,0,78628:0:0:0:0:
256,192,78294,1,0,0:0:0:0:
36,192,78628,1,0,0:0:0:0:
475,192,78628,1,0,0:0:0:0:
109,192,78739,1,0,0:0:0:0:
182,192,78850,1,0,0:0:0:0:
256,192,78961,1,0,0:0:0:0:
402,192,78961,1,0,0:0:0:0:
256,192,79183,1,0,0:0:0:0:
329,192,79294,1,0,0:0:0:0:
402,192,79405,128,0,79739:0:0:0:0:
36,192,79405,1,0,0:0:0:0:
182,192,79405,1,0,0:0:0:0:
475,192,79739,128,0,80072:0:0:0:0:
109,192,79739,1,0,0:0:0:0:
256,192,79739,1,0,0:0:0:0:
329,192,80072,128,0,80739:0:0:0:0:
109,192,80072,128,0,80405:0:0:0:0:
475,192,80405,1,0,0:0:0:0:
256,192,80405,1,0,0:0:0:0:
36,192,80406,1,0,0:0:0:0:
182,192,80516,1,0,0:0:0:0:
36,192,80628,1,0,0:0:0:0:
109,192,80739,1,0,0:0:0:0:
402,192,80739,1,0,0:0:0:0:
256,192,80961,1,0,0:0:0:0:
36,192,80961,1,0,0:0:0:0:
329,192,81072,1,0,0:0:0:0:
109,192,81072,1,0,0:0:0:0:
402,192,81183,128,0,81516:0:0:0:0:
182,192,81183,1,0,0:0:0:0:
182,192,81516,1,0,0:0:0:0:
36,192,81516,1,0,0:0:0:0:
329,192,81516,128,0,81850:0:0:0:0:
475,192,81850,128,0,82516:0:0:0:0:
109,192,81850,128,0,82183:0:0:0:0:
256,192,81850,1,0,0:0:0:0:
256,192,82183,128,0,82516:0:0:0:0:
36,192,82183,1,0,0:0:0:0:
402,192,82294,1,0,0:0:0:0:
109,192,82405,1,0,0:0:0:0:
182,192,82516,1,0,0:0:0:0:
329,192,82516,1,0,0:0:0:0:
36,192,82739,1,0,0:0:0:0:
475,192,82739,1,0,0:0:0:0:
109,192,82850,1,0,0:0:0:0:
402,192,82850,1,0,0:0:0:0:
329,192,82961,128,0,83183:0:0:0:0:
182,192,82961,128,0,83183:0:0:0:0:
402,192,83183,1,0,0:0:0:0:
109,192,83183,1,0,0:0:0:0:
402,192,83405,1,0,0:0:0:0:
109,192,83405,1,0,0:0:0:0:
256,192,83405,1,0,0:0:0:0:
475,192,83516,1,0,0:0:0:0:
36,192,83627,1,0,0:0:0:0:
329,192,83739,128,0,84072:0:0:0:0:
109,192,83739,1,0,0:0:0:0:
182,192,83850,1,0,0:0:0:0:
256,192,83961,1,0,0:0:0:0:
109,192,84072,1,0,0:0:0:0:
402,192,84072,128,0,84294:0:0:0:0:
256,192,84294,1,0,0:0:0:0:
36,192,84294,1,0,0:0:0:0:
182,192,84405,1,0,0:0:0:0:
329,192,84405,1,0,0:0:0:0:
36,192,84516,128,0,84739:0:0:0:0:
475,192,84516,128,0,84739:0:0:0:0:
329,192,84739,1,0,0:0:0:0:
402,192,84739,128,0,85072:0:0:0:0:
109,192,84739,128,0,85072:0:0:0:0:
182,192,84739,1,0,0:0:0:0:
36,192,85072,1,0,0:0:0:0:
475,192,85072,1,0,0:0:0:0:
329,192,85183,1,0,0:0:0:0:
182,192,85183,1,0,0:0:0:0:
256,192,85405,128,0,85739:0:0:0:0:
109,192,85405,1,0,0:0:0:0:
402,192,85405,1,0,0:0:0:0:
182,192,85739,1,0,0:0:0:0:
329,192,85739,1,0,0:0:0:0:
256,192,85961,1,0,0:0:0:0:
36,192,86072,128,0,88294:0:0:0:0:
475,192,86072,128,0,88294:0:0:0:0:
182,192,86072,1,0,0:0:0:0:
329,192,86072,1,0,0:0:0:0:
256,192,88072,1,0,0:0:0:0:
182,192,88183,1,0,0:0:0:0:
329,192,88183,1,0,0:0:0:0:
109,192,88294,1,0,0:0:0:70:G7OGG.wav
402,192,88294,1,0,0:0:0:0:
