osu file format v12

[General]
AudioFilename: CLICK (TV Size).mp3
AudioLeadIn: 0
PreviewTime: 47850
Countdown: 0
SampleSet: None
StackLeniency: 0.7
Mode: 3
LetterboxInBreaks: 0
SpecialStyle: 0
WidescreenStoryboard: 1

[Editor]
Bookmarks: 29628,81183
DistanceSpacing: 0.8
BeatDivisor: 8
GridSize: 16
TimelineZoom: 2.1

[Metadata]
Title:CLICK (TV Size)
TitleUnicode:CLICK (TV Size)
Artist:ClariS
ArtistUnicode:ClariS
Creator:Luckman
Version:4K SC
Source:Nisekoi
Tags:Anime
BeatmapID:417669
BeatmapSetID:161332

[Difficulty]
HPDrainRate:7
CircleSize:4
OverallDifficulty:8
ApproachRate:5
SliderMultiplier:1.4
SliderTickRate:1

[Events]
//Background and Video events
0,0,"bg.jpg",0,0
Video,0,"video.avi"
//Break Periods
//Storyboard Layer 0 (Background)
//Storyboard Layer 1 (Fail)
//Storyboard Layer 2 (Pass)
//Storyboard Layer 3 (Foreground)
//Storyboard Sound Samples
//Background Colour Transformations
3,100,163,162,255

[TimingPoints]
1185,444.436654275095,4,2,0,60,1,0
49184,-100,4,2,0,60,0,1
84739,-100,4,2,0,60,0,0

[HitObjects]
192,192,1185,5,0,0:0:0:0:
36,192,1185,128,0,2073:0:0:0:0:
320,192,1296,1,0,0:0:0:0:
448,192,1407,1,0,0:0:0:0:
192,192,1518,1,0,0:0:0:0:
320,192,1629,1,0,0:0:0:0:
448,192,1740,1,0,0:0:0:0:
320,192,1851,1,0,0:0:0:0:
448,192,1962,1,0,0:0:0:0:
192,192,2073,128,0,2962:0:0:0:0:
320,192,2073,1,0,0:0:0:0:
64,192,2184,1,0,0:0:0:0:
320,192,2296,1,0,0:0:0:0:
448,192,2407,1,0,0:0:0:0:
320,192,2518,1,0,0:0:0:0:
64,192,2629,1,0,0:0:0:0:
320,192,2740,1,0,0:0:0:0:
448,192,2851,1,0,0:0:0:0:
320,192,2962,128,0,3407:0:0:0:0:
64,192,2962,1,0,0:0:0:0:
192,192,3073,1,0,0:0:0:0:
64,192,3184,1,0,0:0:0:0:
448,192,3296,1,0,0:0:0:0:
192,192,3407,1,0,0:0:0:0:
36,192,3407,128,0,3851:0:0:0:0:
320,192,3518,1,0,0:0:0:0:
448,192,3629,1,0,0:0:0:0:
320,192,3851,128,0,4296:0:0:0:0:
192,192,3851,1,0,0:0:0:0:
64,192,3962,1,0,0:0:0:0:
192,192,4073,1,0,0:0:0:0:
448,192,4184,1,0,0:0:0:0:
192,192,4296,128,0,4740:0:0:0:0:
64,192,4296,1,0,0:0:0:0:
320,192,4407,1,0,0:0:0:0:
448,192,4518,1,0,0:0:0:0:
320,192,4629,1,0,0:0:0:0:
36,192,4740,128,0,5629:0:0:0:0:
448,192,4740,1,0,0:0:0:0:
320,192,4851,1,0,0:0:0:0:
192,192,4962,1,0,0:0:0:0:
320,192,5073,1,0,0:0:0:0:
448,192,5184,1,0,0:0:0:0:
320,192,5296,1,0,0:0:0:0:
192,192,5407,1,0,0:0:0:0:
320,192,5518,1,0,0:0:0:0:
182,192,5629,128,0,6518:0:0:0:0:
448,192,5629,1,0,0:0:0:0:
320,192,5740,1,0,0:0:0:0:
64,192,5851,1,0,0:0:0:0:
320,192,5962,1,0,0:0:0:0:
448,192,6073,1,0,0:0:0:0:
320,192,6184,1,0,0:0:0:0:
448,192,6296,1,0,0:0:0:0:
320,192,6407,1,0,0:0:0:0:
64,192,6518,128,0,8295:0:0:0:0:
448,192,6518,1,0,0:0:0:0:
320,192,6629,1,0,0:0:0:0:
192,192,6740,1,0,0:0:0:0:
448,192,6851,1,0,0:0:0:0:
320,192,6962,1,0,0:0:0:0:
192,192,7073,1,0,0:0:0:0:
448,192,7184,1,0,0:0:0:0:
320,192,7296,1,0,0:0:0:0:
192,192,7407,128,0,8295:0:0:0:0:
448,192,7407,1,0,0:0:0:0:
320,192,7518,1,0,0:0:0:0:
448,192,7629,1,0,0:0:0:0:
320,192,7740,1,0,0:0:0:0:
448,192,7851,1,0,0:0:0:0:
320,192,7962,1,0,0:0:0:0:
448,192,8073,1,0,0:0:0:0:
320,192,8184,1,0,0:0:0:0:
448,192,8295,128,0,9184:0:0:0:0:
64,192,8740,128,0,9351:0:0:0:0:
192,192,8962,128,0,9629:0:0:0:0:
320,192,9184,128,0,9629:0:0:0:0:
448,192,9407,128,0,9629:0:0:0:0:
36,192,9629,1,0,0:0:0:0:
182,192,9740,1,0,0:0:0:0:
329,192,9851,1,0,0:0:0:0:
64,192,9907,1,0,0:0:0:0:
192,192,9962,1,0,0:0:0:0:
320,192,10018,1,0,0:0:0:0:
448,192,10073,128,0,10407:0:0:0:0:
64,192,10073,1,0,0:0:0:0:
192,192,10073,1,0,0:0:0:0:
320,192,10407,128,0,10740:0:0:0:0:
192,192,10518,1,0,0:0:0:0:
64,192,10518,1,0,0:0:0:0:
64,192,10740,1,0,0:0:0:0:
192,192,10740,128,0,11407:0:0:0:0:
448,192,10851,1,0,0:0:0:0:
448,192,11073,1,0,0:0:0:0:
64,192,11073,1,0,0:0:0:0:
320,192,11184,128,0,11407:0:0:0:0:
36,192,11407,1,0,0:0:0:0:
448,192,11407,1,0,0:0:0:0:
64,192,11629,1,0,0:0:0:0:
448,192,11629,1,0,0:0:0:0:
192,192,11740,1,0,0:0:0:0:
329,192,11851,1,0,0:0:0:0:
448,192,11851,128,0,12184:0:0:0:0:
64,192,11851,1,0,0:0:0:0:
320,192,12184,128,0,12518:0:0:0:0:
192,192,12295,1,0,0:0:0:0:
64,192,12295,1,0,0:0:0:0:
182,192,12518,1,0,0:0:0:0:
448,192,12518,128,0,13184:0:0:0:0:
320,192,12851,1,0,0:0:0:0:
192,192,12851,1,0,0:0:0:0:
64,192,12962,128,0,13184:0:0:0:0:
320,192,13184,1,0,0:0:0:0:
192,192,13184,1,0,0:0:0:0:
192,192,13407,1,0,0:0:0:0:
320,192,13518,1,0,0:0:0:0:
448,192,13629,128,0,13962:0:0:0:0:
192,192,13629,1,0,0:0:0:0:
64,192,13629,1,0,0:0:0:0:
192,192,13851,1,0,0:0:0:0:
320,192,13962,128,0,14295:0:0:0:0:
192,192,14073,1,0,0:0:0:0:
64,192,14073,1,0,0:0:0:0:
192,192,14295,1,0,0:0:0:0:
448,192,14295,128,0,14962:0:0:0:0:
64,192,14518,1,0,0:0:0:0:
320,192,14518,1,0,0:0:0:0:
192,192,14740,128,0,14962:0:0:0:0:
329,192,14962,1,0,0:0:0:0:
64,192,14962,1,0,0:0:0:0:
64,192,15184,1,0,0:0:0:0:
192,192,15295,1,0,0:0:0:0:
320,192,15406,1,0,0:0:0:0:
64,192,15406,1,0,0:0:0:0:
448,192,15518,1,0,0:0:0:0:
192,192,15518,1,0,0:0:0:0:
320,192,15629,1,0,0:0:0:0:
192,192,15740,1,0,0:0:0:0:
109,192,15851,128,0,16295:0:0:0:0:
402,192,15851,128,0,16295:0:0:0:0:
320,192,15851,1,0,0:0:0:0:
192,192,16073,1,0,0:0:0:0:
192,192,16295,1,0,0:0:0:0:
320,192,16295,1,0,0:0:0:0:
192,192,16518,1,0,0:0:0:0:
448,192,16518,1,0,0:0:0:0:
475,192,16740,1,0,0:0:0:0:
192,192,16740,1,0,0:0:0:0:
320,192,16851,1,0,0:0:0:0:
64,192,16851,1,0,0:0:0:0:
192,192,16962,128,0,17184:0:0:0:0:
448,192,16962,128,0,17184:0:0:0:0:
109,192,17184,1,0,0:0:0:0:
320,192,17184,1,0,0:0:0:0:
192,192,17295,1,0,0:0:0:0:
64,192,17406,1,0,0:0:0:0:
448,192,17518,1,0,0:0:0:0:
329,192,17629,1,0,0:0:0:0:
64,192,17629,1,0,0:0:0:0:
192,192,17629,1,0,0:0:0:0:
448,192,17740,1,0,0:0:0:0:
320,192,17851,1,0,0:0:0:0:
192,192,17962,1,0,0:0:0:0:
36,192,18073,1,0,0:0:0:0:
320,192,18073,1,0,0:0:0:0:
192,192,18184,1,0,0:0:0:0:
64,192,18295,1,0,0:0:0:0:
192,192,18406,1,0,0:0:0:0:
329,192,18518,1,0,0:0:0:0:
402,192,18518,1,0,0:0:0:0:
64,192,18518,1,0,0:0:0:0:
192,192,18629,1,0,0:0:0:0:
320,192,18740,1,0,0:0:0:0:
192,192,18851,1,0,0:0:0:0:
36,192,18962,1,0,0:0:0:0:
320,192,18962,1,0,0:0:0:0:
192,192,19073,1,0,0:0:0:0:
256,192,19184,128,0,19406:0:0:0:0:
64,192,19184,1,0,0:0:0:0:
192,192,19295,1,0,0:0:0:0:
475,192,19406,1,0,0:0:0:0:
64,192,19406,1,0,0:0:0:0:
320,192,19518,1,0,0:0:0:0:
182,192,19629,1,0,0:0:0:0:
320,192,19740,1,0,0:0:0:0:
36,192,19851,1,0,0:0:0:0:
192,192,19851,1,0,0:0:0:0:
320,192,19962,1,0,0:0:0:0:
192,192,20073,1,0,0:0:0:0:
64,192,20184,1,0,0:0:0:0:
182,192,20295,1,0,0:0:0:0:
329,192,20295,1,0,0:0:0:0:
448,192,20295,1,0,0:0:0:0:
64,192,20406,1,0,0:0:0:0:
256,192,20517,128,0,20740:0:0:0:0:
192,192,20517,1,0,0:0:0:0:
448,192,20629,1,0,0:0:0:0:
36,192,20740,1,0,0:0:0:0:
192,192,20740,1,0,0:0:0:0:
448,192,20851,1,0,0:0:0:0:
320,192,20962,1,0,0:0:0:0:
192,192,21073,1,0,0:0:0:0:
256,192,21184,1,0,0:0:0:0:
402,192,21184,1,0,0:0:0:0:
64,192,21184,1,0,0:0:0:0:
192,192,21295,1,0,0:0:0:0:
320,192,21406,1,0,0:0:0:0:
192,192,21517,1,0,0:0:0:0:
109,192,21629,1,0,0:0:0:0:
329,192,21629,1,0,0:0:0:0:
448,192,21740,1,0,0:0:0:0:
320,192,21851,1,0,0:0:0:0:
64,192,21962,1,0,0:0:0:0:
182,192,22073,1,0,0:0:0:0:
475,192,22073,1,0,0:0:0:0:
320,192,22073,1,0,0:0:0:0:
64,192,22184,1,0,0:0:0:0:
402,192,22295,128,0,22517:0:0:0:0:
192,192,22295,1,0,0:0:0:0:
320,192,22406,1,0,0:0:0:0:
109,192,22517,1,0,0:0:0:0:
192,192,22517,1,0,0:0:0:0:
192,192,22629,1,0,0:0:0:0:
256,192,22739,128,0,22962:0:0:0:0:
448,192,22740,1,0,0:0:0:0:
192,192,22851,1,0,0:0:0:0:
109,192,22961,1,0,0:0:0:0:
402,192,22962,1,0,0:0:0:0:
192,192,23073,1,0,0:0:0:0:
329,192,23184,128,0,23406:0:0:0:0:
448,192,23184,1,0,0:0:0:0:
192,192,23295,1,0,0:0:0:0:
36,192,23406,1,0,0:0:0:0:
448,192,23406,1,0,0:0:0:0:
320,192,23517,1,0,0:0:0:0:
192,192,23629,1,0,0:0:0:0:
64,192,23740,1,0,0:0:0:0:
182,192,23851,1,0,0:0:0:0:
329,192,23851,1,0,0:0:0:0:
448,192,23851,1,0,0:0:0:0:
64,192,23962,1,0,0:0:0:0:
256,192,24073,128,0,24295:0:0:0:0:
192,192,24073,1,0,0:0:0:0:
448,192,24184,1,0,0:0:0:0:
36,192,24295,1,0,0:0:0:0:
192,192,24295,1,0,0:0:0:0:
320,192,24406,1,0,0:0:0:0:
448,192,24517,1,0,0:0:0:0:
64,192,24629,1,0,0:0:0:0:
182,192,24740,1,0,0:0:0:0:
329,192,24740,1,0,0:0:0:0:
448,192,24740,1,0,0:0:0:0:
64,192,24851,1,0,0:0:0:0:
192,192,24962,1,0,0:0:0:0:
448,192,25073,1,0,0:0:0:0:
182,192,25184,1,0,0:0:0:0:
36,192,25184,1,0,0:0:0:0:
448,192,25295,1,0,0:0:0:0:
320,192,25406,1,0,0:0:0:0:
192,192,25517,1,0,0:0:0:0:
329,192,25629,1,0,0:0:0:0:
475,192,25629,1,0,0:0:0:0:
64,192,25629,1,0,0:0:0:0:
192,192,25740,1,0,0:0:0:0:
256,192,25851,128,0,26073:0:0:0:0:
448,192,25851,1,0,0:0:0:0:
192,192,25962,1,0,0:0:0:0:
36,192,26073,1,0,0:0:0:0:
448,192,26073,1,0,0:0:0:0:
192,192,26184,1,0,0:0:0:0:
320,192,26295,1,0,0:0:0:0:
448,192,26406,1,0,0:0:0:0:
182,192,26517,1,0,0:0:0:0:
329,192,26517,1,0,0:0:0:0:
64,192,26517,1,0,0:0:0:0:
448,192,26628,1,0,0:0:0:0:
320,192,26740,1,0,0:0:0:0:
448,192,26851,1,0,0:0:0:0:
109,192,26962,1,0,0:0:0:0:
182,192,26962,1,0,0:0:0:0:
320,192,27073,1,0,0:0:0:0:
64,192,27184,1,0,0:0:0:0:
192,192,27295,1,0,0:0:0:0:
329,192,27406,1,0,0:0:0:0:
64,192,27406,1,0,0:0:0:0:
448,192,27517,1,0,0:0:0:0:
256,192,27628,128,0,27851:0:0:0:0:
192,192,27628,1,0,0:0:0:0:
448,192,27740,1,0,0:0:0:0:
109,192,27851,1,0,0:0:0:0:
192,192,27962,1,0,0:0:0:0:
320,192,28073,1,0,0:0:0:0:
192,192,28184,1,0,0:0:0:0:
329,192,28295,1,0,0:0:0:0:
475,192,28295,1,0,0:0:0:0:
64,192,28295,1,0,0:0:0:0:
192,192,28517,128,0,28740:0:0:0:0:
448,192,28517,1,0,0:0:0:0:
256,192,28740,1,0,0:0:0:0:
402,192,28740,1,0,0:0:0:0:
64,192,28740,1,0,0:0:0:0:
320,192,28962,128,0,29184:0:0:0:0:
64,192,28962,1,0,0:0:0:0:
182,192,29184,1,0,0:0:0:0:
402,192,29184,1,0,0:0:0:0:
64,192,29184,1,0,0:0:0:0:
192,192,29406,128,0,29628:0:0:0:0:
448,192,29406,1,0,0:0:0:0:
36,192,29628,1,0,0:0:0:0:
475,192,29628,1,0,0:0:0:0:
320,192,29628,1,0,0:0:0:0:
64,192,29851,1,0,0:0:0:0:
448,192,29851,1,0,0:0:0:0:
182,192,30073,128,0,30517:0:0:0:0:
320,192,30073,1,0,0:0:0:0:
448,192,30184,1,0,0:0:0:0:
320,192,30295,1,0,0:0:0:0:
64,192,30406,1,0,0:0:0:0:
256,192,30517,128,0,30962:0:0:0:0:
448,192,30517,1,0,0:0:0:0:
192,192,30628,1,0,0:0:0:0:
64,192,30740,1,0,0:0:0:0:
192,192,30851,1,0,0:0:0:0:
64,192,30962,1,0,0:0:0:0:
448,192,30962,128,0,31184:0:0:0:0:
256,192,31184,1,0,0:0:0:0:
192,192,31184,1,0,0:0:0:0:
36,192,31406,1,0,0:0:0:0:
192,192,31406,1,0,0:0:0:0:
320,192,31406,128,0,31851:0:0:0:0:
64,192,31628,1,0,0:0:0:0:
192,192,31740,1,0,0:0:0:0:
64,192,31851,1,0,0:0:0:0:
448,192,31851,128,0,32295:0:0:0:0:
64,192,32073,1,0,0:0:0:0:
320,192,32184,1,0,0:0:0:0:
36,192,32295,1,0,0:0:0:0:
192,192,32295,128,0,32740:0:0:0:0:
320,192,32517,1,0,0:0:0:0:
448,192,32517,1,0,0:0:0:0:
329,192,32740,1,0,0:0:0:0:
475,192,32740,1,0,0:0:0:0:
64,192,32740,128,0,33184:0:0:0:0:
256,192,32962,128,0,33184:0:0:0:0:
448,192,33073,1,0,0:0:0:0:
182,192,33184,1,0,0:0:0:0:
448,192,33184,128,0,33628:0:0:0:0:
64,192,33406,1,0,0:0:0:0:
320,192,33406,1,0,0:0:0:0:
192,192,33517,1,0,0:0:0:0:
192,192,33628,128,0,34073:0:0:0:0:
64,192,33628,1,0,0:0:0:0:
320,192,33628,1,0,0:0:0:0:
320,192,33851,1,0,0:0:0:0:
448,192,33962,1,0,0:0:0:0:
36,192,34072,1,0,0:0:0:0:
320,192,34073,128,0,34517:0:0:0:0:
192,192,34295,128,0,34517:0:0:0:0:
448,192,34406,1,0,0:0:0:0:
475,192,34517,1,0,0:0:0:0:
64,192,34517,128,0,34962:0:0:0:0:
256,192,34739,128,0,34962:0:0:0:0:
192,192,34739,1,0,0:0:0:0:
448,192,34851,1,0,0:0:0:0:
182,192,34962,1,0,0:0:0:0:
448,192,34962,128,0,35406:0:0:0:0:
192,192,35184,128,0,35406:0:0:0:0:
329,192,35406,1,0,0:0:0:0:
64,192,35406,128,0,35851:0:0:0:0:
320,192,35628,1,0,0:0:0:0:
448,192,35739,1,0,0:0:0:0:
320,192,35851,1,0,0:0:0:0:
192,192,35851,1,0,0:0:0:0:
256,192,36073,128,0,36295:0:0:0:0:
192,192,36073,1,0,0:0:0:0:
475,192,36295,1,0,0:0:0:0:
192,192,36295,1,0,0:0:0:0:
64,192,36295,1,0,0:0:0:0:
192,192,36517,1,0,0:0:0:0:
320,192,36628,1,0,0:0:0:0:
64,192,36739,128,0,37184:0:0:0:0:
448,192,36739,1,0,0:0:0:0:
256,192,36962,128,0,37184:0:0:0:0:
192,192,37073,1,0,0:0:0:0:
402,192,37184,1,0,0:0:0:0:
192,192,37184,128,0,37628:0:0:0:0:
320,192,37406,1,0,0:0:0:0:
109,192,37628,1,0,0:0:0:0:
448,192,37628,128,0,38073:0:0:0:0:
182,192,37851,1,0,0:0:0:0:
329,192,37851,1,0,0:0:0:0:
329,192,38073,1,0,0:0:0:0:
182,192,38073,1,0,0:0:0:0:
64,192,38073,128,0,38517:0:0:0:0:
320,192,38295,1,0,0:0:0:0:
402,192,38406,1,0,0:0:0:0:
320,192,38517,1,0,0:0:0:0:
192,192,38517,1,0,0:0:0:0:
256,192,38739,128,0,38962:0:0:0:0:
448,192,38739,1,0,0:0:0:0:
182,192,38962,1,0,0:0:0:0:
448,192,38962,128,0,39406:0:0:0:0:
64,192,38962,1,0,0:0:0:0:
192,192,39184,1,0,0:0:0:0:
320,192,39295,1,0,0:0:0:0:
192,192,39406,1,0,0:0:0:0:
64,192,39406,128,0,39850:0:0:0:0:
256,192,39628,128,0,39850:0:0:0:0:
448,192,39850,128,0,40295:0:0:0:0:
182,192,39851,1,0,0:0:0:0:
320,192,40073,128,0,40295:0:0:0:0:
64,192,40073,1,0,0:0:0:0:
182,192,40295,1,0,0:0:0:0:
64,192,40295,128,0,40739:0:0:0:0:
192,192,40517,128,0,40739:0:0:0:0:
448,192,40517,1,0,0:0:0:0:
402,192,40739,1,0,0:0:0:0:
256,192,40739,1,0,0:0:0:0:
192,192,40962,128,0,41184:0:0:0:0:
320,192,40962,1,0,0:0:0:0:
36,192,41183,1,0,0:0:0:0:
320,192,41184,128,0,41628:0:0:0:0:
448,192,41184,1,0,0:0:0:0:
64,192,41628,1,0,0:0:0:0:
192,192,41628,1,0,0:0:0:0:
448,192,41628,1,0,0:0:0:0:
448,192,41850,1,0,0:0:0:0:
64,192,41850,1,0,0:0:0:0:
192,192,41850,128,0,42295:0:0:0:0:
320,192,41850,128,0,42295:0:0:0:0:
36,192,42295,1,0,0:0:0:0:
475,192,42295,1,0,0:0:0:0:
36,192,42517,1,0,0:0:0:0:
475,192,42517,1,0,0:0:0:0:
320,192,42517,1,0,0:0:0:0:
192,192,42739,1,0,0:0:0:0:
109,192,42962,1,0,0:0:0:0:
402,192,42962,1,0,0:0:0:0:
192,192,42962,1,0,0:0:0:0:
320,192,43184,1,0,0:0:0:0:
109,192,43406,1,0,0:0:0:0:
402,192,43406,1,0,0:0:0:0:
320,192,43406,1,0,0:0:0:0:
320,192,43628,1,0,0:0:0:0:
64,192,43628,128,0,44073:0:0:0:0:
448,192,43628,128,0,44073:0:0:0:0:
192,192,43628,1,0,0:0:0:0:
320,192,44073,1,0,0:0:0:0:
192,192,44073,1,0,0:0:0:0:
109,192,44295,1,0,0:0:0:0:
402,192,44295,1,0,0:0:0:0:
320,192,44295,1,0,0:0:0:0:
182,192,44517,1,0,0:0:0:0:
64,192,44517,1,0,0:0:0:0:
329,192,44628,1,0,0:0:0:0:
448,192,44628,1,0,0:0:0:0:
182,192,44739,1,0,0:0:0:0:
64,192,44739,1,0,0:0:0:0:
329,192,44850,1,0,0:0:0:0:
448,192,44850,1,0,0:0:0:0:
192,192,44962,1,0,0:0:0:0:
475,192,45184,1,0,0:0:0:0:
329,192,45184,1,0,0:0:0:0:
64,192,45184,1,0,0:0:0:0:
192,192,45406,1,0,0:0:0:0:
64,192,45406,1,0,0:0:0:0:
448,192,45406,1,0,0:0:0:0:
64,192,45628,128,0,46517:0:0:0:0:
192,192,45628,1,0,0:0:0:0:
320,192,45739,1,0,0:0:0:0:
448,192,45850,1,0,0:0:0:0:
320,192,45961,1,0,0:0:0:0:
192,192,46073,1,0,0:0:0:0:
320,192,46184,1,0,0:0:0:0:
448,192,46295,1,0,0:0:0:0:
320,192,46406,1,0,0:0:0:0:
192,192,46517,1,0,0:0:0:0:
320,192,46628,1,0,0:0:0:0:
448,192,46739,1,0,0:0:0:0:
320,192,46795,1,0,0:0:0:0:
192,192,46850,1,0,0:0:0:0:
64,192,46906,1,0,0:0:0:0:
448,192,46961,1,0,0:0:0:0:
320,192,47017,1,0,0:0:0:0:
192,192,47073,1,0,0:0:0:0:
64,192,47128,1,0,0:0:0:0:
448,192,47184,1,0,0:0:0:0:
320,192,47239,1,0,0:0:0:0:
192,192,47295,1,0,0:0:0:0:
64,192,47350,1,0,0:0:0:0:
448,192,47406,1,0,0:0:0:0:
320,192,47406,1,0,0:0:0:0:
448,192,47628,1,0,0:0:0:0:
320,192,47628,1,0,0:0:0:0:
64,192,47628,1,0,0:0:0:0:
448,192,47850,1,0,0:0:0:0:
64,192,47850,1,0,0:0:0:0:
320,192,47850,1,0,0:0:0:0:
36,192,48073,1,0,0:0:0:0:
192,192,48073,1,0,0:0:0:0:
256,192,48184,1,0,0:0:0:0:
475,192,48295,1,0,0:0:0:0:
192,192,48295,1,0,0:0:0:0:
64,192,48295,1,0,0:0:0:0:
320,192,48517,1,0,0:0:0:0:
182,192,48517,1,0,0:0:0:0:
36,192,48739,128,0,49184:0:0:0:0:
320,192,48739,1,0,0:0:0:0:
448,192,48739,1,0,0:0:0:0:
192,192,49184,128,0,50073:0:0:0:0:
329,192,49184,1,0,0:0:0:0:
448,192,49295,1,0,0:0:0:0:
64,192,49406,1,0,0:0:0:0:
320,192,49517,1,0,0:0:0:0:
475,192,49628,1,0,0:0:0:0:
64,192,49628,1,0,0:0:0:0:
320,192,49739,1,0,0:0:0:0:
448,192,49850,1,0,0:0:0:0:
64,192,49961,1,0,0:0:0:0:
329,192,50073,128,0,50961:0:0:0:0:
448,192,50073,1,0,0:0:0:0:
192,192,50184,1,0,0:0:0:0:
64,192,50295,1,0,0:0:0:0:
448,192,50406,1,0,0:0:0:0:
192,192,50517,1,0,0:0:0:0:
64,192,50628,1,0,0:0:0:0:
448,192,50850,1,0,0:0:0:0:
182,192,50961,128,0,51406:0:0:0:0:
36,192,50961,1,0,0:0:0:0:
448,192,50961,1,0,0:0:0:0:
320,192,51184,1,0,0:0:0:0:
256,192,51406,128,0,51850:0:0:0:0:
475,192,51406,1,0,0:0:0:0:
64,192,51406,1,0,0:0:0:0:
192,192,51628,1,0,0:0:0:0:
192,192,51850,128,0,52295:0:0:0:0:
109,192,51850,1,0,0:0:0:0:
448,192,51850,1,0,0:0:0:0:
320,192,52072,1,0,0:0:0:0:
256,192,52295,128,0,52739:0:0:0:0:
475,192,52295,1,0,0:0:0:0:
64,192,52295,1,0,0:0:0:0:
192,192,52517,1,0,0:0:0:0:
109,192,52739,128,0,53628:0:0:0:0:
182,192,52739,1,0,0:0:0:0:
448,192,52739,1,0,0:0:0:0:
320,192,52850,1,0,0:0:0:0:
448,192,52961,1,0,0:0:0:0:
192,192,53072,1,0,0:0:0:0:
329,192,53184,1,0,0:0:0:0:
402,192,53184,1,0,0:0:0:0:
192,192,53295,1,0,0:0:0:0:
320,192,53406,1,0,0:0:0:0:
448,192,53517,1,0,0:0:0:0:
192,192,53628,128,0,54517:0:0:0:0:
256,192,53628,1,0,0:0:0:0:
64,192,53739,1,0,0:0:0:0:
320,192,53850,1,0,0:0:0:0:
64,192,53961,1,0,0:0:0:0:
329,192,54072,1,0,0:0:0:0:
402,192,54072,1,0,0:0:0:0:
64,192,54184,1,0,0:0:0:0:
320,192,54295,1,0,0:0:0:0:
448,192,54406,1,0,0:0:0:0:
320,192,54517,128,0,55406:0:0:0:0:
64,192,54517,1,0,0:0:0:0:
448,192,54628,1,0,0:0:0:0:
192,192,54739,1,0,0:0:0:0:
64,192,54850,1,0,0:0:0:0:
475,192,54961,1,0,0:0:0:0:
192,192,55072,1,0,0:0:0:0:
64,192,55184,1,0,0:0:0:0:
448,192,55295,1,0,0:0:0:0:
109,192,55406,128,0,56295:0:0:0:0:
192,192,55406,1,0,0:0:0:0:
448,192,55517,1,0,0:0:0:0:
192,192,55628,1,0,0:0:0:0:
320,192,55628,1,0,0:0:0:0:
192,192,55850,1,0,0:0:0:0:
448,192,55961,1,0,0:0:0:0:
320,192,56072,1,0,0:0:0:0:
192,192,56184,1,0,0:0:0:0:
320,192,56295,1,0,0:0:0:0:
448,192,56295,1,0,0:0:0:0:
64,192,56406,1,0,0:0:0:0:
192,192,56517,1,0,0:0:0:0:
448,192,56628,1,0,0:0:0:0:
182,192,56739,1,0,0:0:0:0:
256,192,56739,1,0,0:0:0:0:
64,192,56850,1,0,0:0:0:0:
320,192,56961,1,0,0:0:0:0:
448,192,57072,1,0,0:0:0:0:
36,192,57184,1,0,0:0:0:0:
182,192,57184,1,0,0:0:0:0:
320,192,57295,1,0,0:0:0:0:
192,192,57406,1,0,0:0:0:0:
64,192,57517,1,0,0:0:0:0:
329,192,57628,1,0,0:0:0:0:
475,192,57628,1,0,0:0:0:0:
64,192,57739,1,0,0:0:0:0:
192,192,57850,1,0,0:0:0:0:
320,192,57961,1,0,0:0:0:0:
109,192,58072,1,0,0:0:0:0:
448,192,58072,1,0,0:0:0:0:
192,192,58072,128,0,58517:0:0:0:0:
320,192,58295,1,0,0:0:0:0:
448,192,58295,1,0,0:0:0:0:
329,192,58517,1,0,0:0:0:0:
448,192,58517,128,0,58961:0:0:0:0:
64,192,58517,1,0,0:0:0:0:
192,192,58739,1,0,0:0:0:0:
320,192,58961,128,0,59406:0:0:0:0:
192,192,58961,1,0,0:0:0:0:
64,192,58961,1,0,0:0:0:0:
64,192,59183,128,0,59406:0:0:0:0:
402,192,59406,1,0,0:0:0:0:
192,192,59406,128,0,59850:0:0:0:0:
320,192,59628,128,0,59850:0:0:0:0:
64,192,59850,128,0,60628:0:0:0:0:
448,192,59850,1,0,0:0:0:0:
192,192,59961,1,0,0:0:0:0:
448,192,60072,1,0,0:0:0:0:
192,192,60183,1,0,0:0:0:0:
402,192,60295,1,0,0:0:0:0:
256,192,60295,1,0,0:0:0:0:
192,192,60406,1,0,0:0:0:0:
448,192,60517,1,0,0:0:0:0:
192,192,60628,1,0,0:0:0:0:
64,192,60739,1,0,0:0:0:0:
320,192,60739,1,0,0:0:0:0:
448,192,60850,1,0,0:0:0:0:
192,192,60850,1,0,0:0:0:0:
192,192,60961,128,0,61183:0:0:0:0:
320,192,60961,128,0,61183:0:0:0:0:
64,192,61183,128,0,61628:0:0:0:0:
448,192,61183,128,0,61628:0:0:0:0:
320,192,61406,1,0,0:0:0:0:
192,192,61628,1,0,0:0:0:0:
448,192,61739,1,0,0:0:0:0:
64,192,61850,1,0,0:0:0:0:
320,192,61961,1,0,0:0:0:0:
182,192,62072,1,0,0:0:0:0:
64,192,62072,1,0,0:0:0:0:
320,192,62183,1,0,0:0:0:0:
192,192,62295,1,0,0:0:0:0:
329,192,62406,1,0,0:0:0:0:
448,192,62406,1,0,0:0:0:0:
182,192,62517,1,0,0:0:0:0:
64,192,62517,1,0,0:0:0:0:
329,192,62628,1,0,0:0:0:0:
448,192,62628,1,0,0:0:0:0:
182,192,62739,1,0,0:0:0:0:
64,192,62739,1,0,0:0:0:0:
320,192,62850,1,0,0:0:0:0:
402,192,62961,1,0,0:0:0:0:
192,192,62961,1,0,0:0:0:0:
64,192,63072,1,0,0:0:0:0:
182,192,63183,1,0,0:0:0:0:
448,192,63183,1,0,0:0:0:0:
64,192,63406,128,0,64295:0:0:0:0:
320,192,63406,1,0,0:0:0:0:
448,192,63406,1,0,0:0:0:0:
192,192,63517,1,0,0:0:0:0:
256,192,63628,128,0,63850:0:0:0:0:
448,192,63628,1,0,0:0:0:0:
448,192,63850,1,0,0:0:0:0:
192,192,63850,1,0,0:0:0:0:
320,192,63961,1,0,0:0:0:0:
192,192,64072,1,0,0:0:0:0:
192,192,64295,128,0,65183:0:0:0:0:
448,192,64295,1,0,0:0:0:0:
64,192,64406,1,0,0:0:0:0:
329,192,64517,128,0,64739:0:0:0:0:
448,192,64517,1,0,0:0:0:0:
475,192,64739,1,0,0:0:0:0:
64,192,64739,1,0,0:0:0:0:
320,192,64850,1,0,0:0:0:0:
64,192,64961,1,0,0:0:0:0:
448,192,65072,1,0,0:0:0:0:
320,192,65183,128,0,65628:0:0:0:0:
64,192,65183,1,0,0:0:0:0:
192,192,65406,1,0,0:0:0:0:
402,192,65628,1,0,0:0:0:0:
36,192,65628,128,0,66072:0:0:0:0:
192,192,65628,1,0,0:0:0:0:
448,192,65850,128,0,66072:0:0:0:0:
320,192,65850,1,0,0:0:0:0:
320,192,66072,128,0,66517:0:0:0:0:
192,192,66072,1,0,0:0:0:0:
64,192,66294,1,0,0:0:0:0:
192,192,66517,128,0,66961:0:0:0:0:
475,192,66517,1,0,0:0:0:0:
64,192,66517,1,0,0:0:0:0:
320,192,66628,1,0,0:0:0:0:
64,192,66739,1,0,0:0:0:0:
448,192,66850,1,0,0:0:0:0:
36,192,66961,128,0,67850:0:0:0:0:
320,192,66961,1,0,0:0:0:0:
192,192,67072,1,0,0:0:0:0:
320,192,67183,1,0,0:0:0:0:
448,192,67294,1,0,0:0:0:0:
329,192,67406,1,0,0:0:0:0:
192,192,67406,1,0,0:0:0:0:
448,192,67517,1,0,0:0:0:0:
320,192,67628,1,0,0:0:0:0:
192,192,67739,1,0,0:0:0:0:
182,192,67850,128,0,68739:0:0:0:0:
256,192,67850,1,0,0:0:0:0:
448,192,67850,1,0,0:0:0:0:
64,192,67961,1,0,0:0:0:0:
448,192,68072,1,0,0:0:0:0:
64,192,68183,1,0,0:0:0:0:
402,192,68294,1,0,0:0:0:0:
64,192,68406,1,0,0:0:0:0:
329,192,68517,128,0,68739:0:0:0:0:
448,192,68517,1,0,0:0:0:0:
64,192,68628,1,0,0:0:0:0:
448,192,68739,1,0,0:0:0:0:
192,192,68850,1,0,0:0:0:0:
320,192,68850,1,0,0:0:0:0:
64,192,68961,1,0,0:0:0:0:
448,192,68961,1,0,0:0:0:0:
320,192,69072,1,0,0:0:0:0:
475,192,69183,1,0,0:0:0:0:
64,192,69183,1,0,0:0:0:0:
192,192,69294,1,0,0:0:0:0:
64,192,69406,1,0,0:0:0:0:
329,192,69517,1,0,0:0:0:0:
448,192,69517,1,0,0:0:0:0:
182,192,69628,1,0,0:0:0:0:
64,192,69628,1,0,0:0:0:0:
329,192,69739,1,0,0:0:0:0:
448,192,69739,1,0,0:0:0:0:
182,192,69850,1,0,0:0:0:0:
64,192,69850,128,0,70072:0:0:0:0:
475,192,70072,1,0,0:0:0:0:
320,192,70072,1,0,0:0:0:0:
192,192,70072,1,0,0:0:0:0:
192,192,70294,1,0,0:0:0:0:
64,192,70294,1,0,0:0:0:0:
64,192,70517,128,0,71405:0:0:0:0:
192,192,70517,1,0,0:0:0:0:
448,192,70517,1,0,0:0:0:0:
320,192,70628,1,0,0:0:0:0:
448,192,70739,1,0,0:0:0:0:
192,192,70850,1,0,0:0:0:0:
329,192,70961,1,0,0:0:0:0:
402,192,70961,1,0,0:0:0:0:
192,192,71072,1,0,0:0:0:0:
448,192,71183,1,0,0:0:0:0:
320,192,71294,1,0,0:0:0:0:
192,192,71405,128,0,72294:0:0:0:0:
320,192,71517,1,0,0:0:0:0:
64,192,71628,1,0,0:0:0:0:
320,192,71739,1,0,0:0:0:0:
402,192,71850,1,0,0:0:0:0:
64,192,71850,1,0,0:0:0:0:
320,192,71961,1,0,0:0:0:0:
64,192,72072,1,0,0:0:0:0:
320,192,72183,1,0,0:0:0:0:
64,192,72294,128,0,72739:0:0:0:0:
448,192,72294,128,0,72739:0:0:0:0:
320,192,72517,128,0,72739:0:0:0:0:
192,192,72517,1,0,0:0:0:0:
192,192,72739,128,0,73183:0:0:0:0:
320,192,72961,1,0,0:0:0:0:
448,192,72961,1,0,0:0:0:0:
64,192,72961,128,0,73183:0:0:0:0:
320,192,73183,128,0,73628:0:0:0:0:
448,192,73183,1,0,0:0:0:0:
64,192,73405,128,0,73628:0:0:0:0:
192,192,73405,1,0,0:0:0:0:
448,192,73405,1,0,0:0:0:0:
192,192,73628,128,0,74072:0:0:0:0:
402,192,73628,1,0,0:0:0:0:
320,192,73850,1,0,0:0:0:0:
64,192,73850,1,0,0:0:0:0:
448,192,73961,1,0,0:0:0:0:
36,192,74072,128,0,74961:0:0:0:0:
320,192,74072,1,0,0:0:0:0:
448,192,74183,1,0,0:0:0:0:
320,192,74294,1,0,0:0:0:0:
192,192,74405,1,0,0:0:0:0:
329,192,74517,1,0,0:0:0:0:
475,192,74517,1,0,0:0:0:0:
192,192,74628,1,0,0:0:0:0:
320,192,74739,1,0,0:0:0:0:
448,192,74850,1,0,0:0:0:0:
182,192,74961,128,0,75850:0:0:0:0:
256,192,74961,1,0,0:0:0:0:
64,192,75072,1,0,0:0:0:0:
320,192,75183,1,0,0:0:0:0:
64,192,75294,1,0,0:0:0:0:
329,192,75405,1,0,0:0:0:0:
475,192,75405,1,0,0:0:0:0:
64,192,75517,1,0,0:0:0:0:
320,192,75628,1,0,0:0:0:0:
448,192,75739,1,0,0:0:0:0:
109,192,75850,128,0,76739:0:0:0:0:
256,192,75850,1,0,0:0:0:0:
448,192,75961,1,0,0:0:0:0:
192,192,76072,1,0,0:0:0:0:
448,192,76183,1,0,0:0:0:0:
192,192,76294,1,0,0:0:0:0:
320,192,76294,1,0,0:0:0:0:
448,192,76405,1,0,0:0:0:0:
192,192,76517,1,0,0:0:0:0:
320,192,76628,1,0,0:0:0:0:
192,192,76739,1,0,0:0:0:0:
448,192,76739,1,0,0:0:0:0:
448,192,76850,1,0,0:0:0:0:
320,192,76850,1,0,0:0:0:0:
64,192,76961,1,0,0:0:0:0:
192,192,76961,128,0,77183:0:0:0:0:
109,192,77183,1,0,0:0:0:0:
448,192,77183,1,0,0:0:0:0:
320,192,77183,1,0,0:0:0:0:
182,192,77294,1,0,0:0:0:0:
256,192,77405,1,0,0:0:0:0:
192,192,77516,1,0,0:0:0:0:
320,192,77572,1,0,0:0:0:0:
475,192,77628,1,0,0:0:0:0:
192,192,77628,128,0,77961:0:0:0:0:
64,192,77739,1,0,0:0:0:0:
448,192,77850,1,0,0:0:0:0:
36,192,77961,1,0,0:0:0:0:
320,192,77961,128,0,78294:0:0:0:0:
192,192,78072,1,0,0:0:0:0:
448,192,78072,1,0,0:0:0:0:
64,192,78183,1,0,0:0:0:0:
192,192,78294,1,0,0:0:0:0:
448,192,78294,128,0,78961:0:0:0:0:
64,192,78405,1,0,0:0:0:0:
192,192,78516,1,0,0:0:0:0:
320,192,78516,1,0,0:0:0:0:
36,192,78628,1,0,0:0:0:0:
192,192,78739,1,0,0:0:0:0:
320,192,78739,1,0,0:0:0:0:
109,192,78961,1,0,0:0:0:0:
182,192,78961,1,0,0:0:0:0:
320,192,78961,1,0,0:0:0:0:
320,192,79183,1,0,0:0:0:0:
64,192,79183,1,0,0:0:0:0:
192,192,79294,1,0,0:0:0:0:
402,192,79405,128,0,79739:0:0:0:0:
64,192,79405,1,0,0:0:0:0:
320,192,79405,1,0,0:0:0:0:
36,192,79739,1,0,0:0:0:0:
320,192,79739,1,0,0:0:0:0:
448,192,79850,1,0,0:0:0:0:
192,192,79850,1,0,0:0:0:0:
64,192,79961,1,0,0:0:0:0:
329,192,80072,128,0,80405:0:0:0:0:
448,192,80072,1,0,0:0:0:0:
192,192,80183,1,0,0:0:0:0:
448,192,80294,1,0,0:0:0:0:
64,192,80294,1,0,0:0:0:0:
192,192,80405,1,0,0:0:0:0:
320,192,80516,1,0,0:0:0:0:
192,192,80628,1,0,0:0:0:0:
402,192,80739,1,0,0:0:0:0:
64,192,80739,1,0,0:0:0:0:
320,192,80739,1,0,0:0:0:0:
192,192,80850,1,0,0:0:0:0:
64,192,80961,1,0,0:0:0:0:
448,192,80961,1,0,0:0:0:0:
192,192,81072,1,0,0:0:0:0:
402,192,81183,1,0,0:0:0:0:
329,192,81183,1,0,0:0:0:0:
64,192,81183,1,0,0:0:0:0:
192,192,81294,1,0,0:0:0:0:
320,192,81405,1,0,0:0:0:0:
64,192,81516,1,0,0:0:0:0:
192,192,81553,1,0,0:0:0:0:
320,192,81590,1,0,0:0:0:0:
448,192,81628,128,0,81850:0:0:0:0:
256,192,81850,128,0,82183:0:0:0:0:
64,192,81850,128,0,82183:0:0:0:0:
192,192,82072,1,0,0:0:0:0:
448,192,82183,1,0,0:0:0:0:
320,192,82294,128,0,82516:0:0:0:0:
182,192,82516,1,0,0:0:0:0:
109,192,82516,1,0,0:0:0:0:
448,192,82516,1,0,0:0:0:0:
320,192,82739,1,0,0:0:0:0:
64,192,82739,1,0,0:0:0:0:
192,192,82850,1,0,0:0:0:0:
448,192,82961,1,0,0:0:0:0:
109,192,82961,1,0,0:0:0:0:
320,192,82961,1,0,0:0:0:0:
320,192,83183,1,0,0:0:0:0:
192,192,83183,1,0,0:0:0:0:
402,192,83405,1,0,0:0:0:0:
109,192,83405,1,0,0:0:0:0:
448,192,83516,1,0,0:0:0:0:
320,192,83516,1,0,0:0:0:0:
192,192,83516,128,0,83739:0:0:0:0:
329,192,83739,128,0,84072:0:0:0:0:
448,192,83739,1,0,0:0:0:0:
64,192,83739,1,0,0:0:0:0:
64,192,83961,1,0,0:0:0:0:
192,192,84072,1,0,0:0:0:0:
402,192,84127,1,0,0:0:0:0:
64,192,84183,1,0,0:0:0:0:
448,192,84294,1,0,0:0:0:0:
320,192,84405,1,0,0:0:0:0:
192,192,84405,1,0,0:0:0:0:
448,192,84516,1,0,0:0:0:0:
64,192,84516,128,0,84739:0:0:0:0:
402,192,84739,1,0,0:0:0:0:
192,192,84739,1,0,0:0:0:0:
320,192,84739,128,0,85072:0:0:0:0:
448,192,85072,1,0,0:0:0:0:
64,192,85072,1,0,0:0:0:0:
109,192,85183,1,0,0:0:0:0:
448,192,85183,1,0,0:0:0:0:
329,192,85405,1,0,0:0:0:0:
448,192,85405,1,0,0:0:0:0:
64,192,85405,1,0,0:0:0:0:
192,192,85405,128,0,85739:0:0:0:0:
320,192,85739,1,0,0:0:0:0:
448,192,85739,1,0,0:0:0:0:
192,192,85961,1,0,0:0:0:0:
320,192,85961,1,0,0:0:0:0:
64,192,86072,128,0,88294:0:0:0:0:
448,192,86072,128,0,88072:0:0:0:0:
182,192,88072,1,0,0:0:0:0:
256,192,88183,1,0,0:0:0:0:
448,192,88294,1,0,0:0:0:0:
