osu file format v14

[General]
AudioFilename: cced.mp3
AudioLeadIn: 0
PreviewTime: 56558
Countdown: 0
SampleSet: Soft
StackLeniency: 0.7
Mode: 0
LetterboxInBreaks: 0
WidescreenStoryboard: 1

[Editor]
DistanceSpacing: 1.4
BeatDivisor: 6
GridSize: 4
TimelineZoom: 1.3

[Metadata]
Title:Anemone -TV MIX-
TitleUnicode:アネモネ –TV MIX-
Artist:ClariS
ArtistUnicode:ClariS
Creator:xxdeathx
Version:Hard
Source:Classroom☆Crisis
Tags:クラスルーム☆クライシス classroom crisis ending ed tv size lanturn momochikun kawaiwkyik rizia wkyik
BeatmapID:741495
BeatmapSetID:334476

[Difficulty]
HPDrainRate:5
CircleSize:4
OverallDifficulty:6
ApproachRate:7
SliderMultiplier:1.36
SliderTickRate:1

[Events]
//Background and Video events
Video,137,"video.avi"
0,0,"bg.jpg",0,0
//Break Periods
//Storyboard Layer 0 (Background)
//Storyboard Layer 1 (Fail)
//Storyboard Layer 2 (Pass)
//Storyboard Layer 3 (Foreground)
//Storyboard Sound Samples

[TimingPoints]
1808,428.571428571429,4,2,1,30,1,0
1808,-133.333333333333,4,2,1,30,0,0
8665,-100,4,2,1,60,0,0
15522,-133.333333333333,4,2,1,40,0,0
29236,-100,4,2,1,50,0,0
42950,-133.333333333333,4,2,1,40,0,0
49808,-100,4,2,1,60,0,0
54950,-133.333333333333,4,2,1,60,0,0
56236,-66.6666666666667,4,2,1,60,0,0
56665,-86.9565217391304,4,2,1,70,0,1
68665,-86.9565217391304,4,2,1,70,0,0
69736,-66.6666666666667,4,2,1,70,0,0
70379,-86.9565217391304,4,2,1,70,0,1
77236,-86.9565217391304,4,2,1,70,0,1
82379,-86.9565217391304,4,2,1,70,0,0
85808,-86.9565217391304,4,2,1,20,0,0

[Colours]
Combo1 : 222,126,75
Combo2 : 139,241,214
Combo3 : 135,112,231
Combo4 : 255,166,166

[HitObjects]
352,220,1808,6,0,P|316:256|248:252,1,102.000003890991,2|0,0:0|0:0,0:0:0:0:
192,240,2450,1,0,0:0:0:0:
156,308,2665,2,0,L|168:400,2,76.5000029182435,2|0|0,0:0|0:0|0:0,0:0:0:0:
192,240,3522,6,0,L|183:189,1,51.0000019454957,2|0,0:0|0:0,0:0:0:0:
280,72,4165,2,0,P|300:64|344:64,1,51.0000019454957,0|2,0:0|0:0,0:0:0:0:
404,76,4593,2,0,L|432:24,2,51.0000019454957,0|0|0,0:0|0:0|0:0,0:0:0:0:
352,132,5236,6,0,L|356:200,1,51.0000019454957,2|0,0:0|0:0,0:0:0:0:
428,200,5665,2,0,L|424:128,1,51.0000019454957,0|0,0:0|0:0,0:0:0:0:
376,252,6093,2,0,L|336:272,3,25.5000009727478,2|0|0|0,0:0|0:0|0:0|0:0,0:0:0:0:
316,256,6522,2,0,L|276:240,3,25.5000009727478,0|0|0|0,0:0|0:0|0:0|0:0,0:0:0:0:
256,260,6950,6,0,P|260:296|240:340,2,76.5000029182435,2|0|0,0:0|0:0|0:0,0:0:0:0:
184,288,7808,2,0,L|96:304,2,76.5000029182435,8|8|8,0:0|0:0|0:0,0:0:0:0:
208,196,8665,6,0,L|80:220,2,102,4|2|0,0:0|0:0|0:0,0:0:0:0:
208,196,9736,1,2,0:0:0:0:
172,108,9950,2,0,P|160:68|168:20,1,68
252,68,10379,6,0,P|272:112|284:168,2,102,2|0|0,0:0|0:0|0:0,0:0:0:0:
340,28,11236,2,0,P|384:28|424:52,1,68,2|0,0:0|0:0,0:0:0:0:
360,120,11665,2,0,L|352:156,2,34,0|0|0,0:0|0:0|0:0,0:0:0:0:
452,104,12093,6,0,P|484:72|480:0,2,102,2|2|0,0:0|0:0|0:0,0:0:0:0:
328,252,13165,2,0,L|344:328,2,68,2|0|0,0:0|0:0|0:0,0:0:0:0:
283,164,13808,5,2,0:0:0:0:
232,244,14022,1,0,0:0:0:0:
232,244,14129,1,0,0:0:0:0:
232,244,14236,2,0,P|208:248|176:248,4,34,0|0|0|0|2,0:0|0:0|0:0|0:0|0:0,0:0:0:0:
232,244,15522,6,0,P|176:228|124:224,1,102.000003890991,4|0,0:0|0:0,0:0:0:0:
181,158,16165,2,0,P|237:166|295:159,1,102.000003890991,2|0,0:0|0:0,0:0:0:0:
352,144,16808,2,0,L|344:80,1,51.0000019454957,2|0,0:0|0:0,0:0:0:0:
268,62,17236,6,0,P|275:124|288:186,1,102.000003890991,2|0,0:0|0:0,0:0:0:0:
328,220,17879,2,0,P|384:220|424:184,1,102.000003890991,2|0,0:0|0:0,0:0:0:0:
418,192,18522,2,0,L|432:256,1,51.0000019454957,2|0,0:0|0:0,0:0:0:0:
480,136,18950,6,0,P|476:80|464:32,1,102.000003890991,2|0,0:0|0:0,0:0:0:0:
404,72,19593,2,0,P|352:80|288:72,1,102.000003890991,2|0,0:0|0:0,0:0:0:0:
232,68,20236,2,0,L|225:17,1,51.0000019454957,2|0,0:0|0:0,0:0:0:0:
264,148,20665,5,2,0:0:0:0:
176,144,20879,1,0,0:0:0:0:
176,144,20986,1,0,0:0:0:0:
176,144,21093,2,0,L|184:188,3,25.5000009727478,0|2|2|0,0:0|0:0|0:0|0:0,0:0:0:0:
200,204,21522,2,0,L|196:248,3,25.5000009727478
200,272,21950,2,0,P|164:272|136:248,1,51.0000019454957,2|0,0:0|0:0,0:0:0:0:
72,212,22379,6,0,P|80:160|72:96,1,102.000003890991,2|0,0:0|0:0,0:0:0:0:
32,52,23022,2,0,P|6:86|11:145,1,102.000003890991,2|0,0:0|0:0,0:0:0:0:
75,111,23665,2,0,P|104:108|144:112,1,51.0000019454957,2|0,0:0|0:0,0:0:0:0:
220,200,24093,6,0,P|220:268|224:320,1,102.000003890991,2|0,0:0|0:0,0:0:0:0:
288,332,24736,2,0,P|332:328|408:340,1,102.000003890991,2|0,0:0|0:0,0:0:0:0:
460,344,25379,2,0,P|482:317|494:289,1,51.0000019454957,2|0,0:0|0:0,0:0:0:0:
404,252,25808,6,0,P|396:208|392:132,1,102.000003890991,2|0,0:0|0:0,0:0:0:0:
440,96,26450,2,0,P|400:76|332:104,1,102.000003890991,2|0,0:0|0:0,0:0:0:0:
284,124,27093,2,0,P|276:100|280:60,1,51.0000019454957,2|0,0:0|0:0,0:0:0:0:
324,8,27522,5,2,0:0:0:0:
124,108,28808,2,0,P|116:136|120:164,1,51.0000019454957,2|0,0:0|0:0,0:0:0:0:
156,244,29236,6,0,B|252:236|252:236|308:208,1,136,4|8,0:0|0:0,0:0:0:0:
348,144,29879,2,0,P|376:176|388:220,1,68,2|0,0:0|0:0,0:0:0:0:
356,292,30308,2,0,L|432:296,1,68,0|10,0:0|0:0,0:0:0:0:
287,218,30736,1,0,0:0:0:0:
256,324,30950,6,0,L|112:328,1,136,2|8,0:0|0:0,0:0:0:0:
28,352,31593,2,0,P|20:312|36:264,1,68,2|0,0:0|0:0,0:0:0:0:
64,200,32022,1,0,0:0:0:0:
156,240,32236,2,0,L|240:232,1,68,10|0,0:0|0:0,0:0:0:0:
128,128,32665,6,0,P|64:100|1:125,1,136,2|8,0:0|0:0,0:0:0:0:
64,200,33308,2,0,L|60:52,1,136,2|0,0:0|0:0,0:0:0:0:
140,12,33950,1,10,0:0:0:0:
216,68,34165,1,0,0:0:0:0:
300,24,34379,6,0,P|336:20|388:32,1,68,2|0,0:0|0:0,0:0:0:0:
436,96,34808,2,0,P|404:116|356:116,1,68,10|0,0:0|0:0,0:0:0:0:
296,172,35236,2,0,P|320:196|368:212,1,68,2|0,0:0|0:0,0:0:0:0:
436,252,35665,2,0,P|424:272|384:300,1,68,10|0,0:0|0:0,0:0:0:0:
288,280,36093,6,0,P|208:264|144:280,1,136,2|8,0:0|0:0,0:0:0:0:
60,284,36736,2,0,L|40:200,1,68,2|0,0:0|0:0,0:0:0:0:
120,348,37165,1,0,0:0:0:0:
128,208,37379,2,0,L|128:128,1,68,10|0,0:0|0:0,0:0:0:0:
240,80,37808,6,0,L|216:224,1,136,2|8,0:0|0:0,0:0:0:0:
288,280,38450,2,0,P|336:280|376:264,1,68,2|0,0:0|0:0,0:0:0:0:
436,220,38879,1,0,0:0:0:0:
508,284,39093,2,0,L|504:356,1,68,10|0,0:0|0:0,0:0:0:0:
436,220,39522,6,0,B|420:120|420:120|432:68,1,136,2|8,0:0|0:0,0:0:0:0:
468,0,40165,1,2,0:0:0:0:
427,86,40379,2,0,P|383:98|343:86,1,68,0|0,0:0|0:0,0:0:0:0:
312,20,40808,2,0,P|356:8|396:20,1,68,10|0,0:0|0:0,0:0:0:0:
512,76,41236,5,2,0:0:0:0:
472,260,41665,2,0,L|480:300,3,34,8|0|0|0,0:0|0:0|0:0|0:0,0:0:0:0:
472,340,42093,2,0,L|444:372,3,34,2|0|0|0,0:0|0:0|0:0|0:0,0:0:0:0:
400,360,42522,2,0,P|364:348|312:356,1,68,8|0,0:0|0:0,0:0:0:0:
216,376,42950,5,4,0:0:0:0:
288,176,43593,2,0,L|312:112,2,51.0000019454957,0|0|2,0:0|0:0|0:0,0:0:0:0:
116,332,44665,6,0,P|72:296|68:236,1,102.000003890991,2|0,0:0|0:0,0:0:0:0:
80,112,45522,2,0,P|136:120|192:104,1,102.000003890991,2|0,0:0|0:0,0:0:0:0:
312,52,46379,5,2,0:0:0:0:
312,52,47236,1,2,0:0:0:0:
352,112,47450,2,0,L|392:108,2,25.5000009727478
300,164,47879,1,0,0:0:0:0:
212,104,48093,5,2,0:0:0:0:
212,248,48522,1,0,0:0:0:0:
104,156,48950,2,0,L|84:160,3,17.0000006484986,2|0|0|0,0:0|0:0|0:0|0:0,0:0:0:0:
152,32,49593,1,0,0:0:0:0:
212,104,49808,6,0,P|264:124|352:100,1,136,4|8,0:0|0:0,0:0:0:0:
432,76,50450,2,0,L|416:4,1,68,2|0,0:0|0:0,0:0:0:0:
416,168,50879,1,0,0:0:0:0:
340,107,51093,2,0,L|332:28,1,68,10|0,0:0|0:0,0:0:0:0:
260,152,51522,6,0,B|276:252|276:252|300:284,1,136,2|8,0:0|0:0,0:0:0:0:
364,212,52165,1,0,0:0:0:0:
356,332,52379,2,0,P|275:355|218:303,1,136,2|8,0:0|0:0,0:0:0:0:
196,244,53022,1,0,0:0:0:0:
136,316,53236,6,0,L|128:400,1,68,2|0,0:0|0:0,0:0:0:0:
64,256,53665,2,0,L|56:216,3,34,2|0|0|0,0:0|0:0|0:0|0:0,0:0:0:0:
72,176,54093,2,0,L|88:128,3,34,2|0|0|0,0:0|0:0|0:0|0:0,0:0:0:0:
72,96,54522,2,0,L|56:48,3,34,2|0|0|0,0:0|0:0|0:0|0:0,0:0:0:0:
64,16,54950,5,8,0:0:0:0:
152,168,55379,1,8,0:0:0:0:
244,16,55808,1,8,0:0:0:0:
260,248,56236,6,0,P|328:300|408:256,1,153.000005836487,4|0,0:0|0:0,0:0:0:0:
420,240,56665,6,0,L|428:152,1,78.2000014915467,4|0,0:0|0:0,0:0:0:0:
332,220,57093,2,0,L|320:124,1,78.2000014915467,8|0,0:0|0:0,0:0:0:0:
340,312,57522,1,2,0:0:0:0:
420,240,57736,1,0,0:0:0:0:
340,312,57950,2,0,P|288:328|256:316,1,78.2000014915467,8|0,0:0|0:0,0:0:0:0:
236,216,58379,6,0,L|212:56,1,156.400002983093,2|8,0:0|0:0,0:0:0:0:
312,16,59022,2,0,P|324:52|312:104,1,78.2000014915467,2|0,2:0|2:0,0:0:0:0:
224,144,59450,1,0,0:0:0:0:
128,88,59665,1,8,0:0:0:0:
32,144,59879,1,0,0:0:0:0:
84,240,60093,6,0,B|172:244,1,78.2000014915467,2|0,0:0|0:0,0:0:0:0:
204,344,60522,2,0,B|126:352,1,78.2000014915467,8|0,0:0|0:0,0:0:0:0:
300,328,60950,1,2,0:0:0:0:
332,224,61165,1,0,0:0:0:0:
300,328,61379,2,0,P|340:332|388:320,1,78.2000014915467,8|0,0:0|0:0,0:0:0:0:
484,244,61808,5,2,0:0:0:0:
488,148,62236,1,8,0:0:0:0:
376,16,62665,1,2,0:0:0:0:
388,108,63093,1,8,0:0:0:0:
400,200,63522,6,0,P|328:244|244:204,1,156.400002983093,2|8,0:0|0:0,0:0:0:0:
164,176,64165,2,0,L|168:260,1,78.2000014915467,2|0,0:0|0:0,0:0:0:0:
156,64,64593,1,0,0:0:0:0:
240,136,64808,2,0,L|319:146,1,78.2000014915467,8|0,0:0|0:0,0:0:0:0:
156,64,65236,6,0,P|100:76|48:168,1,156.400002983093,2|8,0:0|0:0,0:0:0:0:
56,264,65879,1,2,0:0:0:0:
240,136,66308,1,0,0:0:0:0:
240,136,66522,2,0,L|248:32,1,78.2000014915467,8|0,0:0|0:0,0:0:0:0:
276,212,66950,1,2,0:0:0:0:
352,292,67165,5,0,0:0:0:0:
456,260,67379,1,8,0:0:0:0:
480,152,67593,1,0,0:0:0:0:
408,68,67808,2,0,P|369:60|330:65,1,78.2000014915467,2|0,0:0|0:0,0:0:0:0:
275,211,68236,2,0,P|300:181|316:145,1,78.2000014915467,8|0,0:0|0:0,0:0:0:0:
208,48,68665,5,8,0:0:0:0:
176,172,68879,1,8,0:0:0:0:
84,104,69093,1,8,0:0:0:0:
72,252,69308,1,8,0:0:0:0:
276,212,69736,6,0,P|340:280|280:360,1,204.000007781983,10|0,0:0|0:0,0:0:0:0:
188,288,70379,6,0,P|240:284|288:292,1,78.2000014915467,4|0,0:0|0:0,0:0:0:0:
353,219,70808,2,0,P|317:211|257:215,1,78.2000014915467,8|0,0:0|0:0,0:0:0:0:
169,212,71236,1,2,0:0:0:0:
188,108,71450,1,0,0:0:0:0:
169,212,71665,2,0,L|193:308,1,78.2000014915467,8|0,0:0|0:0,0:0:0:0:
84,208,72093,6,0,B|80:92|80:92|96:44,1,156.400002983093,2|8,0:0|0:0,0:0:0:0:
188,108,72736,2,0,P|252:116|292:100,1,78.2000014915467,2|0,0:0|0:0,0:0:0:0:
364,68,73165,1,0,0:0:0:0:
452,132,73379,2,0,L|436:224,1,78.2000014915467,8|0,0:0|0:0,0:0:0:0:
364,68,73808,6,0,L|360:172,1,78.2000014915467,2|0,0:0|0:0,0:0:0:0:
263,112,74236,2,0,L|250:35,1,78.2000014915467,8|0,0:0|0:0,0:0:0:0:
272,208,74665,1,2,0:0:0:0:
360,146,74879,1,0,0:0:0:0:
272,208,75093,1,8,0:0:0:0:
400,252,75308,1,0,0:0:0:0:
260,312,75522,5,8,0:0:0:0:
180,240,75950,1,8,0:0:0:0:
160,348,76379,1,8,0:0:0:0:
80,276,76808,1,8,0:0:0:0:
80,276,77236,6,0,L|68:176,1,78.2000014915467,4|0,0:0|0:0,0:0:0:0:
160,348,77665,1,8,0:0:0:0:
180,240,77879,2,0,L|188:80,1,156.400002983093,2|0,0:0|0:0,0:0:0:0:
88,40,78522,2,0,P|80:88|92:136,1,78.2000014915467,8|0,0:0|0:0,0:0:0:0:
184,164,78950,6,0,P|256:152|336:188,1,156.400002983093,2|8,0:0|0:0,0:0:0:0:
376,276,79593,1,2,0:0:0:0:
384,68,80022,1,0,0:0:0:0:
424,172,80236,2,0,L|502:175,1,78.2000014915467,8|0,0:0|0:0,0:0:0:0:
376,276,80665,1,2,0:0:0:0:
276,220,80879,5,0,0:0:0:0:
168,228,81093,1,8,0:0:0:0:
92,304,81308,1,0,0:0:0:0:
168,228,81522,2,0,P|176:184|160:124,1,78.2000014915467,2|0,0:0|0:0,0:0:0:0:
44,64,81950,2,0,P|78:92|138:109,1,78.2000014915467,8|0,0:0|0:0,0:0:0:0:
268,64,82379,5,8,0:0:0:0:
171,151,82593,1,8,0:0:0:0:
268,64,82808,1,8,0:0:0:0:
276,220,83022,1,8,0:0:0:0:
276,220,83450,5,8,0:0:0:0:
372,168,83665,1,8,0:0:0:0:
372,276,83879,1,8,0:0:0:0:
256,192,84093,12,2,85808,0:0:0:0:
