osu file format v9

[General]
AudioFilename: MP3.mp3
AudioLeadIn: 0
PreviewTime: 65764
Countdown: 0
SampleSet: Soft
StackLeniency: 0.4
Mode: 0
LetterboxInBreaks: 0

[Editor]
DistanceSpacing: 0.8
BeatDivisor: 4
GridSize: 4

[Metadata]
Title:Anata ni FIT (Short Ver.)
Artist:ClariS
Creator:Andrea
Version:Insane
Source:Nendoroid Generation
Tags:PSP Opening Alice Clara Chewin cRyo[iceeicee] _Gezo_ osuplayer111 -Sekai- Sekai

[Difficulty]
HPDrainRate:7
CircleSize:4
OverallDifficulty:7
ApproachRate:8
SliderMultiplier:2
SliderTickRate:1

[Events]
//Background and Video events
0,0,"BG.jpg"
Video,1850,"Nendoroid Generation Opening.avi"
//Break Periods
//Storyboard Layer 0 (Background)
//Storyboard Layer 1 (Fail)
//Storyboard Layer 2 (Pass)
//Storyboard Layer 3 (Foreground)
//Storyboard Sound Samples
//Background Colour Transformations
3,100,0,128,192

[TimingPoints]
418,454.545454545455,4,2,1,80,1,0
7236,-100,4,2,2,80,0,0
7690,-100,4,2,1,80,0,1
21781,-100,4,2,2,80,0,1
22236,-100,4,2,1,80,0,0
36327,-100,4,2,2,80,0,0
36554,-100,4,2,1,80,0,0
43145,-100,4,2,2,65,0,0
44054,-100,4,2,1,80,0,0
50418,-100,4,2,2,65,0,0
51327,-100,4,2,1,80,0,0
62918,-100,4,1,1,50,0,0
64281,-100,4,2,1,50,0,0
65418,-100,4,2,2,80,0,0
65872,-100,4,2,1,80,0,1
79963,-100,4,2,2,80,0,1
81554,-100,4,2,1,80,0,1
81781,-100,4,2,2,80,0,1
82236,-100,4,2,1,80,0,0
89054,-100,4,2,2,80,0,0
89508,-100,4,2,2,50,0,0
92690,-100,4,2,2,25,0,0

[Colours]
Combo1 : 169,254,194
Combo2 : 255,183,255
Combo3 : 255,219,145

[HitObjects]
256,56,7008,1,8
256,56,7236,1,8
256,328,7690,5,4
328,288,7918,1,0
352,272,8031,1,0
376,256,8145,2,0,B|428:256|428:256|464:288,1,100,8|0
376,128,8599,2,0,B|428:128|428:128|464:96,1,100
336,36,9054,6,0,B|312:92|256:92|200:92|176:36,1,200,8|0
96,40,9736,1,0
76,60,9849,1,0
56,80,9963,2,0,B|20:116|20:172,1,100,8|0
64,348,10418,2,0,B|100:312|100:256,1,100
180,192,10872,6,0,B|228:192|255:248|255:248|284:192|332:192,1,200,8|0
384,256,11554,1,0
400,232,11668,1,0
416,208,11781,2,0,B|416:160|416:160|380:124,1,100,8|0
256,40,12236,2,0,B|256:140,1,100
132,123,12690,2,0,B|96:160|96:160|96:208,1,100,8|0
112,232,13031,1,0
128,256,13145,1,0
156,344,13372,2,0,B|204:317|212:265,1,100,0|8
356,344,13827,2,0,B|307:317|299:265,1,100
172,60,14508,6,0,B|256:113|256:113|340:60,1,200,8|4
388,124,15190,1,0
388,124,15304,1,0
388,124,15418,2,0,B|300:180,1,100,8|0
124,124,15872,2,0,B|212:180,1,100
304,256,16327,6,0,B|304:308|256:339|256:339|208:308|208:256,1,200,8|0
256,192,17008,1,0
256,164,17122,1,0
256,136,17236,1,8
184,104,17463,1,0
216,32,17690,1,0
296,32,17918,1,0
328,104,18145,1,8
460,192,18599,5,0
404,248,18827,1,0
384,268,18940,1,0
364,288,19054,2,0,B|328:320|328:320|328:372,1,100,8|0
184,372,19508,2,0,B|184:320|184:320|148:288,1,100
256,292,19963,6,0,B|256:92,1,200,8|8
176,92,20645,1,8
256,12,20872,1,8
336,92,21099,1,8
256,372,21554,1,8
256,372,21781,1,8
176,212,22236,6,0,B|200:268|256:268|312:268|336:212,1,200,4|8
256,172,22918,2,0,B|256:372,1,200
256,372,23599,1,8
356,88,24054,1,0
296,32,24281,1,0
216,32,24508,1,8
156,88,24736,1,0
256,212,25190,5,0
336,252,25418,2,0,B|311:308|255:308|199:308|175:251,2,200,8|0|8
392,192,26554,1,0
256,108,27008,1,0
256,108,27236,1,8
120,192,27690,2,0,B|68:192|32:148,2,100,0|0|8
176,252,28372,2,0,B|256:312|256:312|336:252,1,200
256,202,29054,1,8
256,108,29281,6,0,B|256:56,2,50,0|0|4
180,84,29736,1,0
332,84,29963,1,8
332,164,30190,2,0,B|288:180|256:227|256:227|224:180|180:164,1,200
256,108,30872,2,0,B|256:308,1,200,8|0
180,308,31554,1,0
256,384,31781,1,8
332,308,32008,1,0
436,180,32463,5,0
384,120,32690,2,0,B|284:120|212:32,2,200,8|0|8
436,60,33827,1,0
256,320,34281,1,0
312,264,34508,2,0,B|256:215|256:215|200:264,1,150,8|0
199,264,34963,1,4
136,312,35190,1,0
88,248,35418,1,8
152,200,35645,1,0
80,168,35872,5,0
96,144,35986,1,0
112,120,36099,1,0
128,96,36213,1,0
144,72,36327,1,8
224,72,36554,2,0,B|276:72|312:116,1,100,0|4
316,196,37008,5,0
316,196,37122,1,0
316,196,37236,2,0,B|350:238|402:238,1,100,8|0
484,240,37690,1,0
444,308,37917,1,0
364,308,38145,1,8
296,352,38372,1,0
216,352,38599,6,0,B|140:352|88:284,1,150
88,284,39054,1,8
88,204,39281,2,0,B|88:100|176:32,1,200
256,32,39963,1,8
336,32,40190,2,0,B|408:104,1,100
448,240,40645,5,0
428,260,40758,1,0
408,280,40872,2,0,B|338:351,1,100,8|0
256,352,41327,1,0
105,281,41554,2,0,B|176:352,2,100,0|8|0
44,228,42236,2,0,B|44:156|44:156|88:88,1,150
86,90,42690,6,0,B|124:128|176:128,1,100,8|0
156,48,43145,1,8
256,192,43486,1,8
356,48,43827,1,8
425,90,44054,2,0,B|388:128|336:128,1,100,4|0
425,293,44508,6,0,B|388:256|336:256,1,100,8|0
256,320,44963,1,0
86,293,45190,2,0,B|124:256|176:256,1,100,0|8
256,192,45645,1,0
256,192,45872,1,0
128,52,46099,6,0,B|196:128,1,100,0|8
384,52,46554,2,0,B|316:128,1,100
384,332,47008,2,0,B|316:256,1,100,0|8
128,332,47463,2,0,B|196:256,1,100
108,132,48145,6,0,B|108:84|148:44,1,100,8|0
192,116,48599,1,0
256,68,48827,1,0
320,116,49054,1,8
404,132,49281,2,0,B|404:84|364:44,1,100
460,248,49963,6,0,B|392:328,1,100,8|0
296,324,50417,2,0,B|332:280,1,50,8|0
216,324,50758,2,0,B|180:280,1,50,8|0
52,248,51099,2,0,B|120:328,1,100,8|4
48,172,51781,6,0,B|100:172|100:172|136:136,1,100,8|0
184,76,52236,1,0
240,132,52463,1,0
264,116,52577,1,0
288,100,52690,2,0,B|344:100|376:60,1,100,8|0
432,116,53145,2,0,B|432:172|472:204,1,100
448,280,53599,2,0,B|380:280|380:280|332:312|332:312|256:312,1,200,8|0
136,216,54508,6,0,B|84:216|44:180,1,100,8|0
44,152,54849,1,0
44,124,54963,2,0,B|84:88|136:88,1,100
216,84,55417,1,8
296,84,55645,1,0
316,104,55758,1,0
336,124,55872,2,0,B|440:124,1,100
480,192,56327,1,8
436,260,56554,6,0,B|336:260|336:260|256:320,1,200
200,264,57236,2,0,B|280:200,2,100,8|0|0
144,320,57917,1,0
144,320,58031,1,0
144,320,58145,2,0,B|92:320|52:280,1,100,8|0
54,192,58599,5,4
56,100,58827,1,0
80,84,58940,1,0
104,68,59054,2,0,B|142:31|194:31,1,100,8|4
256,84,59508,1,0
456,100,59736,1,0
432,84,59849,1,0
408,68,59963,2,0,B|370:31|318:31,1,100,8|4
458,192,60417,1,0
496,324,60645,5,0
476,304,60758,1,0
457,282,60872,2,0,B|420:320|368:320,1,100,8|4
256,348,61327,1,0
16,324,61554,1,0
36,304,61667,1,0
54,282,61781,2,0,B|92:320|144:320,1,100,8|4
256,348,62236,1,0
256,244,62463,5,0
256,228,62577,1,0
256,212,62690,1,8
256,196,62804,1,0
256,180,62917,1,0
256,164,63031,1,0
256,148,63145,1,0
256,132,63258,1,0
256,116,63372,1,0
256,100,63486,1,0
256,84,63599,2,0,B|256:48,6,25
180,296,64281,5,0
112,192,64508,1,0
180,88,64736,1,0
332,88,64963,1,0
400,192,65190,1,0
332,296,65417,6,0,B|317:352|257:362|193:352|181:296,1,200,8|4
176,216,66099,2,0,B|176:116,1,100,0|8
336,116,66554,2,0,B|336:216,2,100
256,64,67236,2,0,B|256:264,1,200,8|0
208,328,67917,2,0,B|148:240,1,100,0|8
304,328,68372,2,0,B|364:240,1,100
256,64,69054,1,8
120,148,69508,5,0
180,200,69736,1,0
256,220,69963,1,8
332,200,70190,1,0
392,148,70417,2,0,B|444:224|444:224|444:332,2,200,0|8|0
328,100,71554,1,0
256,64,71781,1,8
184,100,72008,1,0
120,148,72236,2,0,B|68:224|68:224|68:332,2,200,0|8|4
256,144,73372,5,0
256,144,73486,1,0
256,144,73599,2,0,B|256:244,1,100,8|0
176,284,74054,2,0,B|200:340|256:340|312:340|336:284,2,200,0|8|0
256,244,75190,1,0
256,244,75304,1,0
256,244,75417,2,0,B|256:144,1,100,8|0
336,104,75872,2,0,B|311:47|255:47|199:47|175:104,2,200,0|8|0
472,192,77008,5,0
472,192,77122,1,0
472,192,77236,2,0,B|372:192,1,100,8|0
340,264,77690,2,0,B|256:318|256:318|172:264,2,200,0|8|8
372,192,78827,1,8
256,228,79054,1,8
140,192,79281,1,8
256,48,79736,5,8
336,88,79963,2,0,B|311:144|255:144|199:144|175:88,2,200,8|4|8
256,48,81099,2,0,B|256:252,1,200,0|8
256,248,81781,1,8
124,80,82236,5,4
68,136,82463,2,0,B|16:136,2,50,0|0|8
124,192,82917,2,0,B|124:296|216:360,1,200
295,360,83599,2,0,B|388:296|388:192,1,200,8|0
444,136,84281,1,0
388,80,84508,1,8
332,136,84736,6,0,B|256:200|256:200|180:136,1,200
256,96,85417,2,0,B|256:296,1,200,8|0
256,376,86099,1,0
256,376,86213,1,0
256,376,86327,1,8
336,332,86554,2,0,B|311:275|255:275|199:275|175:331,1,200
176,136,87236,6,0,B|200:192|256:192|312:192|336:136,1,200,8|4
332,56,87917,1,0
256,96,88145,1,8
180,56,88372,1,4
256,272,88599,2,0,B|256:320,2,50,0|0|0
256,192,89054,1,8
40,196,89508,6,0,B|40:252|80:288,1,100,2|0
200,344,89963,2,0,B|200:288|160:252,1,100,8|0
312,344,90418,2,0,B|312:288|352:252,1,100,2|0
472,196,90872,2,0,B|472:252|434:285,1,100,8|0
396,192,91327,6,0,B|396:144|396:144|364:104,1,100,2|0
256,44,91781,2,0,B|256:144,1,100,8|0
116,192,92236,2,0,B|116:144|116:144|148:104,1,100,2|0
176,240,92690,2,0,B|200:296|256:296|312:296|336:240,1,200,0|2
