osu file format v9

[General]
AudioFilename: Anata ni FIT.mp3
AudioLeadIn: 0
PreviewTime: 65878
Countdown: 0
SampleSet: Soft
StackLeniency: 0.7
Mode: 0
LetterboxInBreaks: 0

[Editor]
Bookmarks: 7696,36786,65877,93151
DistanceSpacing: 1
BeatDivisor: 4
GridSize: 4

[Metadata]
Title:Anata ni FIT (Short Ver.)
Artist:ClariS
Creator:Akemi_Homura
Version:Easy
Source:Nendoroid Generation
Tags:psp opening alice clara Ylinestra44 ikari_kyon

[Difficulty]
HPDrainRate:2
CircleSize:3
OverallDifficulty:2
ApproachRate:2
SliderMultiplier:0.8
SliderTickRate:1

[Events]
//Background and Video events
0,0,"Claris.jpg"
Video,0,"Nendoroid.avi"
//Break Periods
//Storyboard Layer 0 (Background)
//Storyboard Layer 1 (Fail)
//Storyboard Layer 2 (Pass)
//Storyboard Layer 3 (Foreground)
//Storyboard Sound Samples
//Background Colour Transformations
3,100,163,162,255

[TimingPoints]
424,454.545454545455,4,2,1,70,1,0
22242,-100,4,2,1,40,0,0
25878,-100,4,2,1,70,0,0
28605,-100,4,2,1,50,0,0
29060,-100,4,2,1,60,0,0
29969,-100,4,2,1,70,0,0
32242,-100,4,2,1,50,0,0
32696,-100,4,2,1,60,0,0
33605,-100,4,2,1,70,0,0
36787,-100,4,2,0,70,0,0
37696,-100,4,2,1,70,0,0
44060,-100,4,2,2,65,0,0
44514,-100,4,2,2,70,0,0
49855,-100,4,2,0,70,0,0
50083,-100,4,2,2,70,0,0
50878,-100,4,2,1,70,0,0
54060,-100,4,2,2,50,0,0
54514,-100,4,2,1,60,0,0
54969,-100,4,2,1,70,0,0
55424,-100,4,2,2,70,0,0
59287,-100,4,2,2,60,0,0
60196,-100,4,2,2,50,0,0
61105,-100,4,2,2,60,0,0
63605,-100,4,2,1,70,0,0
64060,-100,4,2,1,40,0,0
65424,-100,4,2,2,70,0,0
65878,-100,4,2,1,70,0,1
81560,-100,4,2,1,40,0,1
85878,-100,4,2,1,70,0,1
88605,-100,4,2,1,50,0,1
89060,-100,4,2,1,60,0,1
89514,-100,4,2,1,60,0,0
90878,-100,4,2,1,50,0,0
91787,-100,4,2,1,40,0,0
92696,-100,4,2,1,35,0,0
93151,-100,4,2,1,30,0,0

[Colours]
Combo1 : 128,64,64
Combo2 : 0,128,255
Combo3 : 255,128,255

[HitObjects]
256,284,7696,2,0,B|352:288|388:204,1,160,8|0
416,136,9060,1,2
360,80,9514,2,0,B|264:76|228:160,1,160,8|0
200,228,10878,1,2
136,280,11333,6,0,B|48:244|80:148,1,160,8|0
111,77,12696,1,2
184,44,13151,2,0,B|228:28|256:60,2,80,8|0|0
176,124,14514,1,2
111,77,14969,6,0,B|76:124|104:156|132:192|92:228,1,160,8|0
48,292,16333,1,2
108,344,16787,2,0,B|204:364|256:300,1,160,8|0
296,236,18151,1,2
240,180,18605,6,0,B|208:132|256:64|316:80,1,160,8|0
388,108,19969,1,2
436,172,20424,2,0,B|480:224|460:288,1,120,8|0
396,332,21560,2,0,B|352:348,1,40,8|8
256,192,22242,12,0,24969
92,192,25878,6,0,B|172:192,1,80,4|8
256,56,27242,1,8
336,192,28151,1,8
360,268,28605,1,8
316,332,29060,1,8
156,332,29969,5,8
64,192,30878,1,8
148,56,31787,1,8
228,40,32242,1,8
296,80,32696,1,8
404,192,33605,5,8
316,332,34514,1,8
160,304,35424,2,0,B|80:276|68:184,1,160,8|8
88,108,36787,5,4
236,44,37696,1,2
376,120,38605,1,0
440,268,39514,2,0,B|416:308|376:320,1,80,2|8
304,344,40424,5,2
256,192,41333,1,0
152,312,42242,1,2
72,176,43151,2,0,B|32:148|52:108,2,80,8|0|4
152,192,44514,5,8
256,316,45424,1,8
360,192,46333,1,8
256,68,47242,1,8
128,168,48151,6,0,B|108:132|108:132|72:112,2,80,8|0|8
180,228,49514,2,0,B|256:272|332:228,1,160,0|2
384,168,50878,2,0,B|404:132|404:132|440:112,2,80,8|4|8
256,264,52696,5,8
112,192,53605,1,8
100,112,54060,1,8
164,68,54514,1,8
224,120,54969,6,0,B|224:164|188:192,1,80,4|8
56,276,56333,1,8
200,344,57242,1,8
272,312,57696,2,0,B|312:296|328:256,1,80,0|8
372,192,58605,5,4
412,80,59287,2,0,B|372:64|332:80,1,80,4|0
264,116,60196,2,0,B|224:132|184:116,1,80,4|0
136,52,61105,6,0,B|72:124|148:192,2,160,4|4|0
256,36,63605,1,8
336,36,64060,2,0,B|368:36|400:68|400:100|368:132|336:164|336:196|368:224|400:224,1,240,2|4
448,284,65878,6,0,B|388:332|296:328,1,160,8|0
256,260,67242,1,2
216,328,67696,2,0,B|124:332|64:284,1,160,8|0
92,212,69060,1,2
64,136,69514,6,0,B|124:88|216:92,1,160,8|0
256,160,70878,1,2
300,92,71333,2,0,B|345:89|376:114,2,80,8|0|0
220,92,72696,1,2
256,160,73151,6,0,B|256:200|224:232|224:232|192:264|192:304,1,160,8|0
256,348,74514,1,2
320,304,74969,2,0,B|320:264|288:232|288:232|256:200|256:160,1,160,8|0
288,88,76333,1,2
220,44,76787,6,0,B|160:28|112:96|144:144,1,160,8|0
208,192,78151,1,2
272,244,78605,2,0,B|224:288|160:260,1,120,8|0
104,204,79742,6,0,B|84:156,1,40,0|8
88,88,80424,2,0,B|136:44|200:72,1,120,4|8
256,192,81560,12,0,84969
420,192,85878,6,0,B|340:192,1,80,4|8
256,328,87242,1,8
176,192,88151,1,8
152,116,88605,1,8
196,52,89060,1,8
356,52,89969,5,8
428,192,90878,1,8
336,324,91787,1,8
176,344,92696,2,0,B|128:352|100:320,1,80,8|4
