osu file format v9

[General]
AudioFilename: Anata ni fit.mp3
AudioLeadIn: 0
PreviewTime: 80374
Countdown: 0
SampleSet: Soft
StackLeniency: 0.7
Mode: 0
LetterboxInBreaks: 1

[Editor]
Bookmarks: 15942,129579,188442,225487
DistanceSpacing: 0.8
BeatDivisor: 4
GridSize: 4

[Metadata]
Title:Anata ni FIT
Artist:ClariS
Creator:Guy
Version:Normal
Source:Nendoroid Generation
Tags:PSP Opening Alice Clara Nexus kz livetune

[Difficulty]
HPDrainRate:3
CircleSize:4
OverallDifficulty:3
ApproachRate:4
SliderMultiplier:1.2
SliderTickRate:1

[Events]
//Background and Video events
0,0,"img_626812_21102264_2.jpg"
//Break Periods
2,26146,35535
2,98874,108263
2,173419,182808
//Storyboard Layer 0 (Background)
//Storyboard Layer 1 (Fail)
//Storyboard Layer 2 (Pass)
//Storyboard Layer 3 (Foreground)
//Storyboard Sound Samples
//Background Colour Transformations
3,100,163,162,255

[TimingPoints]
7765,454.545454545455,4,2,1,60,1,0
50378,-100,4,2,0,40,0,0
51287,-100,4,2,1,60,0,0
57651,-100,4,2,0,40,0,0
58560,-100,4,2,1,60,0,0
64924,-100,4,2,0,40,0,0
65833,-100,4,2,1,60,0,0
80492,-100,4,2,1,60,0,1
95037,-100,4,2,1,60,0,0
115833,-100,4,2,0,40,0,0
116742,-100,4,2,1,60,0,0
123105,-100,4,2,0,40,0,0
124015,-100,4,2,1,60,0,0
129924,-100,4,2,1,25,0,0
130151,-100,4,2,1,60,0,0
130378,-100,4,2,0,40,0,0
131287,-100,4,2,1,60,0,0
153219,-100,4,2,1,60,0,1
169583,-100,4,2,1,60,0,0
192310,454.545454545455,4,2,1,60,1,0
192310,-100,4,2,1,30,0,0
199241,-100,4,2,1,60,0,0
206855,-100,4,2,1,60,0,1
221400,-100,4,2,1,60,0,0
235832,-100,4,2,1,40,0,0
242764,-100,4,2,1,5,0,0

[Colours]
Combo1 : 0,0,255
Combo2 : 255,128,255
Combo3 : 255,0,128
Combo4 : 0,255,255

[HitObjects]
136,96,7765,5,4
88,176,8219,1,8
136,256,8674,2,0,B|200:272|256:256,1,120,2|8
344,280,9583,5,2
400,200,10037,1,8
344,120,10492,2,0,B|299:71|243:54,1,120,2|8
208,144,11401,5,2
208,240,11855,1,8
136,304,12310,2,0,B|16:304,2,120,2|8|2
112,208,13674,1,8
112,112,14128,1,2
176,40,14583,1,8
240,112,15037,6,0,B|312:104|360:56,1,120,4|8
376,160,15946,2,0,B|448:168|496:216,1,120,2|8
424,280,16855,6,0,B|424:360,2,60,2|0|8
328,280,17765,1,2
232,280,18219,1,8
144,232,18674,6,0,B|104:176|144:120,1,120,2|8
232,88,19583,1,2
328,88,20037,1,8
408,144,20492,2,0,B|408:216,3,60,8|8|8|8
336,264,21628,1,0
336,264,21855,2,0,B|272:264|232:208,1,120,8|4
256,192,22537,12,0,25946
320,72,36855,5,2
384,144,37310,2,0,B|384:264,1,120,8|2
304,312,38219,1,8
216,264,38674,2,0,B|148:196,2,90,2|0|0
216,312,39583,1,2
120,312,40037,1,8
64,232,40492,6,0,B|112:184|184:184,1,120,2|8
256,232,41401,2,0,B|304:280|376:280,1,120,2|8
440,224,42310,1,2
440,128,42764,1,8
360,72,43219,1,2
280,128,43674,1,8
280,224,44128,6,0,B|184:296,1,120,2|8
88,296,45037,1,2
88,200,45492,1,8
88,104,45946,2,0,B|144:64|200:104,1,120,2|8
200,200,46855,2,0,B|256:240|312:200,1,120,2|8
312,104,47764,2,0,B|368:64|424:104,1,120,2|8
464,192,48674,5,2
464,288,49128,1,8
384,344,49583,2,0,B|320:352|272:296,1,120,2|8
256,208,50492,2,0,B|256:112,2,90,10|8|8
224,240,51401,1,4
152,304,51855,5,8
80,240,52310,1,2
80,144,52764,1,8
152,80,53219,2,0,B|200:128|264:128,1,120,2|8
320,48,54128,2,0,B|385:66|416:122,1,120,2|8
456,200,55037,5,2
456,296,55492,1,8
360,296,55946,2,0,B|240:296,1,120,2|8
152,248,56855,2,0,B|112:184|152:136,1,120,2|8
240,104,57764,2,0,B|328:104,2,90,10|8|8
240,152,58674,1,4
288,232,59128,5,8
384,232,59583,1,2
440,152,60037,2,0,B|424:88|360:72,1,120,8|2
264,72,60946,5,8
168,72,61401,1,2
112,152,61855,2,0,B|128:216|192:232,1,120,8|2
280,192,62764,6,0,B|400:192,1,120,8|2
400,96,63674,2,0,B|280:96,1,120,8|2
184,96,64583,1,8
184,192,65037,2,0,B|168:240|120:256,2,90,10|8|8
232,192,65946,5,4
296,264,66401,1,8
360,192,66855,1,2
424,264,67310,1,8
488,192,67764,2,0,B|488:64,1,120,2|8
400,40,68674,2,0,B|280:40,1,120,2|8
256,136,69583,6,0,B|200:96|144:96,1,120,2|8
88,176,70492,2,0,B|88:304,1,120,2|8
176,328,71401,1,2
272,328,71855,1,8
272,232,72310,1,2
368,232,72764,1,8
368,136,73219,6,0,B|336:72|272:64,1,120,6|8
248,104,73901,1,4
216,144,74128,2,0,B|184:208|120:216,1,120,2|8
96,176,74810,1,4
72,136,75037,2,0,B|104:72|168:64,1,120,2|8
208,64,75719,1,4
256,64,75946,2,0,B|376:64,1,120,2|8
376,112,76628,6,0,B|388:212|308:276,1,180,4|8
228,328,77764,2,0,B|136:248,1,120,2|8
148,104,78901,6,0,B|212:104,1,60,0|2
256,104,79355,2,0,B|256:176,1,60
256,260,80037,1,8
168,304,80492,5,4
80,260,80946,1,8
80,164,81401,2,0,B|80:100,2,60,2|0|8
176,168,82310,6,0,B|248:168|288:120,1,120,2|8
376,120,83219,2,0,B|424:160,2,60,2|0|8
376,24,84128,5,2
448,88,84583,1,8
448,184,85037,1,2
384,256,85492,1,8
320,184,85946,2,0,B|320:64,1,120,2|8
232,32,86855,2,0,B|112:32,1,120,2|8
80,120,87764,5,4
144,192,88219,1,8
80,264,88674,2,0,B|80:336,2,60,2|0|8
176,264,89583,5,2
256,208,90037,1,8
336,264,90492,2,0,B|400:264,2,60,2|0|8
336,168,91401,5,2
400,96,91855,1,8
336,32,92310,1,2
272,96,92765,1,8
200,32,93219,2,0,B|136:32,3,60,8|8|8|8
144,160,94355,5,0
144,160,94583,2,0,B|144:232|208:256,1,120,0|4
256,192,95265,12,0,98674
136,192,109583,6,0,B|256:192,1,120,2|8
320,264,110492,2,0,B|384:232|392:168,1,120,2|8
392,80,111401,2,0,B|488:80,2,90,2|0|0
344,80,112310,1,2
256,40,112765,1,8
168,88,113219,6,0,B|104:88|72:152,1,120,2|8
164,180,114128,2,0,B|240:276,1,120,2|8
320,324,115037,1,2
320,324,115492,1,8
368,240,115946,2,0,B|368:144,2,90,10|8|8
416,240,116855,1,2
472,160,117310,5,8
416,80,117765,1,2
360,160,118219,2,0,B|288:160|264:88,1,120,8|2
176,80,119128,5,8
80,80,119583,1,2
80,176,120037,2,0,B|80:240,2,60,8|0|2
176,176,120946,6,0,B|176:304,1,120,8|2
272,296,121855,2,0,B|392:296,1,120,8|2
440,208,122765,1,8
440,112,123219,2,0,B|440:24,2,90,10|8|8
400,144,124128,1,4
328,208,124583,5,8
256,272,125037,1,2
184,208,125492,1,8
112,144,125946,2,0,B|112:80,2,60,2|0|8
112,240,126855,2,0,B|112:304,2,60,2|0|8
208,240,127765,6,0,B|328:240,1,120,2|8
408,288,128674,2,0,B|448:232|400:176,1,120,2|8
304,176,129583,2,0,B|264:120|312:64,1,120,2|0
220,36,130492,2,0,B|132:36,2,90,10|8|8
220,84,131401,1,4
272,164,131855,5,8
220,244,132310,1,2
168,164,132765,2,0,B|48:164,1,120,8|2
76,72,133674,5,8
172,72,134128,1,2
268,72,134583,2,0,B|388:72,1,120,8|2
420,164,135492,6,0,B|428:236|364:268,1,120,8|2
284,224,136401,2,0,B|156:224,1,120,8|2
68,224,137310,1,8
68,128,137765,2,0,B|68:32,2,90,2|0|0
116,128,138674,1,4
212,128,139128,6,0,B|276:112|300:48,1,120,8|2
376,108,140037,2,0,B|363:172|411:221,1,120,8|2
416,316,140946,2,0,B|296:316,1,120,8|2
200,316,141855,1,8
200,220,142310,6,0,B|128:220|96:164,1,120,2|8
184,124,143219,2,0,B|256:28,1,120,2|8
336,80,144128,1,2
432,80,144583,2,0,B|432:200,2,120,8|2|8
336,80,145946,6,0,B|336:144|280:184,1,120,6|8
236,192,146628,1,4
192,176,146855,2,0,B|136:152,2,60,2|0|8
192,224,147537,1,4
192,272,147764,2,0,B|232:324|300:312,1,120,2|8
340,292,148446,1,4
380,268,148674,2,0,B|380:148,1,120,2|8
360,56,149583,5,2
264,56,150037,1,8
312,140,150492,1,2
216,140,150946,1,8
256,280,151628,6,0,B|256:208,1,60,0|0
256,176,152083,2,0,B|256:104,1,60,0|2
176,64,152764,1,8
96,120,153219,6,0,B|96:192|40:224,1,120,4|8
112,288,154128,2,0,B|160:336,2,60,2|0|8
184,224,155037,5,2
256,160,155492,1,8
328,224,155946,2,0,B|392:264|456:216,1,120,2|8
440,128,156855,6,0,B|376:88|312:136,1,120,2|8
248,72,157764,1,2
152,72,158219,1,8
88,144,158674,5,2
88,240,159128,1,8
152,312,159583,2,0,B|280:312,2,120,2|8|4
88,240,160946,5,8
88,144,161401,2,0,B|208:144,1,120,2|8
304,144,162310,5,2
384,88,162764,1,8
456,152,163219,2,0,B|456:272,1,120,2|8
360,296,164128,6,0,B|300:264|240:300,1,120,2|8
152,296,165037,2,0,B|92:328|32:292,1,120,2|8
32,200,165946,2,0,B|32:136,3,60,8|8|8|8
112,200,167083,5,0
112,200,167310,2,0,B|232:200,1,120,8|4
328,200,168219,1,8
424,200,168674,1,0
424,104,169128,2,0,B|384:48|320:40,1,120,8|4
256,192,169810,12,0,173219
256,48,184128,6,0,B|256:168,1,120,6|8
256,216,184810,1,4
256,264,185037,2,0,B|200:296|136:264,1,120,2|8
100,240,185719,1,4
64,208,185946,2,0,B|148:123,1,120,2|8
192,100,186628,1,4
236,120,186855,1,2
332,120,187310,1,8
344,216,187764,6,0,B|352:288|416:304,1,120,2|8
492,244,188674,2,0,B|484:172|420:156,1,120,2|8
284,192,189810,6,0,B|220:192,1,60,0|8
176,192,190264,2,0,B|112:192,1,60,0|2
104,96,190946,1,8
384,36,192310,6,0,B|384:156,1,120,2|8
384,256,193219,2,0,B|384:328,2,60,2|0|8
288,256,194128,6,0,B|184:312,1,120,2|8
88,320,195037,2,0,B|24:320,2,60,2|0|8
88,224,195946,5,2
88,128,196400,1,8
176,176,196855,1,2
176,80,197309,1,8
256,128,197764,2,0,B|376:128,1,120,2|8
424,208,198673,2,0,B|296:208,1,120,2|8
296,304,199582,5,2
216,248,200037,1,8
136,304,200491,2,0,B|64:304|40:240,1,120,2|8
40,144,201400,5,2
120,88,201855,1,8
200,144,202309,2,0,B|272:144,2,60,2|0|8
120,200,203219,5,2
200,256,203673,1,8
272,200,204128,1,2
352,256,204582,1,8
432,200,205037,6,0,B|432:136,3,60,0|0|0|0
344,100,206173,1,0
344,148,206400,2,0,B|320:164|272:164|252:120|256:88,1,120,8|4
164,68,207309,5,8
88,128,207764,2,0,B|48:184|96:248,1,120,2|8
168,296,208673,5,2
256,332,209128,1,8
344,296,209582,2,0,B|344:160,1,120,2|8
376,84,210491,5,2
304,20,210946,1,8
208,20,211400,1,2
136,84,211855,1,8
136,180,212309,2,0,B|48:260,2,120,2|8|2
208,244,213673,1,8
304,244,214128,5,4
256,328,214582,1,8
352,328,215037,2,0,B|424:320|440:256,1,120,2|8
440,164,215946,6,0,B|376:164,1,60,2|0
332,164,216400,2,0,B|332:100,1,60,8|0
284,104,216855,2,0,B|164:104,1,120,2|8
76,144,217764,5,2
76,240,218219,1,8
164,280,218673,2,0,B|220:304|284:280,1,120,2|8
368,240,219582,6,0,B|368:176,1,60,0|0
368,132,220037,2,8,B|368:68,1,60,8|0
276,48,220719,1,0
276,48,220946,2,0,B|212:48|172:104,1,120,8|4
168,196,221855,5,8
252,244,222309,2,0,B|220:292|148:292,1,120,2|8
52,292,223219,2,0,B|52:172,1,120,2|8
92,84,224128,1,2
188,72,224582,6,0,B|248:40|308:72,1,120,8|2
344,156,225491,2,0,B|400:188|464:156,1,120,8|2
456,64,226400,1,8
360,60,226855,1,2
276,108,227309,2,0,B|276:228,1,120,8|2
276,324,228219,6,8,B|212:308|180:252,1,120,8|6
180,160,229128,1,8
84,160,229582,1,2
132,76,230037,1,8
228,76,230491,6,0,B|348:76,1,120,2|8
408,152,231400,2,0,B|408:272,1,120,2|8
316,296,232309,6,0,B|260:264|196:264,1,120,2|8
104,256,233219,1,2
56,172,233673,1,8
104,88,234128,2,0,B|160:56|224:56,1,120,2|8
256,144,235037,2,0,B|256:272,1,120,2|8
160,280,235946,5,0
160,88,236855,1,0
352,88,237764,1,0
352,280,238673,1,0
256,192,239582,12,0,242309
256,192,243219,12,0,245037
