osu file format v9

[General]
AudioFilename: Anata ni fit.mp3
AudioLeadIn: 0
PreviewTime: 80374
Countdown: 0
SampleSet: Soft
StackLeniency: 0.7
Mode: 0
LetterboxInBreaks: 1

[Editor]
Bookmarks: 10488,15942,188442,232760
DistanceSpacing: 1.3
BeatDivisor: 4
GridSize: 4

[Metadata]
Title:Anata ni FIT
Artist:ClariS
Creator:Guy
Version:Insane
Source:Nendoroid Generation
Tags:PSP Opening Alice Clara Nexus kz livetune

[Difficulty]
HPDrainRate:7
CircleSize:4
OverallDifficulty:7
ApproachRate:8
SliderMultiplier:1.8
SliderTickRate:1

[Events]
//Background and Video events
0,0,"img_626812_21102264_2.jpg"
//Break Periods
2,26146,36105
2,98874,108833
2,173419,183378
//Storyboard Layer 0 (Background)
//Storyboard Layer 1 (Fail)
//Storyboard Layer 2 (Pass)
//Storyboard Layer 3 (Foreground)
//Storyboard Sound Samples
//Background Colour Transformations
3,100,163,162,255

[TimingPoints]
7765,454.545454545455,4,2,1,60,1,0
50719,-100,4,1,2,5,0,0
50833,-100,4,2,1,60,0,0
51003,-100,4,1,2,5,0,0
51117,-100,4,2,1,60,0,0
80492,-100,4,2,1,60,0,1
95037,-100,4,2,1,60,0,0
129469,-200,4,2,1,60,0,0
130378,-100,4,2,1,60,0,0
153219,-100,4,2,1,60,0,1
169583,-100,4,2,1,60,0,0
192310,454.545454545455,4,2,1,60,1,0
192310,-133.333333333333,4,2,1,30,0,0
199241,-100,4,2,1,60,0,0
206855,-100,4,2,1,60,0,1
221400,-100,4,2,1,60,0,0
235832,-100,4,2,1,40,0,0
242764,-100,4,2,1,5,0,0

[Colours]
Combo1 : 0,0,255
Combo2 : 255,128,255
Combo3 : 255,0,128
Combo4 : 0,255,255

[HitObjects]
376,56,7765,1,4
424,160,7992,1,0
328,232,8219,1,8
232,168,8446,1,0
256,56,8674,1,2
256,56,8901,1,0
256,56,9015,1,0
256,56,9128,2,0,B|152:24|80:96,1,180,8|2
32,192,9810,5,0
112,272,10037,1,8
216,224,10265,1,0
200,112,10492,2,0,B|236:152|285:140,1,90,2|0
312,128,10833,1,0
344,104,10946,1,8
432,320,11401,6,0,B|352:256|264:248,1,180,2|8
160,288,12083,1,0
128,264,12196,1,0
112,232,12310,2,0,B|64:136|144:64,1,180,2|8
256,40,12992,5,0
256,176,13219,1,2
368,104,13446,1,0
256,176,13674,1,8
368,256,13901,1,0
256,176,14128,1,2
256,312,14355,1,0
256,176,14583,2,0,B|168:176,1,90,8|0
136,176,14924,1,0
104,176,15037,5,4
160,72,15265,1,0
272,96,15492,1,8
368,32,15719,1,0
432,128,15946,1,2
352,216,16174,1,0
336,248,16287,1,0
336,280,16401,1,8
224,320,16628,1,0
136,248,16855,6,0,B|104:208|104:144,1,90,2|0
232,32,17310,2,0,B|234:83|196:134,1,90,8|0
328,120,17765,1,2
424,192,17992,1,0
424,232,18105,1,0
416,272,18219,1,8
96,288,18674,6,0,B|96:200,1,90,2|0
136,88,19128,2,0,B|176:56|224:88,1,90,8|0
256,200,19583,1,2
368,160,19810,1,0
416,56,20037,1,8
352,288,20492,5,8
160,288,20719,1,8
384,288,20946,1,8
128,288,21174,1,8
256,72,21628,5,0
136,72,21855,2,0,B|40:112|24:216,1,180,0|4
256,192,22537,12,0,25946
384,240,36855,6,0,B|320:304|216:304,1,180,2|8
104,280,37537,2,0,B|48:208,1,90,0|2
160,176,37992,2,0,B|216:104,1,90,0|8
320,56,38446,1,0
392,152,38674,2,0,B|464:120|488:48,2,135,2|0|0
352,264,39583,1,2
256,192,39810,1,0
160,264,40037,1,8
128,288,40151,1,0
88,296,40264,1,0
112,72,40492,5,2
224,40,40719,2,0,B|224:88,2,45,0|0|8
336,72,41174,1,0
336,72,41287,1,0
408,160,41514,1,0
408,160,41628,1,0
384,272,41855,2,0,B|352:312|288:312,1,90,8|0
200,272,42310,2,0,B|64:272,2,135,2|0|0
256,168,43219,5,2
256,168,43333,1,0
168,48,43560,1,0
168,48,43674,1,8
344,48,43901,1,0
344,48,44014,1,0
344,48,44128,2,0,B|424:112|400:216,1,180,2|8
344,304,44810,6,0,B|256:304,1,90,0|2
56,192,45264,2,0,B|152:192,1,90,0|8
256,96,45719,1,0
256,64,45833,1,0
256,32,45946,1,2
432,192,46174,6,0,B|368:256,1,90,0|8
96,304,46628,2,0,B|144:328|208:296,1,90,0|2
256,216,47083,1,0
256,96,47310,1,8
256,96,47424,1,0
256,96,47537,1,0
256,96,47651,1,0
256,96,47764,1,2
152,152,47992,5,0
56,264,48219,1,8
152,152,48446,1,0
184,296,48674,1,2
328,296,48901,1,0
416,184,49128,1,8
424,144,49242,1,0
432,104,49355,1,0
296,48,49583,5,2
92,164,50037,2,0,B|92:220|60:256,1,90,8|0
176,292,50492,2,0,B|248:280|268:216,1,112.5,2|0
280,184,50833,2,0,B|329:190|352:232,1,90,2|0
376,264,51174,2,0,B|424:257|448:212,1,90,2|4
400,112,51628,5,0
312,32,51855,1,8
208,88,52083,1,0
88,88,52310,1,2
144,192,52537,1,0
88,88,52764,1,8
32,192,52992,1,0
88,296,53219,2,0,B|176:328|272:296,1,180,2|8
368,240,53901,1,0
256,120,54128,5,2
256,280,54355,1,0
256,72,54583,1,8
256,328,54810,1,0
176,120,55037,6,0,B|160:216|64:256,1,180,2|8
168,320,55719,1,0
288,312,55946,1,2
328,304,56060,1,0
368,280,56174,1,0
440,192,56401,2,0,B|440:104,1,90,8|0
328,56,56855,2,0,B|256:64|216:128,2,135,2|0|0
416,192,57764,5,2
256,336,58105,1,0
96,192,58446,1,0
128,80,58674,5,6
240,112,58901,2,0,B|288:128|344:96,1,90,0|8
448,232,59355,2,0,B|411:267|347:263,1,90,0|2
256,304,59810,1,0
144,264,60037,1,8
144,220,60151,1,0
116,184,60264,1,0
96,144,60378,1,0
108,100,60492,1,2
344,64,60719,6,0,B|392:88|408:136,1,90,0|8
368,288,61174,2,0,B|280:312,1,90,0|2
168,288,61628,1,0
168,168,61855,1,8
212,152,61969,1,0
256,168,62083,1,0
296,184,62196,1,0
340,172,62310,1,2
448,176,62537,1,0
440,296,62764,6,0,B|400:328|352:328,1,90,8|0
440,88,63219,2,0,B|400:56|352:56,1,90,2|0
240,48,63674,1,8
128,80,63901,1,0
64,176,64128,2,0,B|96:272|192:296,1,180,2|8
224,304,64696,1,0
264,296,64810,1,0
256,56,65037,5,2
88,304,65378,1,0
424,304,65719,1,0
424,128,65946,6,0,B|336:128|352:200|248:200,1,180,6|8
184,112,66628,1,0
104,192,66855,1,2
104,192,66969,1,0
104,192,67083,1,0
144,304,67310,2,0,B|192:320|240:320,1,90,8|0
328,256,67764,1,2
424,320,67992,1,0
328,128,68219,5,8
424,64,68446,1,0
176,72,68674,2,0,B|128:80|88:104,1,90,2|0
88,288,69128,2,0,B|127:316|172:327,1,90,8|0
280,304,69583,5,2
320,304,69696,1,0
360,296,69810,1,0
392,280,69924,1,0
424,256,70037,1,8
424,136,70264,2,0,B|424:88,2,45,0|0|2
304,136,70719,2,0,B|216:136,1,90,0|8
104,104,71174,2,0,B|72:152|112:200,1,90,0|2
120,304,71628,1,0
120,304,71742,1,0
120,304,71855,5,8
240,312,72083,1,0
184,208,72310,1,2
312,248,72537,1,0
248,128,72764,1,8
352,40,72992,1,0
456,128,73219,6,0,B|456:216,1,90,6|0
392,320,73674,1,8
288,272,73901,2,0,B|184:272|232:336|96:336,1,180,4|0
48,240,74583,1,8
88,128,74810,2,0,B|88:80,2,45,4|0|2
192,184,75264,2,0,B|272:240,1,90,0|8
368,112,75719,2,0,B|448:168,1,90,4|2
448,280,76174,2,0,B|416:312|368:328,1,90,0|8
336,328,76514,1,0
296,328,76628,1,4
256,208,76855,5,2
152,144,77083,1,0
48,208,77310,1,8
48,96,77537,1,2
152,32,77764,1,2
256,88,77992,1,0
360,32,78219,1,8
464,88,78446,1,2
360,144,78674,1,0
368,312,78901,5,0
328,320,79014,1,0
288,312,79128,1,8
256,200,79355,1,0
136,200,79583,1,0
120,160,79696,1,0
136,120,79810,1,0
152,80,79924,1,0
136,48,80037,1,4
416,88,80492,6,0,B|464:168,1,90,4|0
448,280,80946,2,0,B|408:304|352:304,1,90,8|0
248,272,81401,1,2
248,216,81514,1,0
216,168,81628,1,0
160,152,81742,1,0
104,168,81855,1,8
112,288,82083,1,0
184,200,82310,6,0,B|256:112,1,90,2|0
456,56,82764,2,0,B|456:144,1,90,8|0
456,264,83219,1,2
352,320,83446,1,0
296,344,83560,1,0
240,336,83674,1,8
88,152,84128,5,2
184,88,84355,1,0
200,208,84583,1,8
128,112,84810,1,0
240,88,85037,1,2
200,208,85264,1,0
320,208,85492,2,0,B|368:208,2,45,8|0|0
384,112,85946,5,2
464,200,86174,1,0
408,304,86401,1,8
296,280,86628,1,0
280,160,86855,1,2
184,88,87083,1,0
88,152,87310,2,0,B|56:192,1,45,8|0
64,248,87537,2,0,B|88:288|144:296,1,90,0|4
232,224,87992,5,0
137,294,88219,1,8
232,224,88446,1,0
336,280,88674,2,0,B|384:264|408:216,1,90,2|0
400,104,89128,1,8
400,104,89355,1,0
304,40,89583,6,0,B|272:72|224:80,1,90,2|0
96,272,90037,2,0,B|128:240|136:192,1,90,8|0
256,192,90492,1,2
336,280,90719,1,0
392,260,90833,1,0
432,220,90946,1,8
440,104,91174,1,0
324,92,91401,6,0,B|236:148,1,90,2|0
128,328,91855,2,0,B|232:328,1,90,8|0
72,224,92310,1,2
112,112,92537,1,0
216,64,92765,1,8
256,336,93219,5,8
456,192,93446,1,8
256,48,93674,1,8
56,192,93901,1,8
256,336,94355,1,0
256,336,94469,1,0
256,336,94583,2,0,B|344:312|384:208,1,180,8|4
256,192,95265,12,0,98674
416,48,109583,5,2
408,168,109810,2,0,B|360:160|320:176,1,90,0|8
256,272,110265,2,0,B|210:289|168:280,1,90,0|2
80,208,110719,1,0
64,96,110946,1,8
160,32,111174,1,0
248,104,111401,2,0,B|320:104|384:72,2,135,2|0|0
256,224,112310,5,2
292,252,112424,1,0
328,280,112537,1,0
432,232,112765,1,8
412,192,112878,1,0
432,148,112992,1,0
416,104,113105,1,0
432,60,113219,1,2
320,48,113446,5,0
216,96,113674,2,0,B|168:88|120:56,1,90,8|0
48,144,114128,1,2
48,264,114355,1,0
144,200,114583,1,8
240,264,114810,1,0
360,264,115037,2,0,B|408:216|408:136,2,135,2|0|0
280,192,115946,2,0,B|232:192,1,45,2|0
264,48,116287,2,0,B|312:48,1,45,0|8
248,336,116628,2,0,B|200:336,1,45
144,336,116855,6,0,B|96:328|72:280,1,90,2|0
72,168,117310,1,8
192,168,117537,1,0
256,72,117765,1,2
320,168,117992,1,0
360,188,118105,1,0
384,228,118219,2,0,B|368:332|256:324,1,180,8|2
160,248,118901,5,0
72,168,119128,1,8
192,168,119355,1,0
72,168,119583,1,2
160,88,119810,1,0
280,88,120037,2,0,B|280:32,2,45,8|0|0
400,88,120492,6,0,B|448:168|400:280,1,180,2|8
296,232,121174,2,0,B|246:152|124:144,1,180
72,240,121855,2,0,B|96:288|152:304,1,90,8|0
256,320,122310,1,2
440,192,122765,1,8
396,192,122878,1,0
352,192,122992,1,0
256,40,123219,5,2
160,192,123560,1,0
352,192,123901,1,0
256,256,124128,1,4
160,320,124355,6,0,B|64:320,1,90,0|8
72,200,124810,2,0,B|72:152|112:120,1,90,0|2
192,40,125265,1,0
264,136,125492,1,8
336,40,125719,1,0
404,136,125946,2,0,B|420:216|364:264,2,135,2|0|0
280,304,126855,5,2
168,320,127083,1,0
136,208,127310,1,8
40,144,127537,1,0
136,80,127765,6,0,B|224:80,1,90,2|0
256,192,128219,2,0,B|304:176|320:128,1,90,8|0
408,56,128674,1,2
472,152,128901,1,0
392,240,129128,1,8
448,344,129355,1,0
336,336,129583,6,0,B|200:336,1,135,2|0
100,252,130492,2,0,B|76:220|80:164,1,90
80,116,130833,2,0,B|152:92|200:28,1,135,0|0
304,40,131401,5,4
424,40,131628,1,0
368,144,131855,1,8
488,144,132083,1,0
432,248,132310,1,2
304,248,132537,1,0
248,144,132765,2,0,B|200:144,2,45,8|0|0
240,188,133105,1,0
220,228,133219,1,2
64,320,133446,5,0
128,224,133674,1,8
200,320,133901,1,0
264,224,134128,1,2
328,320,134355,1,0
392,224,134583,1,8
400,180,134696,1,0
408,136,134810,1,0
396,92,134924,1,0
380,52,135037,1,2
192,192,135492,6,0,B|144:200|120:240,1,90,8|0
224,296,135946,2,8,B|304:296|296:352|392:352,1,180,2|8
456,256,136628,1,0
424,144,136855,1,2
464,32,137083,1,0
352,48,137310,1,8
308,32,137424,1,0
264,32,137537,1,0
144,88,137765,6,0,B|80:152,1,90,2|0
80,208,138105,2,0,B|120:248|168:240,1,90,0|0
216,220,138446,1,0
256,336,138674,5,4
384,304,138901,1,0
464,192,139128,1,8
384,64,139355,2,0,B|288:64,1,90,0|2
296,200,139810,2,0,B|208:200,1,90,0|8
144,320,140265,2,0,B|72:248|72:152,1,180
120,56,140946,1,8
192,152,141174,1,0
72,160,141401,1,2
120,56,141628,1,0
240,56,141855,6,0,B|336:48|416:104,1,180,8|2
456,208,142537,1,0
344,168,142765,1,8
320,280,142992,1,0
216,232,143219,1,2
72,48,143674,1,8
48,160,143901,2,0,B|32:256|120:312,1,180
232,336,144583,5,8
344,304,144810,1,0
424,216,145037,2,0,B|376:192|320:192,1,90,2|0
224,192,145492,1,8
224,192,145605,1,0
224,192,145719,1,0
376,48,145946,6,0,B|416:80|424:128,1,90,6|0
428,168,146287,1,0
416,212,146401,1,8
360,304,146628,2,0,B|272:264|176:264,1,180,4|0
80,320,147310,1,8
80,200,147537,2,0,B|113:109|181:41,1,180,4|0
280,96,148219,1,8
392,64,148446,2,0,B|432:136|376:200,1,135,4|0
352,216,148901,1,0
312,236,149014,1,0
268,240,149128,1,12
168,248,149355,6,0,B|80:192|80:88,1,180,4|0
80,99,149924,1,0
80,99,150037,1,8
200,112,150264,2,0,B|296:128|376:64,1,180
440,160,150946,1,8
368,256,151174,1,0
256,224,151401,1,0
104,224,151628,5,0
408,224,151855,1,8
256,192,152083,1,0
128,104,152310,2,0,B|176:96|192:48,1,90
384,280,152764,2,0,B|336:288|320:336,1,90,4|0
200,328,153219,5,4
96,272,153446,1,0
136,160,153674,1,8
256,176,153901,1,0
360,120,154128,2,0,B|416:128|416:184,1,90,2|0
416,240,154469,1,0
392,296,154583,1,8
280,336,154810,1,0
272,208,155037,5,2
368,136,155264,1,0
320,32,155492,1,8
200,40,155719,1,0
176,152,155946,2,0,B|128:144|96:96,1,90,2|0
176,152,156401,2,0,B|128:160|96:208,1,90,8|0
168,296,156855,5,2
280,320,157083,1,0
336,320,157196,1,0
392,304,157310,1,8
472,216,157537,1,0
440,104,157764,2,0,B|440:56,1,45,2|0
380,180,158105,2,0,B|380:236,1,45,0|8
320,104,158446,6,0,B|216:104,1,90,0|2
124,156,158901,2,0,B|80:180|72:228,1,90,0|8
152,312,159355,2,0,B|248:312,1,90,0|2
360,300,159810,1,0
448,224,160037,2,0,B|448:160,1,45,8|0
448,120,160264,1,0
352,56,160492,5,4
232,56,160719,1,0
352,56,160946,1,8
232,56,161174,1,0
232,176,161401,2,0,B|176:176|152:128,1,90,2|0
112,96,161742,1,0
56,80,161855,1,8
56,200,162083,1,0
112,304,162310,6,0,B|152:328|208:320,1,90,2|0
304,272,162764,2,0,B|336:312|392:320,1,90,8|0
432,216,163219,1,2
432,96,163446,1,0
400,48,163560,1,0
344,40,163674,1,8
168,192,164128,5,2
248,280,164355,1,0
144,336,164583,1,8
168,192,164810,1,0
112,88,165037,1,2
208,24,165264,1,0
168,192,165492,1,8
400,192,165946,5,8
272,120,166174,1,8
232,256,166401,1,8
104,192,166628,1,8
372,284,167083,5,0
416,248,167196,1,0
456,208,167310,2,8,B|448:104|352:64,1,180,8|4
256,120,167992,1,0
168,48,168219,1,8
128,160,168446,1,0
320,296,168901,5,0
264,320,169014,1,0
208,320,169128,2,0,B|112:296|80:200,1,180,8|4
256,192,169810,12,0,173219
120,80,184128,6,0,B|120:176,1,90,6|0
72,280,184583,1,8
192,280,184810,2,0,B|280:312|376:280,1,180,4|0
328,176,185492,1,8
440,208,185719,2,0,B|423:115|347:48,1,180,4|0
312,48,186287,1,0
272,48,186401,1,8
208,144,186628,2,0,B|112:128|56:56,1,180,4|0
32,168,187310,1,8
80,280,187537,6,0,B|168:264,1,90,4|2
360,304,187992,2,0,B|392:208,1,90,0|8
408,48,188446,2,0,B|320:72,1,90,0|2
152,80,188901,2,0,B|120:176,1,90,0|8
256,192,189355,1,0
456,320,189810,5,0
392,224,190037,2,0,B|392:128,1,90,8|0
312,48,190492,1,0
272,32,190605,1,0
232,48,190719,1,0
112,48,190946,1,8
192,264,191401,6,0,B|280:304|368:264,1,180,0|8
396,228,191969,1,0
420,188,192083,1,0
376,112,192310,6,0,B|312:64|240:64,1,134.999995976687,4|8
168,80,192991,1,0
104,136,193219,1,2
88,224,193446,1,0
136,296,193673,1,8
312,320,194128,6,0,B|392:312|432:240,1,134.999995976687,2|8
440,168,194809,1,0
424,80,195037,1,2
352,32,195264,1,0
264,40,195491,1,8
256,216,195946,6,0,B|256:296,1,67.4999979883433,2|0
168,280,196400,2,0,B|88:280,1,67.4999979883433,8|0
104,192,196855,2,0,B|104:120,2,67.4999979883433,2|0|8
192,192,197537,1,0
232,112,197764,5,2
272,192,197991,1,0
312,112,198219,1,8
352,192,198446,1,0
392,112,198673,2,0,B|392:40,2,67.4999979883433,2|0|8
256,304,199582,6,0,B|168:304,1,90,4|0
80,224,200037,2,0,B|56:176|80:128,1,90,8|0
152,48,200491,1,2
272,48,200719,1,0
316,52,200832,1,0
348,84,200946,1,8
416,168,201173,1,0
352,264,201400,6,0,B|384:304|440:304,2,90,2|0|8
232,264,202082,1,0
128,320,202309,2,0,B|72:248,1,90,2|0
160,176,202764,2,0,B|216:104,1,90,8|0
328,144,203219,5,2
432,88,203446,1,0
472,200,203673,1,8
408,296,203900,1,0
296,328,204128,2,0,B|192:328|136:256,1,180,2|8
256,56,205037,5,0
168,128,205264,1,0
216,232,205491,1,0
120,296,205719,1,0
40,80,206173,1,0
152,56,206400,2,0,B|240:32|336:64,1,180,8|4
448,56,207082,5,0
368,144,207309,1,8
464,216,207537,1,0
384,296,207764,2,0,B|344:320|296:312,1,90,2|0
240,300,208105,1,0
188,272,208219,1,8
132,168,208446,1,0
216,88,208673,5,2
272,68,208787,1,0
332,72,208900,1,0
380,108,209014,1,0
400,164,209128,1,8
444,272,209355,1,0
444,272,209469,1,0
444,272,209582,1,2
328,296,209809,1,0
212,296,210037,1,8
172,184,210264,1,0
64,136,210491,6,0,B|88:88|136:72,1,90,2|0
184,56,210832,1,0
244,56,210946,1,8
344,64,211173,1,0
456,100,211400,1,2
472,156,211514,1,0
456,212,211628,1,0
472,268,211741,1,0
456,320,211855,1,8
340,304,212082,5,0
280,308,212196,1,0
224,284,212309,1,2
108,260,212537,1,0
72,212,212650,1,0
80,152,212764,1,8
96,36,212991,1,0
212,40,213219,2,0,B|260:48|284:96,1,90,2|0
304,144,213559,1,0
304,204,213673,1,8
320,316,213900,1,0
320,316,214128,6,0,B|272:300|224:316,1,90,4|0
152,228,214582,2,0,B|144:172|104:140,1,90,8|0
32,64,215037,1,2
4,176,215264,1,0
8,236,215378,1,0
44,284,215491,1,8
152,228,215719,1,0
224,328,215946,5,2
288,228,216173,1,0
224,328,216400,1,8
288,228,216628,2,0,B|344:212|356:164,1,90,0|2
356,56,217082,1,0
300,32,217196,1,0
240,40,217309,1,8
72,192,217764,5,2
128,96,217991,1,0
192,192,218219,1,8
248,96,218446,1,0
320,192,218673,2,0,B|416:192|464:96,1,180,2|8
336,296,219582,5,8
328,96,219809,1,8
176,296,220037,1,8
176,96,220264,1,8
392,192,220719,1,0
272,192,220946,2,0,B|88:192,1,180,8|4
56,80,221628,5,0
160,32,221855,1,8
248,112,222082,1,0
184,208,222309,1,2
240,312,222537,1,0
360,320,222764,1,8
424,224,222991,1,0
424,104,223219,6,0,B|336:104,1,90,2|0
336,224,223673,2,0,B|240:224,1,90,8|0
176,320,224128,1,2
132,304,224241,1,0
104,272,224355,1,0
96,152,224582,2,0,B|96:64,1,90,8|0
216,64,225037,5,2
328,32,225264,1,0
432,80,225491,1,8
440,200,225719,1,0
344,272,225946,2,0,B|320:224|280:200,1,90,2|0
264,320,226400,2,0,B|223:284|211:239,1,90,8|0
208,128,226855,5,2
180,92,226969,1,0
140,76,227082,1,0
100,92,227196,1,0
72,128,227309,1,8
80,248,227537,1,0
104,288,227650,1,0
144,312,227764,2,0,B|192:312|240:296,1,90,2|0
352,312,228219,2,0,B|352:216,1,90,8|0
352,104,228673,5,4
248,152,228900,1,0
184,56,229128,1,8
248,152,229355,1,0
208,264,229582,1,2
96,288,229809,1,0
208,264,230037,1,8
288,352,230264,1,0
400,312,230491,5,2
436,284,230605,1,0
452,240,230719,1,0
448,124,230946,2,0,B|360:124,1,90,8|0
256,80,231400,1,2
144,104,231628,1,0
224,192,231855,1,8
112,216,232082,1,0
184,304,232309,6,0,B|224:336|272:320,1,90,2|0
376,280,232764,2,0,B|408:240|392:192,1,90,8|0
344,88,233219,1,2
304,64,233332,1,0
268,88,233446,1,0
228,64,233559,1,0
188,88,233673,1,8
72,92,233900,1,0
56,204,234128,6,0,B|104:292|208:308,1,180,6|8
316,304,234809,2,0,B|413:280|455:184,1,180,4|0
408,88,235491,1,8
176,72,235946,6,0,B|128:88|112:136,1,90,2|0
112,248,236400,1,8
208,320,236628,1,0
328,304,236855,2,0,B|376:288|392:240,1,90,2|0
400,128,237309,1,8
304,56,237537,1,0
256,160,237764,6,0,B|256:272|144:288,1,180,2|0
256,160,238673,2,0,B|256:272|368:288,1,180,2|0
256,192,239582,12,0,242309
256,192,243219,12,0,245037
