osu file format v9

[General]
AudioFilename: Anata ni fit.mp3
AudioLeadIn: 0
PreviewTime: 80374
Countdown: 0
SampleSet: Soft
StackLeniency: 0.7
Mode: 0
LetterboxInBreaks: 1

[Editor]
Bookmarks: 15942,142306,142761,188442
DistanceSpacing: 1.2
BeatDivisor: 4
GridSize: 4

[Metadata]
Title:Anata ni FIT
Artist:ClariS
Creator:Guy
Version:Hard
Source:Nendoroid Generation
Tags:PSP Opening Alice Clara Nexus kz livetune

[Difficulty]
HPDrainRate:6
CircleSize:4
OverallDifficulty:6
ApproachRate:7
SliderMultiplier:1.6
SliderTickRate:1

[Events]
//Background and Video events
0,0,"img_626812_21102264_2.jpg"
//Break Periods
2,26146,35951
2,98874,108679
2,173419,183224
//Storyboard Layer 0 (Background)
//Storyboard Layer 1 (Fail)
//Storyboard Layer 2 (Pass)
//Storyboard Layer 3 (Foreground)
//Storyboard Sound Samples
//Background Colour Transformations
3,100,163,162,255

[TimingPoints]
7765,454.545454545455,4,2,1,60,1,0
50719,-100,4,1,2,5,0,0
50833,-100,4,2,1,60,0,0
51060,-100,4,1,2,5,0,0
51174,-100,4,2,1,60,0,0
80492,-100,4,2,1,60,0,1
95037,-100,4,2,1,60,0,0
129469,-133.333333333333,4,2,1,60,0,0
130378,-100,4,2,1,60,0,0
130719,-100,4,1,2,5,0,0
130833,-100,4,2,1,60,0,0
131060,-100,4,1,2,5,0,0
131174,-100,4,2,1,60,0,0
153219,-100,4,2,1,60,0,1
169583,-100,4,2,1,60,0,0
192310,454.545454545455,4,2,1,60,1,0
192310,-133.333333333333,4,2,1,30,0,0
199241,-100,4,2,1,60,0,0
206855,-100,4,2,1,60,0,1
221400,-100,4,2,1,60,0,0
235832,-100,4,2,1,40,0,0
242764,-100,4,2,1,5,0,0

[Colours]
Combo1 : 0,0,255
Combo2 : 255,128,255
Combo3 : 255,0,128
Combo4 : 0,255,255

[HitObjects]
136,32,7765,5,4
72,104,7992,1,0
120,184,8219,1,8
52,252,8446,1,0
144,280,8674,2,0,B|232:280|280:208,1,160,2|8
400,56,9583,5,2
472,120,9810,1,0
376,144,10037,1,8
336,232,10265,1,0
280,152,10492,2,0,B|232:152|184:112,2,80,2|0|8
420,284,11401,5,2
344,340,11628,1,0
288,264,11855,1,8
212,324,12083,1,0
156,244,12310,2,0,B|92:188|68:108,1,160,2|8
144,48,12992,6,0,B|176:72|224:64,1,80,0|2
312,40,13446,1,0
408,52,13674,1,8
396,148,13901,1,0
300,140,14128,2,0,B|263:155|246:201,2,80,2|0|12
428,292,15037,5,4
344,340,15265,1,0
248,332,15492,1,8
180,264,15719,1,0
176,168,15946,2,0,B|80:152|80:48,1,160,2|8
256,104,16855,5,2
344,64,17083,1,0
416,128,17310,1,8
368,216,17537,1,0
272,200,17765,2,0,B|176:216|176:320,1,160,2|8
368,296,18674,6,0,B|416:272|448:216,1,80,2|0
360,176,19128,2,0,B|408:152|420:124,1,80,8|0
336,72,19583,2,0,B|256:24|183:69,1,160,2|8
256,248,20492,6,0,B|256:336,3,80,0|0|8|0
120,192,21628,1,0
120,96,21855,2,0,B|176:24|272:56,1,160,8|4
256,192,22537,12,0,25946
160,48,36855,5,2
160,48,37083,2,0,B|144:88|104:120,1,80,0|0
24,152,37537,2,0,B|40:192|80:224,1,80,0|2
168,192,37992,2,0,B|256:192,2,80,0|8|0
168,288,38674,1,2
312,312,39014,2,0,B|376:280|400:192,1,120,0|8
256,88,39810,5,0
168,48,40037,1,8
120,64,40151,1,0
88,96,40264,1,0
88,192,40492,5,2
184,192,40719,2,0,B|264:192,2,80,0|8|0
208,288,41401,1,2
304,288,41628,1,0
328,192,41855,1,8
256,128,42083,1,0
336,72,42310,6,0,B|408:72|448:16,2,120,2|0|0
408,136,43219,1,2
392,280,43560,1,0
256,248,43901,2,0,B|256:336,1,80,0|2
160,320,44355,5,0
160,224,44583,1,8
72,264,44810,1,0
72,168,45037,1,2
160,128,45264,2,0,B|208:120|248:64,1,80,0|8
248,184,45719,2,0,B|270:227|336:247,1,80,0|2
352,320,46174,5,0
352,224,46401,1,8
440,264,46628,1,0
440,168,46855,1,2
352,128,47083,2,0,B|304:120|264:64,1,80,0|8
264,184,47537,2,0,B|241:227|175:247,1,80,0|2
112,208,47992,6,0,B|65:195|31:135,2,80,0|8|0
160,296,48674,1,2
256,272,48901,1,0
352,296,49128,1,8
400,208,49355,1,0
376,112,49583,5,2
192,56,50037,2,0,B|136:56|96:104,1,80,8|0
64,160,50492,2,0,B|80:216|144:240,1,100,2|0
152,232,50833,2,0,B|209:224|256:274,1,100,2|0
272,264,51174,2,0,B|319:274|362:236,1,80,2|4
416,184,51628,5,0
392,88,51855,1,8
296,80,52083,1,0
264,168,52310,1,2
336,232,52537,1,0
416,288,52764,6,0,B|376:320|312:304,1,80,8|0
248,280,53219,2,0,B|184:240|176:152,2,120,2|0|0
160,320,54128,1,2
64,296,54355,1,0
104,208,54583,1,8
8,184,54810,1,0
56,104,55037,1,2
152,120,55264,6,0,B|208:88|216:32,1,80,0|8
304,64,55719,1,0
256,152,55946,2,0,B|344:160|400:96,1,160,2|8
480,48,56628,1,0
480,144,56855,2,0,B|416:203|426:286,2,120,2|0|0
399,96,57764,5,2
256,48,58105,1,0
112,96,58446,2,0,B|80:136|128:200,1,80,0|4
80,264,58901,5,0
176,280,59128,1,8
208,192,59355,1,0
304,192,59583,1,2
344,280,59810,1,0
432,264,60037,2,0,B|464:240|480:192,1,80,8|0
432,120,60492,5,2
432,120,60719,1,0
344,104,60946,1,8
304,192,61174,1,0
208,192,61401,1,2
176,104,61628,1,0
80,120,61855,2,0,B|48:144|32:192,1,80,8|0
48,280,62310,1,2
240,320,62764,6,0,B|288:352|360:344|408:280,1,160,8|2
456,232,63446,1,0
424,140,63674,1,8
332,164,63901,1,0
308,256,64128,2,0,B|260:240|228:184,1,80,2|0
176,140,64583,2,0,B|128:156|96:212,1,80,8|0
120,280,65037,5,2
256,336,65378,1,0
392,280,65719,1,0
392,184,65946,6,0,B|424:96|368:32,1,160,4|8
272,56,66628,1,0
288,152,66855,2,0,B|200:184|136:128,1,160,2|8
64,192,67537,2,0,B|62:285|136:327,1,160
224,296,68219,1,8
320,312,68446,1,0
408,264,68674,2,0,B|448:240|448:176,1,80,2|0
392,48,69128,2,0,B|352:72|352:136,1,80,8|0
232,48,69583,6,0,B|144:16|80:88,1,160,2|8
48,168,70264,1,0
96,256,70492,2,0,B|256:280,1,160,2|8
272,184,71174,2,0,B|360:152|416:224,1,160
328,264,71855,2,0,B|368:104,1,160,8|2
280,64,72537,1,0
224,144,72764,1,8
152,80,72992,1,0
96,160,73219,6,0,B|72:208|24:232,2,80,2|0|8
176,216,73901,2,0,B|224:288|320:280,1,160,4|0
400,232,74583,1,8
416,136,74810,2,0,B|416:56,1,80,4|2
328,96,75264,2,0,B|265:33,1,80,0|8
240,128,75719,2,0,B|164:164|84:128,1,160,4|0
40,212,76401,1,8
128,252,76628,2,0,B|204:216|284:252,1,160,4|0
372,212,77310,1,8
256,192,77537,12,2,78674
256,192,78901,5,0
256,192,79128,1,8
64,192,79583,1,2
448,192,80037,1,8
320,48,80492,6,0,B|296:88|256:88,3,80,4|0|8|0
160,88,81401,2,0,B|72:96|48:192,1,160,2|8
192,320,82310,6,0,B|216:280|256:280,3,80,2|0|8|0
352,296,83219,2,0,B|440:288|464:192,1,160,2|8
312,80,84128,5,2
216,80,84355,1,0
264,160,84583,1,8
168,160,84810,1,0
72,160,85037,2,0,B|64:256|152:288,1,160,2|8
320,304,85946,5,2
416,312,86174,1,0
400,216,86401,1,8
432,128,86628,1,0
376,48,86855,2,0,B|296:72|216:64,2,160,0|8|4
336,136,87992,5,0
256,192,88219,1,8
176,136,88446,1,0
128,48,88674,1,2
48,224,89128,1,8
216,320,89583,6,0,B|296:288,1,80,2|0
384,304,90037,2,0,B|440:248,1,80,8|0
352,208,90492,2,0,B|392:128,2,80,2|0|8
208,80,91401,6,0,B|128:80,1,80,2|0
80,160,91855,2,0,B|32:240,1,80,8|0
112,296,92310,2,0,B|192:328|272:292,1,160,2|8
256,104,93219,5,8
216,192,93446,1,8
256,280,93674,1,8
296,192,93901,1,8
104,192,94355,1,0
128,96,94583,2,0,B|184:24|272:48,1,160,8|4
256,192,95265,12,4,98674
352,72,109583,5,2
408,152,109810,2,0,B|408:200|376:240,2,80,0|8|0
312,160,110492,1,2
288,256,110719,1,0
192,232,110946,1,8
120,296,111174,1,0
56,224,111401,6,0,B|24:128|112:88,1,160,2|8
160,176,112083,2,0,B|244:120|199:34,1,160,0|0
296,40,112765,1,8
344,48,112878,1,0
384,80,112992,1,0
424,168,113219,1,2
360,240,113446,5,0
296,312,113674,1,8
360,240,113901,1,0
320,152,114128,1,2
224,176,114355,1,0
168,96,114583,2,0,B|120:104|88:128,1,80,8|0
64,216,115037,2,0,B|56:288|136:336,2,120,2|0|0
112,128,115946,5,2
256,96,116287,1,0
400,128,116628,1,0
392,224,116855,5,2
320,288,117083,2,0,B|288:248|240:248,1,80,0|8
168,296,117537,2,0,B|117:286|95:244,1,80,0|2
56,168,117992,1,0
88,80,118219,2,0,B|152:32|240:48,1,160,8|2
208,136,118901,5,0
272,208,119128,1,8
336,136,119355,1,0
400,208,119583,2,0,B|360:288,1,80,2|0
272,312,120037,2,0,B|192:344|112:296,1,160,8|2
80,216,120719,5,0
64,120,120946,1,8
80,216,121174,1,0
152,152,121401,1,2
248,128,121628,1,0
224,224,121855,2,0,B|264:240|328:232,1,80,8|0
352,152,122310,5,2
184,56,122765,1,8
144,80,122878,1,0
120,120,122992,1,0
128,216,123219,5,2
256,288,123560,1,0
384,216,123901,2,0,B|384:136,1,80,0|4
344,48,124355,5,0
248,64,124583,1,8
152,48,124810,1,0
88,120,125037,2,0,B|40:128|16:80,2,80,2|0|8
56,208,125719,1,0
112,288,125946,2,0,B|0:344,2,120,2|0|0
200,248,126855,6,0,B|272:296,1,80,2|0
360,328,127310,2,0,B|424:256,1,80,8|0
464,192,127765,1,2
416,112,127992,6,0,B|464:120|488:72,2,80,0|8|0
336,64,128674,1,2
240,56,128901,1,0
240,152,129128,2,0,B|160:152,1,80,8|0
72,128,129583,6,0,B|72:40,2,89.9999973177911,2|0|0
76,224,130492,6,0,B|108:256|156:252,1,80,2|0
196,244,130833,2,0,B|228:212|280:208,1,80,2|0
308,236,131174,2,0,B|340:268|384:268,1,80,2|4
472,296,131628,6,0,B|488:256|480:208,1,80,0|8
416,144,132083,2,0,B|400:104|408:56,1,80,0|2
316,32,132537,1,0
228,72,132765,2,0,B|148:112|60:80,1,160,8|2
40,176,133446,6,0,B|56:216|48:264,1,80,0|8
136,296,133901,2,0,B|176:280|224:288,1,80,0|2
296,328,134355,1,0
392,304,134583,2,0,B|432:224|400:136,1,160,8|2
216,96,135492,5,8
144,160,135719,1,0
256,192,135946,1,2
256,192,136174,1,0
296,96,136401,1,8
368,160,136628,1,0
432,232,136855,6,0,B|400:320|296:304,1,160,2|8
216,272,137537,1,0
128,312,137765,1,2
96,168,138105,1,0
184,48,138446,1,0
280,56,138674,6,0,B|360:64|456:40,1,160,4|8
480,128,139355,1,0
504,224,139583,2,0,B|480:304|384:320,1,160,2|8
312,256,140265,2,0,B|258:191|164:214,1,160
168,308,140946,1,8
84,264,141174,1,0
84,168,141401,1,2
168,120,141628,1,0
256,48,141855,5,8
428,168,142310,1,2
432,264,142537,1,0
344,308,142765,1,8
256,248,142992,2,0,B|256:160,1,80,0|2
72,104,143674,6,0,B|88:184,1,80,8|0
176,136,144128,1,2
256,88,144355,2,0,B|344:120,1,80,0|8
424,280,145037,1,2
256,376,145492,1,8
88,280,145946,6,0,B|40:264|40:208,1,80,6|0
64,120,146401,1,8
160,80,146628,2,0,B|240:48|320:80,1,160
280,168,147310,1,8
376,144,147537,2,0,B|408:224|376:304,1,160
288,336,148219,5,8
208,288,148446,2,0,B|128:248|64:248,1,120
94,250,148901,1,0
88,152,149128,1,8
144,72,149355,2,0,B|256:72|224:175|368:175,1,240,4|8
416,104,150264,2,0,B|480:104|536:184|480:256|416:256,1,240,0|8
320,272,151174,1,0
160,192,151628,5,0
256,96,151855,1,8
352,192,152083,1,0
256,288,152310,2,0,B|184:320|96:320,1,160,0|4
40,136,153219,5,4
104,64,153446,1,0
144,152,153674,1,8
208,80,153901,1,0
240,168,154128,2,0,B|288:152|304:104,2,80,2|0|8
432,192,155037,6,0,B|384:256,1,80,2|0
312,192,155492,2,0,B|264:256,1,80,8|0
336,320,155946,2,0,B|256:360|184:312,1,160,2|8
104,136,156855,5,2
128,232,157083,1,0
32,208,157310,1,8
16,112,157537,1,0
88,48,157764,1,2
176,80,157992,1,0
192,176,158219,1,8
256,248,158446,6,0,B|296:272|344:248,1,80,0|2
424,168,158901,2,0,B|384:192|336:168,1,80,0|8
256,88,159355,2,0,B|296:112|344:88,2,80,0|2|0
224,176,160037,2,0,B|144:120|184:32,1,160,8|4
88,56,160719,5,0
56,144,160946,1,8
96,232,161174,1,0
192,240,161401,2,0,B|280:224|336:288,1,160,2|8
456,136,162310,5,2
408,48,162537,1,0
312,24,162764,1,8
240,88,162992,1,0
256,184,163219,2,0,B|192:240|104:192,1,160,2|8
256,312,164128,5,2
184,248,164355,1,0
208,160,164583,1,8
304,160,164810,1,0
328,248,165037,1,2
256,72,165492,1,8
256,72,165946,5,8
208,160,166174,1,8
256,248,166401,1,8
304,160,166628,1,8
256,320,167083,5,0
160,320,167310,2,0,B|72:288|72:192,1,160,8|4
352,320,168219,2,0,B|440:288|440:192,1,160,8|0
344,192,168901,1,0
248,192,169128,2,0,B|88:192,1,160,10|4
256,192,169810,12,0,173219
184,48,184128,5,6
112,112,184355,1,0
48,296,184810,2,0,B|128:328|208:296,1,160,2|0
204,297,185492,1,8
304,296,185719,2,0,B|384:328|464:296,1,160,2|0
424,208,186401,5,8
480,128,186628,2,0,B|392:104|344:24,1,160,2|0
256,24,187310,1,8
168,64,187537,2,0,B|80:112|216:240|80:296,1,240,6|8
184,344,188446,2,0,B|230:255|360:388|414:251,1,240,2|8
408,184,189355,1,0
256,72,189810,6,0,B|256:168,1,80,0|8
160,152,190264,1,0
208,240,190492,1,0
304,240,190719,1,0
352,152,190946,1,4
128,72,192310,6,0,B|80:128|132:184,1,120,2|8
112,256,192991,2,0,B|184:256,1,59.9999982118607,0|2
224,208,193446,2,0,B|304:208,1,59.9999982118607,0|8
416,160,194128,5,2
344,160,194355,1,0
376,96,194582,1,8
304,96,194809,1,0
336,32,195037,2,0,B|256:32,2,59.9999982118607,2|0|8
256,152,195946,6,0,B|224:136|176:144,1,59.9999982118607,2|0
184,216,196400,2,0,B|148:221|105:198,1,59.9999982118607,8|0
72,160,196855,1,2
40,96,197082,1,0
88,40,197309,1,8
152,80,197537,1,0
144,152,197764,6,0,B|208:176|272:152,1,119.999996423721,2|8
328,124,198446,1,0
400,112,198673,2,0,B|424:176|400:240,1,119.999996423721,2|8
208,256,199582,5,2
152,176,199809,1,0
56,192,200037,1,8
112,272,200264,1,0
208,256,200491,2,0,B|296:240|304:144,1,160,2|8
304,256,201400,5,2
360,176,201628,1,0
456,192,201855,1,8
400,272,202082,1,0
304,256,202309,2,0,B|216:240|208:144,1,160,2|8
400,120,203219,6,0,B|344:200,1,80,2|0
288,256,203673,2,0,B|232:176,1,80,8|0
184,112,204128,1,2
240,32,204355,1,0
336,32,204582,1,8
232,192,205037,6,0,B|200:216|152:216,1,80,0|0
64,184,205491,1,0
32,96,205719,1,0
224,72,206173,1,0
320,72,206400,2,0,B|416:72|424:176,1,160,8|4
392,264,207082,5,0
328,192,207309,1,8
304,288,207537,1,0
240,216,207764,1,2
216,312,207991,1,0
152,240,208219,2,0,B|80:224|72:144|112:104,1,160,8|2
160,40,208900,5,0
224,112,209128,1,8
256,24,209355,1,0
320,96,209582,1,2
352,8,209809,1,0
416,80,210037,2,0,B|472:128|384:208|448:240,1,160,8|2
384,312,210719,5,0
288,288,210946,2,0,B|208:264|128:264,1,160,8|2
56,208,211628,1,0
120,136,211855,2,0,B|200:112|280:112,1,160,8|2
324,28,212537,1,0
412,68,212764,1,8
420,160,212991,1,0
328,188,213219,1,2
136,188,213673,1,8
296,296,214128,6,0,B|336:288|384:296,1,80,4|0
344,208,214582,2,0,B|384:200|432:208,1,80,8|0
472,120,215037,2,0,B|392:80|312:120,1,160,2|8
248,184,215719,1,0
168,280,215946,6,0,B|105:342,1,80,2|0
128,192,216400,2,0,B|40:192,1,80,8|0
168,104,216855,2,0,B|105:41,2,80,2|0|8
360,112,217764,5,2
408,192,217991,1,0
328,240,218219,1,8
280,160,218446,1,0
208,96,218673,2,0,B|168:104|128:128,1,80,2|0
120,224,219128,2,0,B|150:251|193:268,1,80,8|0
256,336,219582,5,8
256,240,219809,1,8
256,144,220037,1,8
256,48,220264,1,8
96,152,220719,1,0
48,240,220946,2,0,B|56:336|168:344,1,160,10|4
248,344,221628,5,0
328,288,221855,1,8
416,328,222082,2,0,B|448:256|416:168,1,160
472,88,222764,1,8
392,32,222991,2,0,B|304:32|248:96,1,160
176,160,223673,5,8
104,224,223900,1,0
192,256,224128,1,2
256,72,224582,2,0,B|96:72,1,160,8|2
48,152,225264,5,0
96,72,225491,1,8
144,152,225719,2,0,B|160:232|256:256,1,160
256,160,226400,1,8
256,64,226628,2,0,B|344:64,1,80,0|2
344,160,227082,2,0,B|432:160,1,80,0|8
472,240,227537,2,0,B|472:336|368:352,1,160
296,296,228219,1,8
104,296,228673,6,0,B|104:136|104:136,1,160,6|8
144,48,229355,1,0
208,120,229582,1,2
144,48,229809,1,0
208,120,230037,1,8
304,120,230264,1,0
368,192,230491,2,0,B|440:256|376:336,1,160,2|8
304,272,231173,2,0,B|240:272|248:344|152:344,1,160
166,343,231855,1,8
40,192,232309,5,2
96,112,232537,1,0
184,72,232764,1,8
184,168,232991,2,0,B|272:184|352:152,1,160
432,192,233673,1,8
360,256,233900,2,0,B|270:257|198:303,1,160
112,320,234582,1,8
72,232,234809,2,0,B|80:136|168:120,1,160
256,88,235491,1,8
368,240,235946,6,0,B|256:296|128:240,1,240
136,152,236855,2,0,B|248:96|376:152,1,240
456,192,237764,5,0
256,344,238219,1,0
56,192,238673,1,0
256,40,239128,1,0
256,192,239582,12,0,242309
256,192,243219,12,0,245037
