osu file format v9

[General]
AudioFilename: Anata ni fit.mp3
AudioLeadIn: 0
PreviewTime: 80374
Countdown: 0
SampleSet: Soft
StackLeniency: 0.7
Mode: 0
LetterboxInBreaks: 1

[Editor]
Bookmarks: 15942,188442,225487
DistanceSpacing: 0.7
BeatDivisor: 4
GridSize: 4

[Metadata]
Title:Anata ni FIT
Artist:ClariS
Creator:Guy
Version:Easy
Source:Nendoroid Generation
Tags:PSP Opening Alice Clara Nexus kz livetune

[Difficulty]
HPDrainRate:2
CircleSize:3
OverallDifficulty:2
ApproachRate:2
SliderMultiplier:0.9
SliderTickRate:1

[Events]
//Background and Video events
0,0,"img_626812_21102264_2.jpg"
//Break Periods
2,26146,35295
2,98874,108023
2,173419,182568
//Storyboard Layer 0 (Background)
//Storyboard Layer 1 (Fail)
//Storyboard Layer 2 (Pass)
//Storyboard Layer 3 (Foreground)
//Storyboard Sound Samples
//Background Colour Transformations
3,100,163,162,255

[TimingPoints]
7765,454.545454545455,4,2,1,60,1,0
57651,-100,4,2,0,40,0,0
58560,-100,4,2,1,60,0,0
80492,-100,4,2,1,60,0,1
95037,-100,4,2,1,60,0,0
115833,-100,4,2,0,40,0,0
116742,-100,4,2,1,60,0,0
153219,-100,4,2,1,60,0,1
169583,-100,4,2,1,60,0,0
192310,454.545454545455,4,2,1,60,1,0
192764,-100,4,2,1,30,0,0
199355,-100,4,2,1,60,0,0
206855,-100,4,2,1,60,0,1
221400,-100,4,2,1,60,0,0
235832,-100,4,2,1,40,0,0
242764,-100,4,2,1,5,0,0

[Colours]
Combo1 : 0,0,255
Combo2 : 255,128,255
Combo3 : 255,0,128
Combo4 : 0,255,255

[HitObjects]
128,88,7765,1,6
128,152,8219,1,0
128,216,8674,1,8
256,216,9583,2,0,B|352:240|448:212,1,180,2|8
432,88,11401,5,2
368,64,11855,1,0
308,80,12310,2,0,B|212:72|140:136,1,180,8|2
140,260,14128,2,0,B|52:260,2,90,8|0|4
264,264,15946,5,8
388,264,16855,2,0,B|444:176|380:88,1,180,2|8
260,72,18674,6,0,B|180:72|180:72|180:72|180:72|76:72,1,180,2|8
76,196,20492,2,0,B|76:284,1,90,2|0
168,308,21628,2,0,B|236:340|312:304,1,135,0|4
256,192,22537,12,0,25946
256,88,36855,5,2
384,88,37764,1,8
384,212,38674,2,0,B|344:308|240:316,1,180,2|8
184,316,40037,1,0
120,316,40492,5,2
120,192,41401,1,8
244,192,42310,2,0,B|340:168|364:72,1,180,2|8
300,72,43674,1,0
236,72,44128,5,2
112,72,45037,2,0,B|48:160|120:248,1,180,8|2
240,240,46855,1,8
336,320,47764,5,2
432,240,48674,1,8
336,160,49583,2,0,B|304:64|208:48,1,180,2|8
204,112,50946,1,0
204,176,51401,5,4
80,176,52310,1,8
144,284,53219,2,0,B|232:332|328:276,1,180,2|8
416,204,55037,5,2
416,80,55946,1,8
292,80,56855,1,2
292,208,57764,2,0,B|292:288,2,67.5,8|8|8
192,84,59583,6,8,B|136:172|200:260,1,180,8|2
256,252,60946,1,0
320,252,61401,2,0,B|376:164|312:76,1,180,8|2
192,84,63219,5,8
124,188,64128,1,2
248,188,65037,2,0,B|352:188|408:92,1,180,8|4
468,212,66855,5,8
340,212,67764,2,0,B|236:212|180:308,1,180,2|8
124,296,69128,1,0
60,296,69583,5,2
60,172,70492,1,8
144,76,71401,1,2
208,76,71855,1,0
272,76,72310,1,8
364,160,73219,6,0,B|364:256,1,90,2|0
300,248,74128,1,8
176,252,75037,6,0,B|176:156,1,90,2|0
240,160,75946,1,8
364,160,76855,6,0,B|464:180|468:292,1,180,2|8
416,328,78219,1,0
324,340,78901,2,0,B|204:324|152:212,1,225,2|0
128,152,80492,5,4
192,44,81401,1,8
308,92,82310,2,0,B|364:180|308:268,1,180,2|8
248,264,83674,1,0
184,264,84128,5,2
96,176,85037,1,8
96,52,85946,1,2
160,52,86401,1,0
224,52,86855,1,8
352,52,87764,6,0,B|456:76|464:180,1,180,4|8
428,228,89128,1,0
392,280,89583,1,2
268,280,90492,1,8
268,216,90946,1,0
268,152,91401,6,0,B|188:104|92:128,1,180,2|8
124,248,93219,2,0,B|204:296|300:272,1,180,2|0
356,252,94583,1,8
256,192,95037,12,0,98674
256,64,109583,5,2
256,192,110492,1,8
256,320,111401,2,0,B|160:296|128:184,1,180,4|8
164,76,113219,6,0,B|348:76,1,180,2|8
344,200,115037,1,2
468,200,115946,2,0,B|468:128,2,67.5,8|8|8
348,304,117765,2,0,B|196:192,1,180,8|2
76,204,119583,1,8
76,80,120492,5,2
184,144,121401,1,8
292,80,122310,1,2
384,168,123219,2,0,B|424:272|336:328,1,180,8|4
212,328,125037,5,8
100,272,125946,1,2
212,212,126855,1,8
100,152,127765,2,0,B|132:48|244:56,1,180,2|8
228,180,129583,6,0,B|311:250|401:183,1,180,2|8
392,252,130946,1,0
392,316,131401,5,4
272,276,132310,1,8
152,240,133219,1,2
148,116,134128,1,8
256,56,135037,5,2
364,116,135946,1,8
364,240,136855,2,0,B|268:240|196:320,1,180,2|8
156,268,138219,1,0
116,220,138674,5,4
120,96,139583,1,8
228,164,140492,2,0,B|316:140|356:44,1,180,2|8
452,124,142310,5,2
452,248,143219,2,0,B|364:288|276:248,1,180,8|2
152,248,145037,1,8
152,124,145946,5,6
276,124,146855,2,0,B|244:196|308:228|268:308,1,180,8|2
396,300,148674,1,8
396,176,149583,6,0,B|380:72|276:48,1,180,2|8
212,152,151401,2,0,B|126:213|152:317,1,180,2|8
212,308,152764,1,0
276,308,153219,5,4
360,216,154128,1,8
432,112,155037,2,0,B|248:112,1,180,2|8
128,112,156855,5,2
128,240,157764,2,0,B|192:312|288:320,1,180,8|2
372,232,159583,1,8
372,108,160492,5,4
256,56,161401,1,8
140,108,162310,1,2
140,232,163219,1,8
256,284,164128,5,2
372,232,165037,1,8
376,108,165946,2,0,B|288:156|200:108,1,180,2|0
88,60,167764,2,0,B|61:156|127:231,1,180,2|0
256,192,169583,12,0,173219
256,72,184128,6,0,B|152:72|112:160,1,180,6|8
144,280,185946,1,2
272,280,186855,1,8
400,280,187764,6,0,B|400:96,1,180,2|8
272,88,189583,2,0,B|200:152|96:152,1,180,2|8
200,240,191401,6,0,B|200:296|256:320|312:296|312:236,1,180,2|0
356,120,193219,1,2
232,120,194128,2,0,B|128:112|80:208,1,180,8|2
192,256,195946,5,8
320,256,196855,1,2
320,128,197764,1,8
192,128,198673,1,2
192,192,199128,1,0
192,256,199582,6,0,B|296:256|368:192,1,180,8|0
328,76,201400,1,8
212,124,202309,1,2
100,180,203219,6,0,B|140:260|244:284,1,180,8|2
368,280,205037,2,0,B|368:88,1,180,8|2
312,68,206400,1,0
256,36,206855,5,4
256,160,207764,1,2
144,100,208673,1,8
144,224,209582,1,2
256,284,210491,6,0,B|344:324|432:284,1,180,8|2
428,160,212309,1,8
344,68,213219,1,2
256,160,214128,6,0,B|160:136|112:56,1,180,12|2
72,176,215946,1,8
132,284,216855,1,2
256,288,217764,6,0,B|440:288,1,180,8|2
436,164,219582,2,0,B|340:132|292:44,2,180,8|2|4
320,208,222309,5,0
204,160,223219,1,8
88,208,224128,1,0
204,260,225037,6,0,B|284:308|380:300,1,180,8|0
316,188,226855,2,0,B|401:149|449:66,2,180,8|0|8
220,108,229582,5,0
124,188,230491,1,8
220,268,231400,2,0,B|308:332|388:264,1,180,0|8
420,144,233219,5,0
380,24,234128,1,8
256,24,235037,2,0,B|256:208,1,180,0|8
132,192,236855,5,0
256,192,237764,1,0
380,192,238673,1,0
256,192,239582,12,0,242309
256,192,243219,12,0,245037
