osu file format v5

[General]
AudioFilename: 01 - Dango Dango Dango.mp3
AudioLeadIn: 0
PreviewTime: -1
Countdown: 1
SampleSet: Soft
StackLeniency: 0.7
Mode: 0
EditorBookmarks: 28831

[Metadata]
Title:Dango Dango Dango
Artist:Clannad Movie
Creator:Hitoshirenu Shourai
Version:Hard
Source:
Tags:

[Difficulty]
HPDrainRate:5
CircleSize:6
OverallDifficulty:5
SliderMultiplier:1.4
SliderTickRate:4

[Events]
//Background and Video events
0,0,"vlcsnap-5517253.png"
//Break Periods
//Storyboard Layer 0 (Background)
//Storyboard Layer 1 (Failing)
//Storyboard Layer 2 (Passing)
//Storyboard Layer 3 (Foreground)
//Storyboard Sound Samples
//Background Colour Transformations
3,100,163,162,255

[TimingPoints]
4170,254.237288135593,4,2,0,100

[HitObjects]
104,72,4159,2,0,B|200:184,1,140
144,224,4678,1,0
280,224,5186,2,0,B|384:120,1,140
320,88,5695,1,0
184,56,6203,6,0,B|64:144,1,140
64,208,6712,1,0
176,288,7220,2,0,B|344:328,1,140
368,280,7729,1,0
304,152,8237,6,0,B|208:24,1,140
152,40,8746,1,0
104,96,9000,1,0
152,144,9254,1,0
104,192,9508,1,0
152,240,9763,1,0
104,288,10017,1,0
152,336,10271,2,0,B|304:336,1,140
344,288,10780,2,0,B|472:88|280:48,2,280
248,184,12305,5,0
176,184,12559,1,0
104,184,12814,1,0
80,248,13068,1,0
40,184,13322,1,0
80,120,13576,1,0
80,48,13831,2,0,B|368:48|368:320,1,420
296,288,14847,1,0
224,288,15102,1,0
224,216,15356,6,0,B|248:48,1,140
208,24,15864,2,0,B|56:128|72:315|248:336,1,420
256,192,16881,12,0,19932
384,72,20949,1,0
336,120,21203,1,0
264,120,21458,1,0
208,168,21712,1,0
152,208,21966,1,0
88,232,22220,1,0
24,264,22475,2,0,B|24:344|288:352,1,280
256,208,23492,2,0,B|256:96|384:96|384:280|256:280|256:256,1,280
88,56,25017,5,0
88,160,25398,1,0
88,192,25525,2,0,B|86:343|304:336,1,280
320,320,26161,1,0
352,304,26288,1,0
384,288,26415,1,0
408,264,26542,1,0
424,232,26669,1,0
440,200,26797,1,0
448,168,26924,1,0
448,136,27051,1,0
416,72,27305,5,0
344,72,27559,2,0,B|336:216|296:224,2,140
64,112,29085,6,0,B|88:274|264:328,1,280
368,304,30102,5,0
328,248,30356,1,0
368,192,30610,1,0
328,136,30864,1,0
368,72,31119,2,0,B|240:72|240:200|176:200,1,210
152,200,31627,1,0
80,304,32136,1,0
216,304,32644,6,0,B|392:304,1,140
424,304,33153,1,0
336,192,33661,6,0,B|184:192,1,140
128,192,34169,1,0
56,192,34424,1,0
56,120,34678,1,0
128,120,34932,1,0
200,120,35186,2,0,B|496:120,2,280
256,192,36267,12,0,37220
448,72,38746,6,0,B|400:240,1,140
376,264,39254,1,0
240,304,39763,2,0,B|280:144,1,140
272,96,40271,1,0
136,64,40780,2,0,B|216:208,1,140
136,208,41288,1,0
72,336,41797,2,0,B|248:328,1,140
280,328,42305,1,0
296,192,42814,6,0,B|352:48,1,140
272,64,43322,1,0
200,64,43576,1,0
128,64,43831,2,0,B|216:216,1,140
152,240,44339,1,0
80,240,44593,1,0
40,184,44847,2,0,B|128:336,1,140
176,304,45356,2,0,B|472:304,2,280
256,192,46881,6,0,B|384:72,1,140
288,72,47390,1,0
216,80,47644,2,0,B|88:160,1,140
64,216,48153,1,0
56,288,48407,2,0,B|88:368|488:352,1,420
448,280,49424,1,0
376,280,49678,1,0
304,280,49932,6,0,B|224:152,1,140
288,184,50441,2,0,B|392:232|448:64|200:40|80:128|104:232,1,420
256,192,51458,12,0,54508
416,312,55525,5,0
344,312,55780,1,0
344,240,56034,1,0
344,168,56288,1,0
296,112,56542,1,0
256,56,56797,2,0,B|456:56|472:232,1,280
464,272,57559,2,0,B|160:296,1,280
112,296,58322,1,0
40,296,58576,1,0
256,192,58958,12,0,59339
176,48,59593,5,0
248,48,59847,1,0
248,120,60102,1,0
320,120,60356,1,0
360,176,60610,1,0
352,208,60737,1,0
320,208,60864,1,0
288,224,60992,1,0
272,256,61119,1,0
264,288,61246,1,0
240,312,61373,1,0
208,320,61500,1,0
176,320,61627,1,0
120,280,61881,1,0
144,216,62136,2,0,B|48:40|296:40,1,280
440,256,63661,5,0
296,264,64169,1,0
160,312,64678,5,0
128,296,64805,1,0
104,272,64932,2,0,B|64:104,1,140
88,64,65441,1,0
120,128,65695,2,0,B|232:320|184:16|320:272,1,280
400,304,66585,1,0
432,312,66712,1,0
320,224,67220,6,0,B|224:96,1,140
232,40,67729,1,0
144,152,68237,2,0,B|88:304,1,140
160,304,68746,1,0
224,328,69000,1,0
296,328,69254,2,0,B|432:216,1,140
416,168,69763,2,0,B|240:16|152:168,2,280
256,192,70843,12,0,71797
448,320,73322,2,0,B|304:264,1,140
256,304,73831,1,0
136,232,74339,2,0,B|288:200,1,140
336,176,74847,1,0
472,184,75356,2,0,B|312:112,1,140
288,88,75864,1,0
152,112,76373,2,0,B|152:224|40:208,1,140
48,144,76881,1,0
48,280,77390,6,0,B|208:328,1,140
248,320,77898,1,0
320,328,78153,1,0
320,256,78407,2,0,B|456:176,1,140
376,152,78915,1,0
320,112,79169,1,0
248,104,79424,2,0,B|144:208,1,140
112,144,79932,2,0,B|152:0|319:102|208:216,2,280
224,224,81458,6,0,B|384:288,1,140
416,304,81966,1,0
472,176,82475,2,0,B|352:80,1,140
296,72,82983,1,0
152,64,83492,6,0,B|88:216,1,140
48,240,84000,1,0
152,328,84508,2,0,B|144:168,1,140
208,160,85017,1,0
344,152,85525,6,0,B|360:264|240:240,1,140
200,240,86034,1,0
128,240,86288,1,0
56,240,86542,2,0,B|40:72,1,140
72,40,87051,1,0
256,192,87305,12,0,88068
416,104,88322,1,0
472,168,88576,2,0,B|328:232,2,140
256,192,89148,12,0,93153
