osu file format v14

[General]
AudioFilename: Circus-P - FIVE - 05 Goodbye.mp3
AudioLeadIn: 1000
PreviewTime: 100575
Countdown: 0
SampleSet: Soft
StackLeniency: 0.8
Mode: 0
LetterboxInBreaks: 0
WidescreenStoryboard: 0

[Editor]
Bookmarks: 23432
DistanceSpacing: 1
BeatDivisor: 4
GridSize: 4
TimelineZoom: 1

[Metadata]
Title:Goodbye
TitleUnicode:Goodbye
Artist:CircusP
ArtistUnicode:CircusP
Creator:neonat
Version:Goodbye
Source:
Tags:Hatsune Miku Vocaloid V3 6Lin FIVE Circus-P 初音ミク
BeatmapID:577427
BeatmapSetID:251269

[Difficulty]
HPDrainRate:6.5
CircleSize:4
OverallDifficulty:7
ApproachRate:8
SliderMultiplier:1.8
SliderTickRate:1

[Events]
//Background and Video events
0,0,"Goodbye.png",0,0
Video,-180,"Goodbye.avi"
//Break Periods
2,130098,134111
2,137767,143133
2,187843,194111
//Storyboard Layer 0 (Background)
//Storyboard Layer 1 (Fail)
//Storyboard Layer 2 (Pass)
//Storyboard Layer 3 (Foreground)
//Storyboard Sound Samples

[TimingPoints]
7192,451.127819548872,4,2,1,65,1,0
36064,-133.333333333333,4,2,1,75,0,0
64936,-100,4,2,1,55,0,0
72154,-100,4,2,1,65,0,0
101026,-133.333333333333,4,2,1,75,0,0
129898,-100,4,2,2,45,0,0
144109,-100,4,2,1,55,0,0
160575,-100,4,2,1,85,0,1
160688,-100,4,2,1,85,0,0
164184,-100,4,2,1,85,0,1
164297,-100,4,2,1,85,0,0
167793,-100,4,2,1,85,0,1
167906,-100,4,2,1,85,0,0
171402,-100,4,2,1,85,0,1
171515,-100,4,2,1,85,0,0
175011,-100,4,2,1,85,0,1
175124,-100,4,2,1,85,0,0
178620,-100,4,2,1,85,0,1
178733,-100,4,2,1,85,0,0
182229,-100,4,2,1,85,0,1
182342,-100,4,2,1,85,0,0
185838,-100,4,2,1,85,0,1
185951,-100,4,2,1,85,0,0
187643,-100,4,2,1,65,0,0
194861,-100,4,2,2,40,0,0
202530,-100,4,2,2,15,0,0

[Colours]
Combo1 : 55,206,104
Combo2 : 253,189,252
Combo3 : 121,253,214
Combo4 : 238,100,249

[HitObjects]
160,128,7191,6,0,P|144:192|172:272,1,135,6|0,0:0|0:0,0:0:0:0:
204,268,7643,2,0,P|256:264|312:272,1,90,2|0,0:0|0:0,0:0:0:0:
356,336,8094,1,2,0:0:0:0:
352,184,8319,1,0,0:0:0:0:
452,304,8545,1,2,0:0:0:0:
280,232,8770,1,0,0:0:0:0:
248,116,8996,6,0,P|268:56|332:24,1,135,2|0,0:0|0:0,0:0:0:0:
368,44,9447,2,0,L|452:88,1,90,2|0,0:0|0:0,0:0:0:0:
448,212,9898,2,0,L|360:164,1,90,2|0,0:0|0:0,0:0:0:0:
280,148,10349,1,2,0:0:0:0:
200,188,10575,1,0,0:0:0:0:
168,272,10801,6,0,P|152:316|80:368,1,135,2|0,0:0|0:0,0:0:0:0:
52,336,11252,2,0,L|12:224,1,90,2|0,0:0|0:0,0:0:0:0:
108,120,11703,2,0,L|112:16,2,90,2|0|2,0:0|0:0|0:0,0:0:0:0:
156,220,12379,1,0,0:0:0:0:
276,272,12605,6,0,B|324:288|324:288|344:244|420:212,1,135,2|0,0:0|0:0,0:0:0:0:
416,196,13056,2,0,P|440:152|424:88,1,90,2|0,0:0|0:0,0:0:0:0:
324,48,13507,1,2,0:0:0:0:
336,168,13733,1,0,0:0:0:0:
408,32,13958,1,2,0:0:0:0:
260,112,14184,1,0,0:0:0:0:
352,256,14410,6,0,P|352:316|296:376,1,135,2|0,0:0|0:0,0:0:0:0:
260,372,14861,2,0,P|208:364|160:368,1,90,2|0,0:0|0:0,0:0:0:0:
44,348,15312,1,2,0:0:0:0:
156,268,15537,1,0,0:0:0:0:
12,220,15763,1,2,0:0:0:0:
132,304,15988,1,0,0:0:0:0:
168,164,16214,6,0,P|176:120|144:24,1,135,2|0,0:0|0:0,0:0:0:0:
112,60,16665,2,0,L|232:64,1,90,2|0,0:0|0:0,0:0:0:0:
288,148,17116,1,2,0:0:0:0:
284,32,17342,1,0,0:0:0:0:
380,136,17567,2,0,P|368:200|328:228,1,90,2|0,0:0|0:0,0:0:0:0:
212,196,18019,6,0,P|152:200|96:276,1,135,2|0,0:0|0:0,0:0:0:0:
84,292,18470,2,0,L|64:176,1,90,2|0,0:0|0:0,0:0:0:0:
176,108,18921,2,0,L|160:12,2,90,2|0|2,0:0|0:0|0:0,0:0:0:0:
204,240,19598,1,0,0:0:0:0:
336,304,19823,6,0,P|396:292|432:216,1,135,2|0,0:0|0:0,0:0:0:0:
428,188,20274,1,2,0:0:0:0:
252,88,20500,1,0,0:0:0:0:
152,220,20725,2,0,L|52:236,1,90,2|0,0:0|0:0,0:0:0:0:
240,168,21176,2,0,L|348:148,1,90,2|0,0:0|0:0,0:0:0:0:
448,288,21628,6,0,P|492:236|488:116,1,180,2|8,0:0|0:0,0:0:0:0:
432,60,22304,1,0,0:0:0:0:
388,204,22530,1,2,0:0:0:0:
344,104,22755,1,0,0:0:0:0:
316,256,22981,2,0,L|236:320,1,90,8|0,0:0|0:0,0:0:0:0:
256,136,23432,6,0,P|272:44|348:10,1,180,2|8,0:0|0:0,0:0:0:0:
432,136,24109,1,0,0:0:0:0:
344,104,24334,1,2,0:0:0:0:
216,216,24560,1,8,0:0:0:0:
336,240,24785,2,0,L|392:320,1,90,8|0,0:0|0:0,0:0:0:0:
256,136,25237,6,0,P|192:84|76:84,1,180,2|8,0:0|0:0,0:0:0:0:
56,160,25913,1,0,0:0:0:0:
216,228,26139,1,2,0:0:0:0:
64,244,26364,1,0,0:0:0:0:
180,156,26590,1,8,0:0:0:0:
124,300,26816,1,0,0:0:0:0:
264,156,27041,6,0,P|324:152|436:220,1,180,2|8,0:0|0:0,0:0:0:0:
436,296,27718,1,0,0:0:0:0:
364,352,27943,1,2,0:0:0:0:
300,236,28169,1,8,0:0:0:0:
336,104,28395,2,0,L|356:16,1,90,8|0,0:0|0:0,0:0:0:0:
228,164,28846,6,0,P|200:240|252:328,1,180,2|8,0:0|0:0,0:0:0:0:
388,256,29522,1,0,0:0:0:0:
336,104,29748,1,2,0:0:0:0:
300,236,29973,1,0,0:0:0:0:
408,144,30199,2,0,L|452:56,1,90,8|0,0:0|0:0,0:0:0:0:
252,92,30650,6,0,P|160:84|84:148,1,180,2|8,0:0|0:0,0:0:0:0:
92,224,31327,1,0,0:0:0:0:
176,72,31552,1,2,0:0:0:0:
268,224,31778,1,8,0:0:0:0:
328,136,32004,2,0,L|432:124,1,90,8|0,0:0|0:0,0:0:0:0:
180,164,32455,6,0,B|184:216|184:216|160:256|160:256|192:300|160:356,1,180,2|8,0:0|0:0,0:0:0:0:
84,308,33131,1,0,0:0:0:0:
252,264,33357,1,2,0:0:0:0:
100,152,33582,1,0,0:0:0:0:
264,176,33808,1,8,0:0:0:0:
324,108,34034,1,0,0:0:0:0:
272,36,34259,6,0,P|208:24|88:72,1,180,2|8,0:0|0:0,0:0:0:0:
100,152,34936,1,0,0:0:0:0:
176,196,35161,1,2,0:0:0:0:
272,36,35387,1,8,0:0:0:0:
324,108,35613,2,0,L|424:108,1,90,8|0,0:0|0:0,0:0:0:0:
480,224,36064,6,0,B|416:220|416:220|348:240|348:240|256:220,1,202.500007724762,6|0,0:0|0:0,0:0:0:0:
220,160,36966,1,0,0:0:0:0:
140,192,37191,1,0,0:0:0:0:
212,276,37417,2,0,L|232:352,1,67.5000025749208
308,196,37868,6,0,P|312:128|252:72,1,135.000005149842,10|0,0:0|0:0,0:0:0:0:
184,80,38545,1,0,0:0:0:0:
140,192,38770,1,0,0:0:0:0:
204,288,38996,1,0,0:0:0:0:
256,124,39222,1,0,0:0:0:0:
104,112,39447,1,0,0:0:0:0:
248,212,39673,6,0,P|320:216|420:124,1,202.500007724762,2|0,0:0|0:0,0:0:0:0:
408,48,40575,1,0,0:0:0:0:
408,48,41026,1,0,0:0:0:0:
332,92,41252,1,0,0:0:0:0:
420,188,41477,6,0,L|448:276,1,67.5000025749208,10|0,0:0|0:0,0:0:0:0:
396,328,41928,1,0,0:0:0:0:
288,216,42154,2,0,L|267:151,1,67.5000025749208
200,96,42605,1,0,0:0:0:0:
112,92,42831,1,0,0:0:0:0:
36,136,43056,1,0,0:0:0:0:
56,284,43282,6,0,P|124:284|244:216,1,202.500007724762,2|0,0:0|0:0,0:0:0:0:
276,140,44184,1,0,0:0:0:0:
368,276,44410,1,0,0:0:0:0:
360,128,44635,2,0,L|356:40,1,67.5000025749208
272,224,45086,6,0,L|276:304,1,67.5000025749208,10|0,0:0|0:0,0:0:0:0:
340,352,45537,1,0,0:0:0:0:
448,264,45763,1,0,0:0:0:0:
280,184,45988,2,0,L|188:168,2,67.5000025749208
416,184,46665,1,0,0:0:0:0:
372,56,46891,5,2,0:0:0:0:
288,36,47116,1,0,0:0:0:0:
204,68,47342,1,0,0:0:0:0:
156,140,47567,1,0,0:0:0:0:
300,152,47793,2,0,P|344:160|368:184,1,67.5000025749208
392,256,48244,1,0,0:0:0:0:
372,344,48470,1,0,0:0:0:0:
232,368,48695,5,10,0:0:0:0:
184,284,48921,2,0,L|112:228,1,67.5000025749208
60,188,49372,1,0,0:0:0:0:
248,212,49598,2,0,L|328:204,1,67.5000025749208
400,232,50049,1,0,0:0:0:0:
452,164,50274,1,0,0:0:0:0:
336,68,50500,6,0,L|244:80,1,67.5000025749208,6|0,0:0|0:0,0:0:0:0:
120,144,50951,2,0,L|216:128,1,67.5000025749208
280,256,51402,1,0,0:0:0:0:
360,216,51628,1,0,0:0:0:0:
400,140,51853,1,0,0:0:0:0:
412,52,52079,1,0,0:0:0:0:
288,72,52304,6,0,P|244:76|160:20,1,135.000005149842,10|0,0:0|0:0,0:0:0:0:
80,36,52981,1,0,0:0:0:0:
80,124,53207,2,0,L|84:208,1,67.5000025749208
240,232,53658,2,0,L|244:312,1,67.5000025749208
164,192,54109,6,0,L|164:100,1,67.5000025749208,2|0,0:0|0:0,0:0:0:0:
320,128,54560,2,0,L|320:196,1,67.5000025749208
264,60,55011,1,0,0:0:0:0:
180,32,55237,1,0,0:0:0:0:
96,60,55462,2,0,L|24:104,1,67.5000025749208
12,180,55913,5,10,0:0:0:0:
136,236,56139,2,0,P|184:236|228:212,1,67.5000025749208
256,160,56590,1,0,0:0:0:0:
364,240,56816,2,0,L|456:252,1,67.5000025749208
256,72,57267,2,0,L|168:60,1,67.5000025749208
284,292,57718,6,0,P|320:328|468:340,1,202.500007724762,2|0,0:0|0:0,0:0:0:0:
496,260,58620,1,0,0:0:0:0:
404,304,58846,1,0,0:0:0:0:
340,228,59071,2,0,L|316:140,1,67.5000025749208
384,32,59522,6,0,L|424:176,1,135.000005149842,10|0,0:0|0:0,0:0:0:0:
340,228,60199,1,0,0:0:0:0:
160,248,60425,1,0,0:0:0:0:
320,316,60650,1,0,0:0:0:0:
268,180,60876,1,0,0:0:0:0:
232,344,61101,1,0,0:0:0:0:
192,176,61327,6,0,P|184:112|208:40,1,135.000005149842,2|0,0:0|0:0,0:0:0:0:
320,208,62229,2,0,P|328:272|304:344,1,135.000005149842
220,360,62906,1,0,0:0:0:0:
84,308,63131,5,10,0:0:0:0:
156,160,63357,2,0,L|172:72,1,67.5000025749208
244,52,63808,1,0,0:0:0:0:
240,188,64034,2,0,L|220:280,1,67.5000025749208
84,308,64485,1,0,0:0:0:0:
52,192,64710,1,0,0:0:0:0:
128,84,64936,5,4,0:0:0:0:
248,128,65161,1,0,0:0:0:0:
368,68,65387,2,0,L|468:76,1,90,2|0,0:0|0:0,0:0:0:0:
260,40,65838,1,2,0:0:0:0:
208,152,66064,1,0,0:0:0:0:
276,264,66289,2,0,L|296:352,1,90,2|0,0:0|0:0,0:0:0:0:
308,168,66740,6,0,L|304:68,1,90,2|0,0:0|0:0,0:0:0:0:
192,236,67191,2,0,L|104:288,1,90,2|0,0:0|0:0,0:0:0:0:
300,284,67643,1,2,0:0:0:0:
228,152,67868,1,0,0:0:0:0:
216,312,68094,1,2,0:0:0:0:
368,232,68319,1,0,0:0:0:0:
308,116,68545,6,0,L|288:24,2,90,2|0|2,0:0|0:0|0:0,0:0:0:0:
200,236,69222,1,0,0:0:0:0:
148,84,69447,1,2,0:0:0:0:
272,192,69673,1,0,0:0:0:0:
120,244,69898,1,2,0:0:0:0:
148,84,70124,1,0,0:0:0:0:
256,192,70349,12,2,71703,0:0:0:0:
240,284,72154,6,0,P|288:296|376:272,1,135,2|0,0:0|0:0,0:0:0:0:
400,244,72605,1,2,0:0:0:0:
248,164,72831,1,0,0:0:0:0:
128,288,73056,2,0,L|96:376,2,90,2|0|2,0:0|0:0|0:0,0:0:0:0:
164,164,73733,1,0,0:0:0:0:
316,48,73958,6,0,P|344:108|324:224,1,180,2|2,0:0|0:0,0:0:0:0:
172,248,74635,1,0,0:0:0:0:
208,84,74861,1,2,0:0:0:0:
252,208,75086,1,0,0:0:0:0:
332,120,75312,2,0,L|424:124,1,90,2|0,0:0|0:0,0:0:0:0:
488,224,75763,6,0,P|480:284|420:336,1,135,2|0,0:0|0:0,0:0:0:0:
384,336,76214,1,2,0:0:0:0:
288,292,76440,1,0,0:0:0:0:
208,360,76665,1,2,0:0:0:0:
192,256,76891,1,0,0:0:0:0:
84,272,77116,1,2,0:0:0:0:
160,164,77342,6,0,B|212:144|212:144|276:172|344:152,1,180
412,112,78019,1,2,0:0:0:0:
292,32,78244,1,0,0:0:0:0:
324,232,78470,1,2,0:0:0:0:
260,116,78695,1,0,0:0:0:0:
416,208,78921,2,0,P|436:268|424:328,1,90,2|0,0:0|0:0,0:0:0:0:
344,352,79372,6,0,B|296:372|296:372|256:348|196:352,1,135,2|0,0:0|0:0,0:0:0:0:
172,368,79823,1,2,0:0:0:0:
48,252,80049,1,0,0:0:0:0:
72,372,80274,1,2,0:0:0:0:
192,264,80500,1,0,0:0:0:0:
132,108,80725,1,2,0:0:0:0:
48,204,80951,6,0,P|104:240|236:232,1,180,0|0,0:0|0:0,0:0:0:0:
312,160,81628,1,2,0:0:0:0:
416,88,81853,2,0,P|472:152|484:264,1,180
432,316,82530,2,0,L|344:344,1,90,2|0,0:0|0:0,0:0:0:0:
208,320,82981,6,0,P|172:272|184:188,1,135,2|0,0:0|0:0,0:0:0:0:
204,164,83432,1,2,0:0:0:0:
340,152,83658,1,0,0:0:0:0:
216,40,83883,1,2,0:0:0:0:
344,76,84109,1,0,0:0:0:0:
160,96,84334,1,2,0:0:0:0:
300,216,84560,6,0,P|372:220|412:128,1,180
344,76,85237,1,2,0:0:0:0:
300,216,85462,1,0,0:0:0:0:
148,196,85688,2,0,L|52:200,1,90,2|0,0:0|0:0,0:0:0:0:
344,152,86139,2,0,L|440:144,1,90,2|0,0:0|0:0,0:0:0:0:
464,288,86590,6,0,P|400:324|276:304,1,180,2|8,0:0|0:0,0:0:0:0:
248,172,87267,1,0,0:0:0:0:
104,264,87492,2,0,L|56:352,1,90,2|0,0:0|0:0,0:0:0:0:
148,192,87943,1,8,0:0:0:0:
132,88,88169,1,0,0:0:0:0:
272,52,88395,6,0,P|308:80|440:72,1,180,2|8,0:0|0:0,0:0:0:0:
312,136,89071,1,0,0:0:0:0:
444,32,89297,1,2,0:0:0:0:
456,184,89522,1,8,0:0:0:0:
228,140,89748,2,0,P|220:196|248:256,1,90,8|0,0:0|0:0,0:0:0:0:
304,348,90199,6,0,P|320:288|304:160,1,180,2|8,0:0|0:0,0:0:0:0:
144,164,90876,1,0,0:0:0:0:
284,72,91101,2,0,P|328:60|384:68,1,90,2|0,0:0|0:0,0:0:0:0:
400,188,91552,1,8,0:0:0:0:
316,220,91778,1,0,0:0:0:0:
224,216,92004,6,0,B|156:232|120:184|120:184|64:232,1,180,2|8,0:0|0:0,0:0:0:0:
48,312,92680,1,0,0:0:0:0:
128,356,92906,1,2,0:0:0:0:
192,136,93131,1,8,0:0:0:0:
216,364,93357,1,8,0:0:0:0:
224,216,93582,1,0,0:0:0:0:
316,276,93808,6,0,P|376:252|404:132,1,180,2|8,0:0|0:0,0:0:0:0:
240,52,94485,1,0,0:0:0:0:
244,224,94710,1,2,0:0:0:0:
352,68,94936,1,0,0:0:0:0:
172,108,95161,2,0,L|44:116,1,90,8|0,0:0|0:0,0:0:0:0:
32,248,95613,6,0,B|60:288|64:332|64:332|108:320|108:320|160:336,1,180,2|8,0:0|0:0,0:0:0:0:
232,368,96289,1,0,0:0:0:0:
292,240,96515,1,2,0:0:0:0:
208,128,96740,2,0,L|148:52,1,90,8|8,0:0|0:0,0:0:0:0:
164,204,97191,1,0,0:0:0:0:
292,112,97417,6,0,P|368:108|472:160,1,180,2|8,0:0|0:0,0:0:0:0:
460,240,98094,1,0,0:0:0:0:
304,224,98319,1,2,0:0:0:0:
216,240,98545,1,0,0:0:0:0:
144,292,98770,1,8,0:0:0:0:
264,332,98996,1,0,0:0:0:0:
304,224,99222,6,0,P|304:152|236:52,1,180,2|8,0:0|0:0,0:0:0:0:
164,32,99898,1,0,0:0:0:0:
76,56,100124,1,2,0:0:0:0:
32,216,100349,1,8,0:0:0:0:
112,136,100575,2,0,L|208:152,1,90,8|0,0:0|0:0,0:0:0:0:
320,260,101026,6,0,B|400:272|400:272|456:244|456:152,1,202.500007724762,6|0,0:0|0:0,0:0:0:0:
444,84,101928,1,0,0:0:0:0:
248,104,102379,2,0,L|168:108,1,67.5000025749208,0|0,0:0|0:0,0:0:0:0:
272,188,102831,6,0,P|328:136|276:20,1,202.500007724762,10|0,0:0|0:0,0:0:0:0:
204,28,103733,2,0,L|124:32,1,67.5000025749208
128,204,104184,2,0,L|195:200,1,67.5000025749208
360,136,104635,6,0,B|396:76|396:76|468:120|444:212,1,202.500007724762,2|0,0:0|0:0,0:0:0:0:
416,272,105537,1,0,0:0:0:0:
232,300,105988,2,0,L|136:280,1,67.5000025749208
120,204,106440,5,10,0:0:0:0:
280,112,106665,2,0,L|368:132,2,67.5000025749208,0|0|0,0:0|0:0|0:0,0:0:0:0:
100,120,107342,1,0,0:0:0:0:
268,200,107567,1,0,0:0:0:0:
188,28,107793,1,0,0:0:0:0:
176,208,108019,1,0,0:0:0:0:
280,40,108244,6,0,P|348:40|456:128,1,202.500007724762,2|0,0:0|0:0,0:0:0:0:
460,208,109146,1,0,0:0:0:0:
256,184,109598,2,0,L|256:260,1,67.5000025749208
368,344,110049,6,0,B|380:296|380:296|360:268|360:268|392:216|376:152,1,202.500007724762,10|0,0:0|0:0,0:0:0:0:
252,56,110951,1,0,0:0:0:0:
168,80,111176,1,0,0:0:0:0:
112,148,111402,1,0,0:0:0:0:
100,236,111628,1,0,0:0:0:0:
236,148,111853,6,0,L|328:148,1,67.5000025749208,2|0,0:0|0:0,0:0:0:0:
448,216,112304,2,0,L|380:216,1,67.5000025749208,0|0,0:0|0:0,0:0:0:0:
336,64,112755,2,0,L|403:64,1,67.5000025749208,0|0,0:0|0:0,0:0:0:0:
296,240,113207,1,0,0:0:0:0:
204,148,113432,1,0,0:0:0:0:
128,288,113658,5,10,0:0:0:0:
68,152,113883,2,0,P|52:96|56:64,1,67.5000025749208
184,12,114334,1,0,0:0:0:0:
288,124,114560,2,0,P|312:156|320:204,1,67.5000025749208
172,220,115011,2,0,P|144:252|96:264,1,67.5000025749208
256,44,115462,5,6,0:0:0:0:
272,208,115688,1,0,0:0:0:0:
336,96,115913,2,0,L|416:96,1,67.5000025749208
252,132,116364,2,0,L|172:132,1,67.5000025749208
356,200,116816,2,0,P|348:248|284:292,1,101.250003862381
280,292,117267,5,10,0:0:0:0:
192,268,117492,1,0,0:0:0:0:
124,212,117718,1,0,0:0:0:0:
120,124,117943,1,0,0:0:0:0:
168,52,118169,2,0,P|200:36|244:32,1,67.5000025749208
288,136,118620,2,0,P|322:144|359:169,1,67.5000025749208
168,196,119071,6,0,P|147:225|111:250,1,67.5000025749208,2|0,0:0|0:0,0:0:0:0:
216,116,119522,2,0,P|236:86|272:61,1,67.5000025749208,0|0,0:0|0:0,0:0:0:0:
248,192,119973,1,0,0:0:0:0:
136,124,120199,1,0,0:0:0:0:
208,260,120425,2,0,L|216:336,1,67.5000025749208
216,116,120876,5,10,0:0:0:0:
128,240,121101,2,0,L|72:304,1,67.5000025749208
248,192,121552,1,0,0:0:0:0:
136,124,121778,1,0,0:0:0:0:
204,260,122004,1,0,0:0:0:0:
300,124,122229,1,0,0:0:0:0:
172,48,122455,1,0,0:0:0:0:
328,200,122680,6,0,P|368:168|312:44,1,202.500007724762,2|0,0:0|0:0,0:0:0:0:
240,80,123582,1,0,0:0:0:0:
248,208,123808,1,0,0:0:0:0:
104,172,124034,2,0,P|116:140|156:108,1,67.5000025749208
280,176,124485,6,0,P|348:160|384:88,1,135.000005149842,10|0,0:0|0:0,0:0:0:0:
348,28,125161,1,0,0:0:0:0:
248,144,125387,2,0,L|224:224,1,67.5000025749208
272,284,125838,1,0,0:0:0:0:
144,180,126064,1,0,0:0:0:0:
264,116,126289,6,0,B|312:124|312:124|344:152|344:152|400:160,1,135.000005149842,2|0,0:0|0:0,0:0:0:0:
204,240,127191,2,0,B|156:232|156:232|124:204|124:204|68:196,1,135.000005149842
256,64,128094,5,10,0:0:0:0:
256,64,128319,2,0,P|276:96|284:152,1,67.5000025749208
176,80,128770,1,0,0:0:0:0:
372,84,128996,2,0,L|444:84,1,67.5000025749208
236,196,129447,1,0,0:0:0:0:
148,184,129673,1,0,0:0:0:0:
88,124,129898,1,4,0:0:0:0:
208,112,134861,6,0,P|268:96|344:108,1,135
372,140,135312,2,0,L|404:240,2,90,2|0|0,0:0|0:0|0:0,0:0:0:0:
256,48,135988,1,0,0:0:0:0:
192,200,136214,2,0,B|188:232|188:232|200:252|200:252|196:288,1,90,2|0,0:0|0:0,0:0:0:0:
320,201,136665,2,0,B|324:233|324:233|312:253|312:253|316:288,1,90,2|0,0:0|0:0,0:0:0:0:
256,144,137116,5,2,0:0:0:0:
256,144,137567,1,2,0:0:0:0:
304,336,143883,6,0,P|356:336|400:280,1,90,0|4,0:0|0:3,0:0:0:0:
404,220,144334,6,0,P|384:168|424:36,1,180,2|0,0:0|0:0,0:0:0:0:
500,72,145011,1,0,0:0:0:0:
332,164,145237,1,0,0:0:0:0:
256,112,145462,1,0,0:0:0:0:
168,136,145688,2,0,P|120:144|64:128,1,90
160,36,146139,6,0,P|220:32|348:40,1,180,2|0,0:0|0:0,0:0:0:0:
412,96,146816,1,0,0:0:0:0:
228,184,147041,1,0,0:0:0:0:
368,168,147267,1,0,0:0:0:0:
332,252,147492,2,0,L|336:360,1,90
292,132,147943,5,2,0:0:0:0:
292,132,149297,6,0,L|192:132,1,90
112,136,149748,1,2,0:0:0:0:
140,344,151101,6,0,L|280:344,1,135
320,336,151552,6,0,B|360:304|368:248|368:248|432:296,1,180,2|0,0:0|0:0,0:0:0:0:
488,364,152229,1,0,0:0:0:0:
464,208,152455,1,0,0:0:0:0:
304,248,152680,1,0,0:0:0:0:
392,164,152906,2,0,P|404:112|384:56,1,90
280,32,153357,6,0,P|220:52|88:32,1,180,2|0,0:0|0:0,0:0:0:0:
24,76,154034,1,0,0:0:0:0:
188,72,154259,1,0,0:0:0:0:
100,196,154485,1,0,0:0:0:0:
244,140,154710,2,0,L|340:148,1,90
168,248,155161,5,2,0:0:0:0:
168,248,156515,6,0,L|272:264,1,90
344,276,156966,1,2,0:0:0:0:
256,328,158319,5,0,0:0:0:0:
120,284,158770,6,0,B|104:224|104:224|132:192|132:192|100:112|180:48,1,270,6|0,0:0|0:0,0:0:0:0:
272,48,159673,1,0,0:0:0:0:
372,176,160124,2,0,L|400:272,1,90
292,200,160575,6,0,P|308:124|420:104,1,180,0|0,1:0|0:0,0:0:0:0:
456,164,161252,1,0,0:0:0:0:
320,280,161477,2,0,P|280:284|232:260,1,90
372,152,161928,1,0,0:0:0:0:
456,280,162154,1,0,0:0:0:0:
280,184,162379,6,0,B|232:188|232:188|196:180|196:180|76:224|24:132,1,270,2|0,0:0|0:0,0:0:0:0:
32,52,163282,1,0,0:0:0:0:
304,100,163733,1,0,0:0:0:0:
372,44,163958,1,0,0:0:0:0:
248,36,164184,6,0,P|184:48|148:80,1,90,0|0,1:0|0:0,0:0:0:0:
364,160,164635,1,0,0:0:0:0:
448,76,164861,1,0,0:0:0:0:
272,148,165086,2,0,P|268:196|284:260,1,90
444,156,165537,1,0,0:0:0:0:
312,76,165763,1,0,0:0:0:0:
196,224,165988,6,0,B|164:304|164:304|92:240|32:328|-4:248,1,270,2|0,0:0|0:0,0:0:0:0:
12,164,166891,1,0,0:0:0:0:
200,112,167342,2,0,L|308:120,1,90
164,40,167793,6,0,P|108:80|108:196,1,180,0|0,1:0|0:0,0:0:0:0:
180,228,168470,1,0,0:0:0:0:
284,92,168695,2,0,B|300:48|300:48|280:0,1,90
240,172,169146,1,0,0:0:0:0:
412,160,169372,1,0,0:0:0:0:
288,248,169598,6,0,B|272:292|272:292|292:340,1,90,2|0,0:0|0:0,0:0:0:0:
364,228,170049,1,0,0:0:0:0:
356,96,170274,1,0,0:0:0:0:
240,172,170500,2,0,L|140:168,2,90,0|0|0,0:0|0:0|0:0,0:0:0:0:
364,228,171176,1,0,0:0:0:0:
440,108,171402,5,0,1:0:0:0:
292,40,171628,2,0,P|224:32|168:48,1,90
120,92,172079,1,0,0:0:0:0:
188,204,172304,2,0,P|192:260|172:316,1,90
88,196,172755,1,0,0:0:0:0:
200,120,172981,1,0,0:0:0:0:
264,244,173207,6,0,P|324:272|452:228,1,180,2|0,0:0|0:0,0:0:0:0:
472,168,173883,1,0,0:0:0:0:
364,72,174109,1,2,0:0:0:0:
356,200,174334,1,0,0:0:0:0:
480,120,174560,1,0,0:0:0:0:
288,108,174785,1,0,0:0:0:0:
280,252,175011,6,0,L|168:264,1,90,0|0,1:0|0:0,0:0:0:0:
236,168,175462,1,0,0:0:0:0:
356,200,175688,1,0,0:0:0:0:
416,68,175913,2,0,P|448:32|496:16,1,90,2|0,0:0|0:0,0:0:0:0:
440,216,176364,2,0,P|460:264|464:328,1,90
344,120,176816,5,2,0:0:0:0:
320,280,177041,1,0,0:0:0:0:
440,176,177267,1,0,0:0:0:0:
280,168,177492,1,0,0:0:0:0:
368,304,177718,1,2,0:0:0:0:
388,144,177943,1,0,0:0:0:0:
268,264,178169,2,0,B|220:280|220:280|160:280,1,90
48,184,178620,5,0,1:0:0:0:
208,140,178846,2,0,P|216:88|204:40,1,90
68,96,179297,1,0,0:0:0:0:
100,264,179522,2,0,P|88:328|104:368,1,90,2|0,0:0|0:0,0:0:0:0:
128,156,179973,1,0,0:0:0:0:
284,252,180199,1,0,0:0:0:0:
288,72,180425,6,0,P|352:60|484:72,1,180,2|0,0:0|0:0,0:0:0:0:
276,268,181327,2,0,P|212:280|80:268,1,180,2|0,0:0|0:0,0:0:0:0:
284,156,182229,6,0,B|348:184|408:144|408:144|408:230|504:248,1,270,0|0,1:0|0:0,0:0:0:0:
504,148,183131,1,2,0:0:0:0:
480,60,183357,1,0,0:0:0:0:
396,24,183582,1,0,0:0:0:0:
308,44,183808,1,0,0:0:0:0:
196,128,184034,6,0,P|124:124|36:52,1,180,2|0,0:0|0:0,0:0:0:0:
288,136,184936,2,0,P|300:192|248:308,1,180,2|0,0:0|0:0,0:0:0:0:
96,208,185838,5,0,1:0:0:0:
196,136,186064,2,0,L|208:44,1,90
296,64,186515,1,0,0:0:0:0:
100,92,186740,2,0,L|80:200,1,90,2|0,0:0|0:0,0:0:0:0:
112,264,187191,1,0,0:0:0:0:
224,176,187417,1,0,0:0:0:0:
256,296,187643,1,4,0:0:0:0:
248,144,194861,6,0,P|300:132|408:152,2,135,2|0|2,0:0|0:0|0:0,0:0:0:0:
184,208,195763,1,0,0:0:0:0:
192,76,195988,1,0,0:0:0:0:
264,220,196214,2,0,L|296:320,1,90,2|0,0:0|0:0,0:0:0:0:
108,180,196665,6,0,P|68:128|64:60,2,135,2|0|2,0:0|0:0|0:0,0:0:0:0:
264,220,197567,1,0,0:0:0:0:
176,112,197793,1,0,0:0:0:0:
188,272,198019,1,2,0:0:0:0:
260,132,198244,1,0,0:0:0:0:
388,176,198470,6,0,P|444:180|524:116,2,135,2|0|2,0:0|0:0|0:0,0:0:0:0:
288,60,199372,1,0,0:0:0:0:
200,184,199598,1,0,0:0:0:0:
300,260,199823,2,0,L|404:260,1,90,2|0,0:0|0:0,0:0:0:0:
268,184,200274,6,0,L|100:184,2,135,2|0|2,0:0|0:0|0:0,0:0:0:0:
388,244,201176,1,0,0:0:0:0:
292,344,201402,1,0,0:0:0:0:
176,264,201628,2,0,L|136:260,7,22.5,2|0|0|0|0|0|0|0,0:0|0:0|0:0|0:0|0:0|0:0|0:0|0:0,0:0:0:0:
132,260,202079,6,0,P|108:216|156:92,1,180,8|0,0:0|0:0,0:0:0:0:
