osu file format v12

[General]
AudioFilename: Megurine_Luka_Lie.mp3
AudioLeadIn: 0
PreviewTime: 68643
Countdown: 0
SampleSet: Soft
StackLeniency: 0.6
Mode: 0
LetterboxInBreaks: 0
WidescreenStoryboard: 0

[Editor]
DistanceSpacing: 1.2
BeatDivisor: 4
GridSize: 4

[Metadata]
Title:Lie
TitleUnicode:Lie
Artist:Circus-P
ArtistUnicode:Circus-P
Creator:BounceBabe
Version:Love
Source:
Tags:feat. Megurine Luka Lucid Mike Inel vocaloid3
BeatmapID:296699
BeatmapSetID:114480

[Difficulty]
HPDrainRate:1
CircleSize:2
OverallDifficulty:2
ApproachRate:3
SliderMultiplier:0.999999999999999
SliderTickRate:1

[Events]
//Background and Video events
0,0,"BG2.jpg",0,0
Video,0,"Megurine_Luka_Lie.avi"
//Break Periods
2,86138,90926
2,146137,159498
//Storyboard Layer 0 (Background)
//Storyboard Layer 1 (Fail)
//Storyboard Layer 2 (Pass)
//Storyboard Layer 3 (Foreground)
//Storyboard Sound Samples
//Background Colour Transformations
3,100,255,255,255

[TimingPoints]
224,535.714285714286,4,2,3,15,1,0
17366,-100,4,2,3,60,0,0
34509,-100,4,2,2,80,0,0
68795,-100,4,2,1,80,0,1
68929,-100,4,2,1,80,0,0
85938,-100,4,2,3,80,0,0
92366,-100,4,2,3,15,0,0
94509,-100,4,2,3,80,0,0
95045,-100,4,2,2,90,0,0
128795,-100,4,2,1,90,0,0
145938,-100,4,2,2,90,0,0
160938,-100,4,2,3,15,0,0
163081,-100,4,2,2,60,0,0
165224,-100,4,2,1,100,0,1
182366,-100,4,2,3,60,0,0
184509,-100,4,2,3,60,0,0

[Colours]
Combo1 : 255,255,191
Combo2 : 255,210,166
Combo3 : 202,210,142
Combo4 : 255,153,115

[HitObjects]
256,192,15224,12,4,17366,0:1:0:0:
416,32,18438,6,0,P|478:106|467:203,1,200,0|2,0:0|0:0,0:0:0:0:
272,352,20581,2,0,P|209:277|220:180,1,200,0|2,0:0|0:0,0:0:0:0:
32,32,22724,5,0,0:0:0:0:
272,32,23795,2,0,L|400:144,1,150,2|0,0:0|0:0,0:0:0:0:
432,176,24866,2,0,P|400:224|432:320,1,150
380,356,25938,6,0,L|172:340,1,200,2|0,0:0|0:0,0:0:0:0:
16,160,28081,2,0,L|215:175,1,200,2|0,0:0|0:0,0:0:0:0:
448,192,30224,6,0,P|480:144|448:64,2,150
368,272,32366,2,0,L|208:320,1,150,2|0,0:0|0:0,0:0:0:0:
176,272,33438,2,0,L|16:320,1,150,0|0,0:0|0:0,0:0:0:0:
0,256,34509,6,0,P|32:160|0:64,1,200,2|8,0:0|0:0,0:0:0:0:
120,48,36116,1,0,0:0:0:0:
240,32,36652,2,0,B|320:16|320:16|368:48|368:48|432:32,1,200,2|8,0:0|0:0,0:0:0:0:
504,128,38259,1,0,0:0:0:0:
464,240,38795,6,0,B|392:272|368:352|368:352|304:352,2,200,2|8|2,0:0|0:0|0:0,0:0:0:0:
504,128,41474,1,0,0:0:0:0:
384,128,42009,2,0,B|336:128|336:128|312:208|240:240,1,200,8|2,0:0|0:0,0:0:0:0:
136,304,43616,5,0,0:0:0:0:
16,316,44152,2,0,L|4:216,1,99.9999999999999,8|0,0:0|0:0,0:0:0:0:
0,96,45224,2,0,P|80:112|168:48,1,200,2|8,0:0|0:0,0:0:0:0:
288,40,46831,1,0,0:0:0:0:
408,32,47366,6,0,B|459:149|467:78|513:206,1,200,2|8,0:0|0:0,0:0:0:0:
476,313,48974,1,0,0:0:0:0:
358,271,49509,2,0,B|306:153|298:224|252:96,1,200,2|8,0:0|0:0,0:0:0:0:
144,148,51116,1,0,0:0:0:0:
32,200,51652,6,0,L|128:328,1,150,2|0,0:0|0:0,0:0:0:0:
180,328,52724,2,0,P|220:304|284:312,1,99.9999999999999,8|0,0:0|0:0,0:0:0:0:
392,328,53795,6,0,L|472:200,1,150,2|0,0:0|0:0,0:0:0:0:
472,144,54866,2,0,P|440:112|432:48,1,99.9999999999999,8|0,0:0|0:0,0:0:0:0:
312,40,55938,6,0,L|160:24,1,150,2|0,0:0|0:0,0:0:0:0:
104,24,57009,2,0,P|112:88|88:120,1,99.9999999999999,8|0,0:0|0:0,0:0:0:0:
40,224,58081,6,0,L|88:336,2,99.9999999999999,2|0|8,0:0|0:0|0:0,0:0:0:0:
0,112,59688,1,0,0:0:0:0:
80,24,60224,6,0,L|232:72,1,150,2|0,0:0|0:0,0:0:0:0:
280,80,61295,2,0,P|320:128|360:144,1,99.9999999999999,8|0,0:0|0:0,0:0:0:0:
472,152,62366,6,0,L|512:304,1,150,2|0,0:0|0:0,0:0:0:0:
480,352,63438,2,0,P|424:368|384:360,1,99.9999999999999,8|0,0:0|0:0,0:0:0:0:
268,328,64509,6,0,L|124:288,1,150,2|0,0:0|0:0,0:0:0:0:
88,240,65581,2,0,P|104:184|88:144,1,99.9999999999999,8|0,0:0|0:0,0:0:0:0:
160,48,66652,6,0,L|217:34,2,50,2|0|0,0:0|0:0|0:0,0:0:0:0:
97,146,67724,2,0,L|40:159,2,50,8|0|8,0:0|0:0|0:0,0:0:0:0:
216,144,68795,6,0,P|280:184|376:120,1,200,2|8,0:0|0:0,0:0:0:0:
432,16,70402,1,0,0:0:0:0:
504,112,70938,2,0,L|432:304,1,200,2|8,0:0|0:0,0:0:0:0:
328,360,72545,1,0,0:0:0:0:
208,360,73081,6,0,P|192:272|96:280,2,200,2|8|2,0:0|0:0|0:0,0:0:0:0:
448,360,76295,2,0,L|496:264,1,99.9999999999999,8|0,0:0|0:0,0:0:0:0:
496,152,77366,6,0,B|432:152|416:48|416:48|352:48,1,200,2|8,0:0|0:0,0:0:0:0:
240,40,78974,1,0,0:0:0:0:
160,136,79509,2,0,B|104:136|104:136|88:240|24:240,1,200,2|8,0:0|0:0,0:0:0:0:
24,360,81116,1,0,0:0:0:0:
144,360,81652,6,0,B|232:328|264:360|344:328,1,200,2|8,0:0|0:0,0:0:0:0:
456,292,83259,1,0,0:0:0:0:
368,208,83795,2,0,P|360:120|448:64,1,200,2|8,0:0|0:0,0:0:0:0:
492,176,85402,1,0,0:0:0:0:
456,292,85938,1,2,0:0:0:0:
256,192,92366,12,4,94509,0:1:0:0:
64,48,95581,6,0,B|48:112|48:112|48:168|48:168|24:248,1,200,8|2,0:0|0:0,0:0:0:0:
96,336,97188,1,0,0:0:0:0:
212,300,97724,2,0,L|324:300,2,99.9999999999999,8|0|2,0:0|0:0|0:0,0:0:0:0:
100,260,99331,1,0,0:0:0:0:
68,144,99866,6,0,P|172:152|236:88,1,200,8|2,0:0|0:0,0:0:0:0:
352,56,101474,1,0,0:0:0:0:
472,32,102009,2,0,B|472:88|488:88|488:144,1,99.9999999999999,8|0,0:0|0:0,0:0:0:0:
496,248,103081,6,0,P|432:248|392:360,2,200,2|8|2,0:0|0:0|0:0,0:0:0:0:
480,128,105759,1,0,0:0:0:0:
368,88,106295,2,0,L|264:48,1,99.9999999999999,8|0,0:0|0:0,0:0:0:0:
160,24,107366,6,0,B|156:74|120:120|120:120|72:144|56:200,1,200,2|8,0:0|0:0,0:0:0:0:
32,304,108974,1,0,0:0:0:0:
152,288,109509,2,0,B|164:242|212:218|212:218|249:173|252:122,1,200,2|8,0:0|0:0,0:0:0:0:
320,24,111116,1,0,0:0:0:0:
440,24,111652,6,0,P|449:107|488:160,1,150,2|0,0:0|0:0,0:0:0:0:
496,220,112724,2,0,L|448:324,1,99.9999999999999,8|0,0:0|0:0,0:0:0:0:
336,336,113795,6,0,P|232:344|192:328,1,150,2|0,0:0|0:0,0:0:0:0:
136,304,114866,2,0,L|24:312,1,99.9999999999999,8|0,0:0|0:0,0:0:0:0:
8,192,115938,6,0,P|32:144|16:48,1,150,2|0,0:0|0:0,0:0:0:0:
72,24,117009,2,0,L|176:48,1,99.9999999999999,8|0,0:0|0:0,0:0:0:0:
288,64,118081,6,0,P|272:120|232:144,2,99.9999999999999,2|0|8,0:0|0:0|0:0,0:0:0:0:
408,40,119688,1,0,0:0:0:0:
496,120,120224,6,0,L|472:272,1,150,2|0,0:0|0:0,0:0:0:0:
432,312,121295,2,0,P|368:304|336:320,1,99.9999999999999,8|0,0:0|0:0,0:0:0:0:
216,336,122366,6,0,L|64:296,1,150,2|0,0:0|0:0,0:0:0:0:
56,240,123438,2,0,P|64:184|40:128,1,99.9999999999999,8|0,0:0|0:0,0:0:0:0:
32,24,124509,6,0,L|184:48,1,150,2|0,0:0|0:0,0:0:0:0:
240,56,125581,2,0,P|240:120|264:152,1,99.9999999999999,8|0,0:0|0:0,0:0:0:0:
376,152,126652,6,0,L|411:107,2,50,2|0|0,0:0|0:0|0:0,0:0:0:0:
259,147,127724,2,0,L|224:192,2,50,8|0|8,0:0|0:0|0:0,0:0:0:0:
296,32,128795,6,0,P|200:40|136:120,1,200,2|8,0:0|0:0,0:0:0:0:
80,224,130402,1,0,0:0:0:0:
32,336,130938,2,0,B|96:344|144:320|144:320|184:312|232:320,1,200,2|8,0:0|0:0,0:0:0:0:
344,336,132545,1,0,0:0:0:0:
456,296,133081,6,0,P|424:224|480:112,2,200,2|8|2,0:0|0:0|0:0,0:0:0:0:
224,344,136295,2,0,L|144:280,1,99.9999999999999,8|0,0:0|0:0,0:0:0:0:
64,192,137366,6,0,B|104:128|104:128|136:64|200:56,1,200,2|8,0:0|0:0,0:0:0:0:
320,56,138974,1,0,0:0:0:0:
424,112,139509,2,0,B|384:176|384:176|352:240|288:248,1,200,2|8,0:0|0:0,0:0:0:0:
184,304,141116,1,0,0:0:0:0:
72,344,141652,6,0,B|72:288|16:224|16:152,1,200,2|8,0:0|0:0,0:0:0:0:
16,32,143259,1,0,0:0:0:0:
124,88,143795,2,0,P|188:112|300:56,1,200,2|8,0:0|0:0,0:0:0:0:
420,56,145402,2,0,P|452:88|508:112,1,99.9999999999999,0|2,0:0|0:0,0:0:0:0:
256,192,160938,12,4,163081,0:1:0:0:
304,336,165224,6,0,P|208:344|128:280,1,200,2|8,0:0|0:0,0:0:0:0:
80,176,166831,2,0,P|64:120|32:88,1,99.9999999999999,0|2,0:0|0:0,0:0:0:0:
272,32,168438,1,8,0:0:0:0:
392,32,168974,1,0,0:0:0:0:
472,120,169509,6,0,P|440:192|488:312,1,200,2|8,0:0|0:0,0:0:0:0:
360,336,171116,1,0,0:0:0:0:
240,336,171652,2,0,L|96:288,1,150,2|0,0:0|0:0,0:0:0:0:
60,244,172724,2,0,P|60:188|36:148,1,99.9999999999999,8|0,0:0|0:0,0:0:0:0:
96,48,173795,6,0,L|304:40,1,200,2|8,0:0|0:0,0:0:0:0:
416,28,175402,1,0,0:0:0:0:
364,136,175938,2,0,P|380:200|500:248,1,200,2|8,0:0|0:0,0:0:0:0:
468,364,177545,1,0,0:0:0:0:
348,344,178081,6,0,B|276:328|276:328|236:336|236:336|148:320,1,200,2|8,0:0|0:0,0:0:0:0:
32,304,179688,1,0,0:0:0:0:
108,212,180224,2,0,P|132:156|84:84,1,150,2|0,0:0|0:0,0:0:0:0:
116,32,181295,2,0,L|228:56,1,99.9999999999999,8|0,0:0|0:0,0:0:0:0:
332,76,182366,5,2,0:0:0:0:
452,100,182902,1,0,0:0:0:0:
372,192,183438,1,8,0:0:0:0:
372,192,184509,1,2,0:0:0:0:
