osu file format v9

[General]
AudioFilename: time_only_knows.mp3
AudioLeadIn: 2000
PreviewTime: 27501
Countdown: 0
SampleSet: Soft
StackLeniency: 0.7
Mode: 0
LetterboxInBreaks: 1

[Editor]
Bookmarks: 43786,92643
DistanceSpacing: 1
BeatDivisor: 4
GridSize: 8

[Metadata]
Title:Time Only Knows
Artist:Cindy Gomez
Creator:Louis Cyphre
Version:Normal
Source:Prince of Persia: The Sands of Time
Tags:Ubisoft

[Difficulty]
HPDrainRate:5
CircleSize:4
OverallDifficulty:5
ApproachRate:5
SliderMultiplier:1.3
SliderTickRate:1

[Events]
//Background and Video events
0,0,"Prince-of-Persia-The-Two-Thrones-Hatterkepek-33.png"
//Break Periods
2,68836,74293
//Storyboard Layer 0 (Background)
//Storyboard Layer 1 (Fail)
//Storyboard Layer 2 (Pass)
//Storyboard Layer 3 (Foreground)
//Storyboard Sound Samples
//Background Colour Transformations
3,100,163,162,255

[TimingPoints]
65.4285714285716,428.571428571429,4,2,1,40,1,0

[Colours]
Combo1 : 128,0,128
Combo2 : 255,128,0

[HitObjects]
320,120,65,2,0,B|344:32|256:-1|168:32|192:120,2,260,4|8|0
376,240,2208,1,0
256,296,2636,1,8
104,80,3494,6,0,B|70:96|55:168|102:192|152:216|134:296|102:312,1,260,0|8
200,224,4779,2,0,B|224:248|256:272|288:248|312:224,1,130
312,96,5636,2,0,B|288:72|256:48|224:72|200:96,2,130,0|8|0
440,96,6922,6,0,B|456:232|352:200|368:344,1,260,0|8
320,216,8208,1,0
320,216,8422,1,0
320,216,8636,1,0
192,216,9065,1,0
144,336,9493,6,0,B|160:200|56:232|72:96,1,260,8|0
200,112,10779,2,0,B|216:88|256:72|296:88|312:112,1,130,0|8
312,240,11636,2,0,B|295:264|255:280|215:264|199:240,2,130
424,176,12922,1,8
192,64,13779,6,0,B|128:104|128:104|88:192|128:288,1,260,0|8
256,256,15065,1,0
385,283,15493,6,0,B|424:192|384:104|384:104|320:64,1,260,0|8
256,176,16779,1,0
128,144,17208,6,0,B|72:128|24:136|0:192|24:248|72:256|128:240,1,260,0|8
256,248,18494,2,0,B|256:120,2,130
192,360,19779,1,8
320,360,20208,1,0
384,240,20636,6,0,B|440:256|488:248|512:192|488:136|440:128|384:144,1,260,0|8
256,128,21922,2,0,B|256:264,1,130
128,288,22779,5,0
40,192,23208,1,8
128,96,23636,1,0
256,64,24065,5,0
384,96,24494,1,0
472,192,24922,1,8
390,292,25351,1,0
390,292,25565,1,0
390,292,25779,1,0
304,192,26208,2,0,B|296:160|256:136|216:160|208:192,1,130,0|8
368,184,27494,6,0,B|392:152|408:104|388:45|336:24|280:40|248:64,1,260,0|8
256,192,28779,1,0
264,319,29208,6,0,B|232:344|176:360|124:339|104:280|120:232|144:200,2,260,0|8|0
384,264,31351,1,0
264,208,31779,1,8
448,24,32636,6,0,B|440:56|400:80|360:56|352:24,1,130
320,152,33494,1,8
192,152,33922,1,0
160,24,34351,6,0,B|152:55|112:79|72:55|64:23,2,130,0|0|8
256,104,35636,1,0
136,160,36065,6,0,B|79:217|136:272,1,130
256,216,36922,1,8
376,160,37351,2,0,B|433:217|375:272,1,130
256,328,38208,1,0
144,272,38636,1,8
256,200,39065,5,0
256,200,39279,1,0
256,200,39494,1,0
192,88,39922,1,0
320,88,40351,1,8
128,328,41208,6,0,B|200:304|250:308|260:364|312:368|376:336,1,260,0|8
432,216,42494,6,0,B|416:240|376:256|336:240|320:216,1,130
312,88,43351,2,0,B|295:63|255:47|215:63|199:87,1,130,0|8
192,215,44208,2,0,B|176:240|136:256|96:240|80:216,2,130
256,328,45493,1,8
376,96,46351,6,0,B|376:226,1,130
256,184,47208,2,0,B|256:56,1,130,8|0
136,96,48065,2,0,B|136:226,1,130
256,272,48922,1,8
448,96,49779,6,0,B|408:72|368:104|320:80,1,130
256,192,50636,1,8
192,304,51065,6,0,B|145:280|105:312|65:288,2,130
128,192,52351,1,8
384,128,53208,5,0
384,256,53636,1,0
256,192,53851,12,4,54922
256,304,55779,5,8
368,240,56208,2,0,B|400:232|424:192|400:152|368:144,1,130
256,88,57065,1,0
176,192,57493,1,8
416,296,58351,6,0,B|416:168|320:192|320:56,1,260,0|8
192,64,59636,2,0,B|192:193|96:169|96:304,1,260
40,176,60922,1,8
232,352,61779,6,0,B|312:368|336:288,1,130
256,192,62636,1,8
176,88,63065,2,0,B|197:14|277:30,1,130
376,272,64351,6,8,B|280:272|264:280|256:302|256:302|248:280|232:272|136:272,2,260,8|0|8
320,152,66493,1,0
192,152,66922,1,0
256,40,67351,1,0
256,192,67565,12,4,68636
128,296,75493,6,0,B|72:264|22:192|72:120|128:88,2,260,0|8|0
256,272,77636,1,0
319,158,78065,6,0,B|319:30,1,130,8|0
191,30,78922,2,0,B|191:166,1,130
136,280,79779,1,8
256,328,80208,5,0
376,280,80636,1,0
320,160,81065,1,0
256,192,81279,12,4,82351
256,336,83208,5,8
200,216,83636,2,0,B|224:192|255:173|288:192|312:216,2,130
80,160,84922,6,0,B|120:104|192:104,1,130,8|0
320,104,85779,2,0,B|391:104|431:160,1,130
456,288,86636,1,8
336,328,87065,5,0
256,224,87493,1,0
176,328,87922,1,0
56,288,88351,1,8
168,56,89208,6,0,B|176:120|257:186|336:120|344:56,2,260,0|8|0
56,120,91351,1,0
168,192,91779,1,8
56,256,92208,1,0
168,328,92636,6,0,B|176:263|257:197|336:263|344:328,2,260,0|8|0
56,256,94779,1,0
256,192,94993,12,4,96065
464,192,96922,5,8
336,192,97351,1,0
256,88,97779,1,0
42,234,98636,6,0,B|58:258|90:266|122:258|146:234|146:210|146:186|170:162|202:154|234:162|258:186,1,260,8|0
192,296,99922,1,0
320,296,100351,1,8
256,184,100779,6,0,B|277:162|309:154|341:162|365:186|365:210|365:234|389:258|421:266|453:258|469:234,1,260
424,112,102065,1,8
168,104,102922,6,0,B|151:176|82:192|82:192|151:208|167:280,1,260,0|8
296,312,104208,1,0
256,192,104636,1,0
216,72,105065,1,0
344,104,105493,6,0,B|360:176|429:192|429:192|360:208|344:280,2,260,8|0|8
256,192,107636,1,0
144,128,108065,1,0
144,256,108493,1,0
256,192,108708,12,4,109779
464,192,110636,5,8
360,272,111065,1,0
256,192,111493,1,0
360,112,111922,1,0
256,40,112351,6,0,B|176:40|176:40|136:80,1,130,8|0
80,192,113208,1,0
138,307,113636,2,0,B|173:342|173:342|253:342,1,130,0|8
376,312,114493,5,0
424,192,114922,1,0
376,72,115351,1,0
256,128,115779,1,8
72,312,116636,6,0,B|96:288|136:272|176:288|216:328|256:344|296:328|320:304,2,260,0|8|0
120,192,118779,1,0
72,72,119208,1,8
328,72,120065,6,0,B|351:95|367:135|351:175|311:215|295:255|311:295|331:314,2,260,0|8|0
200,112,122208,1,0
256,192,122422,12,4,123493
