osu file format v9

[General]
AudioFilename: time_only_knows.mp3
AudioLeadIn: 2000
PreviewTime: 27501
Countdown: 0
SampleSet: Soft
StackLeniency: 0.7
Mode: 0
LetterboxInBreaks: 1

[Editor]
DistanceSpacing: 1.1
BeatDivisor: 4
GridSize: 8

[Metadata]
Title:Time Only Knows
Artist:Cindy Gomez
Creator:Louis Cyphre
Version:Hard
Source:Prince of Persia: The Sands of Time
Tags:Ubisoft

[Difficulty]
HPDrainRate:6
CircleSize:4
OverallDifficulty:6
ApproachRate:7
SliderMultiplier:1.6
SliderTickRate:1

[Events]
//Background and Video events
0,0,"Prince-of-Persia-The-Two-Thrones-Hatterkepek-33.png"
//Break Periods
2,68836,74593
//Storyboard Layer 0 (Background)
//Storyboard Layer 1 (Fail)
//Storyboard Layer 2 (Pass)
//Storyboard Layer 3 (Foreground)
//Storyboard Sound Samples
//Background Colour Transformations
3,100,163,162,255

[TimingPoints]
65.4285714285716,428.571428571429,4,2,1,40,1,0

[Colours]
Combo1 : 128,0,128
Combo2 : 255,128,0

[HitObjects]
400,320,65,2,0,B|352:272|256:264|256:384|168:376|112:320,1,320,4|8
176,160,1351,1,0
256,128,1565,1,0
336,160,1779,1,0
192,64,2208,2,0,B|216:24|256:7|296:24|320:64,1,160,0|8
440,192,3065,5,0
320,320,3494,2,0,B|296:361|256:378|216:361|192:321,1,160,0|0
72,192,4351,1,8
184,56,4779,5,0
256,112,4994,1,0
328,56,5208,1,0
440,192,5636,2,0,B|384:248|432:280|368:336,1,160,0|8
256,200,6494,1,0
144,336,6922,6,0,B|84:284|132:252|76:196,1,160,0|0
176,56,7779,1,8
320,160,8208,5,0
256,96,8422,1,0
192,160,8636,2,0,B|192:240|256:232|256:312,1,160
400,192,9493,5,8
256,96,9922,1,0
104,192,10351,1,0
184,232,10565,1,0
256,280,10779,1,0
328,232,10993,1,0
408,192,11208,6,0,B|400:112|344:136|336:48,1,160,8|0
256,16,11851,1,0
176,56,12065,2,0,B|169:139|113:115|105:195,2,160,0|0|8
256,216,13351,1,0
208,288,13565,1,0
304,288,13779,6,0,B|360:264|360:264|360:208|408:184,1,160
256,88,14636,1,8
104,184,15065,2,0,B|153:209|153:265|153:265|209:289,1,160
168,120,15922,1,0
344,120,16351,5,8
328,32,16565,1,0
256,88,16779,1,0
184,32,16993,1,0
168,120,17208,6,0,B|176:216|232:184|240:288,1,160
344,120,18065,1,8
440,272,18494,5,0
352,256,18708,1,0
328,344,18922,2,0,B|272:344|256:312|256:312|240:344|184:344,2,160,0|0|8
256,184,20208,1,0
424,128,20636,6,0,B|415:33|322:25,1,160
256,184,21494,1,8
88,256,21922,2,0,B|97:351|190:359,1,160
344,280,22779,6,0,B|371:231|390:214|390:214|396:189|424:141,1,160,0|8
256,88,23636,1,0
88,142,24065,6,0,B|116:189|121:214|121:214|140:231|168:280,2,160,0|0|8
256,192,25351,5,0
256,280,25565,1,0
256,368,25779,1,0
344,216,26208,1,0
168,216,26636,5,8
176,128,26851,1,0
256,88,27065,1,0
336,128,27279,1,0
344,216,27494,6,0,B|352:320|256:376|160:320|168:216,1,320,0|8
344,216,28779,6,0,B|408:144|344:72,2,160
168,216,30065,2,0,B|104:144|167:73,2,160,8|0|0
328,296,31351,6,0,B|256:356|184:296,1,160,0|8
256,136,32208,1,0
432,120,32636,2,0,B|424:168|456:192|456:192|424:216|432:264,1,160
256,312,33494,6,0,B|224:312|200:288|192:256|200:224|224:192|288:192|312:168|320:136|312:104|288:80|256:80,1,320,8|0
80,120,34779,2,0,B|87:167|55:191|55:191|87:215|79:264,1,160,0|8
256,256,35636,5,0
408,168,36065,2,0,B|432:75|336:32,1,160
168,40,36922,2,0,B|80:78|105:170,2,160,8|0|0
192,216,38208,1,0
256,280,38422,1,0
320,216,38636,1,8
320,40,39065,5,0
256,104,39279,1,0
192,40,39494,1,0
56,152,39922,2,0,B|80:192|120:208|160:192|184:152,1,160,0|8
256,312,40779,1,0
328,152,41208,6,0,B|352:111|392:95|432:111|456:151,2,160,0|0|8
176,64,42494,2,0,B|112:32|80:96|16:64,2,160
256,224,43779,1,8
336,64,44208,6,0,B|400:32|432:96|496:64,2,160
256,104,45279,1,0
176,64,45493,1,8
176,240,45922,1,0
256,280,46136,1,0
337,240,46351,6,0,B|432:248|446:150,2,160,0|0|8
256,80,47636,1,0
174,240,48065,2,0,B|80:248|65:150,2,160,0|0|8
328,320,49351,1,0
400,272,49565,1,0
408,184,49779,6,0,B|400:104|360:136|344:32,1,160
256,192,50636,1,8
166,39,51065,2,0,B|152:136|112:104|104:184,1,160
176,232,51708,1,0
256,192,51922,1,0
336,152,52136,1,0
408,200,52351,6,0,B|400:279|360:247|345:343,1,160,8|0
256,320,52993,1,0
168,344,53208,1,0
256,192,53636,1,0
256,192,53851,12,4,54922
384,192,55351,6,0,B|327:207|338:286|276:303,1,160,0|8
136,192,56208,2,0,B|197:175|186:96|243:80,1,160
408,136,57065,5,0
472,192,57279,1,0
408,248,57493,1,8
256,336,57922,1,0
104,248,58351,6,0,B|144:200|112:136|40:152|40:152|32:48|128:40,1,320,0|8
257,156,59636,1,0
328,104,59851,1,0
408,136,60065,6,0,B|368:184|400:248|472:232|472:232|480:336|384:344,1,320,0|8
256,224,61351,1,0
136,352,61779,6,0,B|40:352|40:248|40:248|64:224|72:192|64:160|40:136|40:96,1,320,0|8
213,69,63065,1,0
300,69,63279,1,0
376,32,63493,6,0,B|472:32|472:136|472:136|448:160|440:192|448:224|472:248|472:288,1,320,0|8
416,352,64565,1,0
344,304,64779,1,0
168,304,65208,5,0
88,272,65422,1,0
56,192,65636,1,0
88,112,65851,1,0
168,80,66065,1,8
304,192,66493,6,0,B|392:192,2,80
128,192,67351,1,0
256,192,67565,12,4,68636
406,264,75493,6,0,B|256:355|104:264,2,320,0|8|0
256,184,77636,1,0
104,104,78065,6,0,B|254:13|406:104,2,320,8|0|8
104,280,80208,5,0
256,192,80636,1,0
408,280,81065,1,0
256,192,81279,12,4,82351
472,192,82779,6,0,B|392:176|384:208|312:192,1,160,0|8
184,312,83636,1,0
56,192,84065,1,0
184,72,84493,1,0
360,72,84922,6,0,B|408:88|408:136|408:136|368:152|352:192|368:232|408:248|408:248|408:296|360:312,1,320,8|0
184,312,86208,2,0,B|112:312|112:312|56:296|56:240,1,160,0|8
224,192,87065,1,0
56,132,87493,2,0,B|56:88|112:72|112:72|184:72,1,160
352,128,88351,2,0,B|384:144|424:192|384:240|352:256,1,160,8|0
192,328,89208,6,0,B|200:288|176:256|128:240|80:288|80:288|8:224|48:144,1,320,0|8
128,120,90279,1,0
192,56,90493,1,0
256,120,90708,1,0
320,56,90922,6,0,B|312:96|336:128|384:144|432:96|432:96|504:160|464:240,1,320,0|8
320,336,92208,1,0
144,336,92636,6,0,B|144:304|136:288|120:280|88:280|88:280|56:256|40:192|56:128|104:96|152:96,1,320,0|8
176,176,93708,1,0
256,216,93922,1,0
336,176,94136,1,0
376,96,94351,6,0,B|406:94|454:126|470:190|454:254|422:278|422:278|390:278|374:286|366:302|366:334,1,320,0|8
256,200,95636,1,0
168,352,96065,6,0,B|160:288|72:296|72:296|16:192|96:112,1,320,4|8
256,48,97351,2,0,B|240:128|272:128|256:208,2,160
420,116,98636,2,0,B|496:192|440:296|440:296|352:288|344:352,1,320,8|0
256,200,99922,5,0
96,128,100351,1,8
256,48,100779,1,0
416,128,101208,1,0
416,304,101636,1,0
256,376,102065,1,8
96,304,102493,1,0
120,128,102922,6,0,B|152:208|256:196|255:125|360:112|392:192,1,320,0|8
256,80,104208,1,0
256,256,104636,1,0
80,280,105065,1,0
184,136,105493,6,0,B|256:200|328:136,1,160,8|0
392,296,106351,2,0,B|504:176|320:120|440:0,1,320,0|8
272,64,107636,5,0
152,192,108065,1,0
272,320,108493,1,0
256,192,108708,12,4,109779
376,264,110208,6,0,B|392:312|376:360|328:376|288:360,1,160,0|8
136,264,111065,2,0,B|120:312|136:360|184:376|224:360,1,160
256,192,111922,1,0
376,120,112351,6,0,B|392:72|376:24|328:8|288:24,1,160,8|0
136,120,113208,2,0,B|120:72|136:24|184:8|224:24,1,160
256,192,114065,1,8
88,232,114493,6,0,B|112:304|160:280|192:352,1,160
256,192,115351,1,0
321,349,115779,2,0,B|352:280|400:304|424:232,1,160,8|0
375,64,116636,6,0,B|352:144|256:197|160:144|136:64,1,320,0|8
72,128,117708,1,0
16,192,117922,1,0
72,256,118136,1,0
136,319,118351,6,0,B|160:240|256:187|352:240|375:319,1,320,0|8
496,192,119636,1,0
376,64,120065,5,0
256,192,120493,1,0
136,64,120922,1,8
16,192,121351,1,0
136,320,121779,1,0
256,192,121993,12,4,123493
