osu file format v14

[General]
AudioFilename: yuubae.mp3
AudioLeadIn: 0
PreviewTime: -1
Countdown: 0
SampleSet: None
StackLeniency: 0.7
Mode: 0
LetterboxInBreaks: 1
WidescreenStoryboard: 1

[Editor]
DistanceSpacing: 0.9
BeatDivisor: 4
GridSize: 4
TimelineZoom: 1

[Metadata]
Title:Yuubae present
TitleUnicode:Yuubae present
Artist:Cinderella project
ArtistUnicode:Cinderella project
Creator:lahphnya
Version:Arles
Source:
Tags:
BeatmapID:827292
BeatmapSetID:377912

[Difficulty]
HPDrainRate:4
CircleSize:4
OverallDifficulty:8
ApproachRate:10
SliderMultiplier:1.9
SliderTickRate:1

[Events]
//Background and Video events
0,0,"Konachan.com - 199224 sample.jpg",0,0
//Break Periods
2,149718,159697
//Storyboard Layer 0 (Background)
//Storyboard Layer 1 (Fail)
//Storyboard Layer 2 (Pass)
//Storyboard Layer 3 (Foreground)
//Storyboard Sound Samples

[TimingPoints]
156.486100293016,342.857142857143,4,2,0,50,1,0
1527,-133.333333333333,4,2,0,50,0,0
24156,-100,4,2,0,50,0,0
30327,-83.3333333333333,4,2,0,50,0,0
52613,-133.333333333333,4,2,0,50,0,0
57756,-80,4,2,0,50,0,0
64559,342.857142857143,4,2,0,100,1,0
64559,-80,4,2,0,50,0,0
93359,-133.333333333333,4,2,0,50,0,0
103130,-83.3333333333333,4,2,0,50,0,0
115644,-133.333333333333,4,2,0,50,0,0
120787,-80,4,2,0,50,0,0
127576,342.857142857143,4,2,0,50,1,0
127576,-80,4,2,0,50,0,0
160147,-133.333333333333,4,2,0,50,0,0
165976,-80,4,2,0,50,0,0
171804,-74.0740740740741,4,2,0,50,0,0
198890,-133.333333333333,4,2,0,50,0,0
209176,-71.4285714285714,4,2,0,50,0,0
209861,-133.333333333333,4,2,0,50,0,0
210204,-71.4285714285714,4,2,0,50,0,0

[HitObjects]
308,60,2042,5,0,0:0:0:0:
264,152,2213,1,0,0:0:0:0:
376,136,2385,1,0,0:0:0:0:
252,244,2556,1,0,0:0:0:0:
252,136,2727,1,0,0:0:0:0:
376,264,2899,6,0,P|336:328|248:328,1,142.500005435944
96,276,3585,2,0,P|72:176|56:116,2,142.500005435944
276,184,4613,1,0,0:0:0:0:
316,324,4956,2,0,P|392:360|448:312,1,142.500005435944
316,324,5642,5,0,0:0:0:0:
328,216,5985,1,0,0:0:0:0:
312,336,6156,1,0,0:0:0:0:
236,220,6499,1,0,0:0:0:0:
308,352,6842,1,0,0:0:0:0:
308,352,8385,5,0,0:0:0:0:
308,352,9756,5,0,0:0:0:0:
248,272,10099,1,0,0:0:0:0:
152,252,10442,1,0,0:0:0:0:
76,300,10785,1,0,0:0:0:0:
248,300,11127,2,0,B|248:240|248:240|232:200|248:168|248:168|224:164|188:128|200:84,1,213.750008153916
300,88,11813,2,0,L|400:80,1,71.2500027179719
448,176,12156,2,0,P|408:184|376:168,1,71.2500027179719
284,152,12499,6,0,B|280:192|280:192|296:228|296:224|296:224|344:252|344:296,1,142.500005435944
240,316,13013,2,0,B|200:308|200:308|152:328|152:328|116:312|116:312|120:296,1,142.500005435944
184,120,13527,2,0,L|172:40,1,71.2500027179719
168,216,13870,6,0,B|124:212|124:212|96:232|96:232|76:184|56:164,1,142.500005435944
260,184,14556,1,0,0:0:0:0:
128,340,14899,2,0,B|100:348|100:348|64:328,1,71.2500027179719
216,284,15242,5,0,0:0:0:0:
404,184,15585,2,0,L|480:176,1,71.2500027179719
312,192,15928,1,0,0:0:0:0:
200,60,16270,1,0,0:0:0:0:
160,160,16613,5,0,0:0:0:0:
332,72,16956,1,0,0:0:0:0:
416,144,17127,2,0,P|444:196|400:276,1,142.500005435944
292,272,17642,2,0,P|296:336|300:368,1,71.2500027179719
280,172,17985,5,0,0:0:0:0:
80,184,18670,1,0,0:0:0:0:
288,188,19356,6,0,B|324:176|344:188|344:188|360:168|360:168|364:128|396:120,1,142.500005435944
160,256,20042,2,0,L|176:340,2,71.2500027179719
144,160,20556,2,0,B|104:156|104:156|72:168|72:168|64:128|40:72,1,142.500005435944
232,128,21070,2,0,L|224:252,1,106.875004076958
264,316,21413,1,0,0:0:0:0:
356,332,21585,1,0,0:0:0:0:
436,292,21756,1,0,0:0:0:0:
472,196,21927,1,0,0:0:0:0:
252,252,22099,6,0,P|264:308|360:328,1,142.500005435944
352,244,22785,1,0,0:0:0:0:
128,160,23127,1,0,0:0:0:0:
392,92,23470,5,0,0:0:0:0:
264,56,23642,1,0,0:0:0:0:
264,56,23727,1,0,0:0:0:0:
264,56,23813,2,0,P|264:112|272:156,1,71.2500027179719
204,236,24156,2,0,P|156:216|96:200,1,95
272,332,24499,1,0,0:0:0:0:
312,348,24585,1,0,0:0:0:0:
356,344,24670,1,0,0:0:0:0:
396,324,24756,1,0,0:0:0:0:
416,288,24842,5,0,0:0:0:0:
276,148,25013,1,0,0:0:0:0:
160,256,25185,2,0,L|60:232,1,95
276,132,25527,1,0,0:0:0:0:
248,292,25699,1,0,0:0:0:0:
184,112,25870,1,0,0:0:0:0:
360,200,26042,2,0,P|424:208|488:100,1,190
208,28,26556,2,0,B|200:72|200:72|216:140,1,95
224,196,26813,1,0,0:0:0:0:
224,196,26899,2,0,L|104:184,1,95
44,280,27242,2,0,P|96:296|156:276,1,95
442,349,27585,6,0,P|448:302|440:256,1,95
316,76,27927,1,0,0:0:0:0:
284,264,28099,1,0,0:0:0:0:
208,160,28270,1,0,0:0:0:0:
436,128,28442,1,0,0:0:0:0:
276,276,28613,1,0,0:0:0:0:
288,64,28785,1,0,0:0:0:0:
268,288,28956,5,0,0:0:0:0:
200,56,29127,1,0,0:0:0:0:
48,120,29299,1,0,0:0:0:0:
208,160,29470,2,0,P|212:232|212:332,1,142.5
180,340,29813,1,0,0:0:0:0:
220,320,29899,1,0,0:0:0:0:
264,316,29985,1,0,0:0:0:0:
304,324,30070,1,0,0:0:0:0:
340,344,30156,1,0,0:0:0:0:
384,336,30242,1,0,0:0:0:0:
420,316,30327,6,0,B|428:280|428:280|408:172,1,113.999996520996
216,116,30670,1,0,0:0:0:0:
384,76,30842,1,0,0:0:0:0:
192,104,31013,2,0,P|196:184|212:256,1,113.999996520996
308,140,31356,1,0,0:0:0:0:
180,340,31527,2,0,P|96:352|32:232,1,227.999993041992
296,248,32042,6,0,P|368:244|432:248,1,113.999996520996
172,160,32385,2,0,P|100:148|48:144,1,113.999996520996
388,28,32727,2,0,P|408:72|436:152,1,113.999996520996
430,133,32985,1,0,0:0:0:0:
436,140,33070,6,0,B|380:140|380:140|288:176,1,113.999996520996
208,60,33413,1,0,0:0:0:0:
124,208,33585,1,0,0:0:0:0:
72,40,33756,1,0,0:0:0:0:
268,128,33927,1,0,0:0:0:0:
224,324,34099,1,0,0:0:0:0:
116,220,34270,2,0,B|104:168|104:168|112:136|112:136|132:124|132:124|152:76|148:48|104:16,1,227.999993041992
288,48,34785,1,0,0:0:0:0:
52,80,34956,1,0,0:0:0:0:
308,40,35127,1,0,0:0:0:0:
24,168,35298,1,0,0:0:0:0:
176,28,35470,1,0,0:0:0:0:
216,264,35641,1,0,0:0:0:0:
408,160,35813,6,0,B|448:148|448:148|520:168,1,113.999996520996
308,24,36156,1,0,0:0:0:0:
292,300,36327,1,0,0:0:0:0:
408,176,36499,2,0,B|408:120|408:120|356:92|356:92|288:116|244:76,1,227.999993041992
128,60,37013,2,0,B|88:104|36:108|36:108|72:160|68:240,1,227.999993041992
212,328,37527,5,0,0:0:0:0:
204,148,37699,1,0,0:0:0:0:
72,248,37870,1,0,0:0:0:0:
216,340,38042,1,0,0:0:0:0:
208,136,38213,1,0,0:0:0:0:
56,256,38385,1,0,0:0:0:0:
336,292,38556,6,0,P|344:232|352:156,1,113.999996520996
448,64,38899,2,0,P|376:56|336:28,1,113.999996520996
320,24,39156,1,0,0:0:0:0:
320,24,39242,1,0,0:0:0:0:
224,204,39413,1,0,0:0:0:0:
204,76,39585,1,0,0:0:0:0:
328,160,39756,2,0,B|344:216|344:216|324:280|324:280|344:336|344:336|344:268,1,227.999993041992
424,272,40185,1,0,0:0:0:0:
424,272,40270,1,0,0:0:0:0:
236,264,40442,1,0,0:0:0:0:
440,252,40613,1,0,0:0:0:0:
384,364,40785,1,0,0:0:0:0:
328,140,40956,2,0,P|312:64|332:12,1,113.999996520996
424,108,41299,6,0,P|444:176|408:332,1,227.999993041992
216,256,41813,1,0,0:0:0:0:
320,208,41985,1,0,0:0:0:0:
308,316,42156,1,0,0:0:0:0:
212,140,42327,1,0,0:0:0:0:
196,272,42499,2,0,B|128:284|128:284|100:276|100:276|64:296|24:264|24:264|4:216,1,227.999993041992
112,168,43013,2,0,P|164:160|240:192,1,113.999996520996
440,152,43356,2,0,P|360:144|324:124,1,113.999996520996
216,32,43699,2,0,P|224:112|232:236,1,170.999994781494
236,292,44042,6,0,P|176:288|116:276,1,113.999996520996
344,212,44385,2,0,P|416:204|464:248,1,113.999996520996
164,192,44727,1,0,0:0:0:0:
364,104,44899,1,0,0:0:0:0:
72,168,45070,1,0,0:0:0:0:
312,320,45242,2,0,P|312:232|300:68,1,227.999993041992
440,28,45756,2,0,P|416:104|424:188,1,113.999996520996
420,312,46099,2,0,P|352:280|284:276,1,113.999996520996
148,264,46442,2,0,B|132:208|132:208|148:56,1,170.999994781494
148,76,46785,5,0,0:0:0:0:
148,288,46956,1,0,0:0:0:0:
304,164,47127,1,0,0:0:0:0:
396,324,47299,2,0,B|416:256|416:256|404:228|404:228|396:184|396:184|424:140|408:84,1,227.999993041992
296,52,47813,1,0,0:0:0:0:
200,136,47985,2,0,P|224:220|216:292,1,113.999996520996
344,244,48327,5,0,0:0:0:0:
172,344,48499,1,0,0:0:0:0:
216,156,48670,1,0,0:0:0:0:
208,128,48756,1,0,0:0:0:0:
204,104,48842,1,0,0:0:0:0:
252,268,49013,1,0,0:0:0:0:
446,195,49185,2,0,P|394:174|340:188,1,113.999996520996
232,276,49527,6,0,P|160:288|112:236,1,113.999996520996
104,80,49870,1,0,0:0:0:0:
260,188,50042,2,0,L|256:336,1,113.999996520996
432,84,50385,1,0,0:0:0:0:
380,292,50556,1,0,0:0:0:0:
272,188,50727,2,0,B|232:188|232:188|212:204|212:204|168:188|168:188|124:208|96:204,1,170.999994781494
80,212,51070,2,0,B|112:288|120:320|120:320|144:256,1,170.999994781494
184,152,51413,2,0,B|208:208|208:208|224:272|224:272|240:256|240:256|272:256|272:256|296:320,1,227.999993041992
444,344,51927,1,0,0:0:0:0:
456,296,52013,1,0,0:0:0:0:
444,244,52099,1,0,0:0:0:0:
456,192,52185,1,0,0:0:0:0:
448,140,52270,5,0,0:0:0:0:
232,84,52613,2,0,L|216:168,1,71.2500027179719
332,56,52956,1,0,0:0:0:0:
96,132,53299,1,0,0:0:0:0:
124,240,53470,1,0,0:0:0:0:
200,168,53642,5,0,0:0:0:0:
200,168,53985,2,0,L|296:156,1,71.2500027179719
392,108,54327,2,0,B|416:168|416:168|392:212|392:212|420:264|424:324,1,213.750008153916
320,320,55013,5,0,0:0:0:0:
200,168,55356,1,0,0:0:0:0:
192,256,55527,1,0,0:0:0:0:
280,216,55699,1,0,0:0:0:0:
192,152,55870,1,0,0:0:0:0:
184,268,56042,1,0,0:0:0:0:
292,220,56213,1,0,0:0:0:0:
180,132,56385,5,0,0:0:0:0:
276,332,56727,1,0,0:0:0:0:
252,56,57070,1,0,0:0:0:0:
184,368,57413,1,0,0:0:0:0:
384,356,57756,6,0,B|388:288|368:236|368:236|380:168|384:104,1,237.5
480,36,58270,1,0,0:0:0:0:
268,168,58442,2,0,P|184:184|144:136,1,118.75
160,356,58785,2,0,P|232:332|280:352,1,118.75
24,288,59127,5,0,0:0:0:0:
180,80,59299,1,0,0:0:0:0:
228,288,59470,1,0,0:0:0:0:
48,176,59642,1,0,0:0:0:0:
396,104,59813,1,0,0:0:0:0:
304,328,59985,1,0,0:0:0:0:
264,40,60156,1,0,0:0:0:0:
436,268,60327,1,0,0:0:0:0:
208,288,60499,6,0,P|204:208|224:152,1,118.75
312,68,60842,2,0,P|208:88|184:64,1,118.75
48,240,61185,2,0,P|116:224|176:264,1,118.75
208,288,61442,1,0,0:0:0:0:
208,288,61527,2,0,L|344:264,1,118.75
456,92,61870,5,0,0:0:0:0:
300,152,62042,1,0,0:0:0:0:
292,176,62127,1,0,0:0:0:0:
284,200,62213,1,0,0:0:0:0:
432,200,62385,1,0,0:0:0:0:
344,360,62556,1,0,0:0:0:0:
344,360,62642,1,0,0:0:0:0:
344,360,62727,1,0,0:0:0:0:
192,136,62899,1,0,0:0:0:0:
384,96,63070,1,0,0:0:0:0:
440,228,63242,6,0,B|444:264|444:264|440:312,3,59.375
288,256,63585,2,0,B|280:216|280:216|288:168,3,59.375
304,92,63927,1,0,0:0:0:0:
256,116,64013,1,0,0:0:0:0:
204,116,64099,1,0,0:0:0:0:
156,96,64185,1,0,0:0:0:0:
120,60,64270,1,0,0:0:0:0:
76,92,64356,1,0,0:0:0:0:
64,144,64442,1,0,0:0:0:0:
84,192,64559,6,0,L|88:348,1,118.75
256,184,64901,2,0,P|236:92|244:40,1,118.75
376,128,65244,1,0,0:0:0:0:
280,288,65416,1,0,0:0:0:0:
456,96,65587,2,0,P|444:172|448:240,1,118.75
364,340,65930,6,0,P|268:312|208:320,1,118.75
36,232,66273,2,0,P|20:164|40:100,1,118.75
48,92,66530,1,0,0:0:0:0:
48,92,66616,2,0,B|96:104|96:104|176:80,1,118.75
340,32,66959,2,0,L|320:224,1,178.125
316,232,67301,5,0,0:0:0:0:
244,72,67473,1,0,0:0:0:0:
200,284,67644,1,0,0:0:0:0:
364,236,67816,2,0,B|404:228|404:228|436:240|436:240|460:224|460:224|496:228|512:180,1,178.125
500,152,68159,2,0,L|492:292,1,118.75
408,364,68501,2,0,P|392:288|408:196,1,118.75
244,72,68844,5,0,0:0:0:0:
244,72,68930,1,0,0:0:0:0:
244,72,69016,1,0,0:0:0:0:
400,104,69187,1,0,0:0:0:0:
280,232,69359,1,0,0:0:0:0:
336,28,69530,1,0,0:0:0:0:
320,312,69701,1,0,0:0:0:0:
248,56,69873,1,0,0:0:0:0:
256,368,70044,6,0,B|216:356|216:356|192:368|192:368|168:368|168:368|156:336|112:328|80:344,1,178.125
20,368,70387,2,0,B|8:328|8:328|12:232,1,118.75
104,124,70730,2,0,P|172:128|232:88,1,118.75
312,40,71073,1,0,0:0:0:0:
104,80,71244,2,0,B|100:132|60:188|60:188|104:252|116:344,1,237.5
240,228,71759,6,0,P|220:160|224:92,1,118.75
312,24,72101,1,0,0:0:0:0:
240,252,72273,1,0,0:0:0:0:
116,136,72444,1,0,0:0:0:0:
380,128,72616,1,0,0:0:0:0:
240,276,72787,6,0,P|172:256|112:252,1,118.75
8,184,73130,1,0,0:0:0:0:
380,96,73301,2,0,L|364:236,1,118.75
344,328,73644,1,0,0:0:0:0:
392,16,73816,1,0,0:0:0:0:
484,240,73987,2,0,B|456:256|408:244|408:244|364:276|364:276|320:256|248:272,1,237.5
140,152,74501,1,0,0:0:0:0:
128,272,74673,1,0,0:0:0:0:
128,272,74759,1,0,0:0:0:0:
128,272,74844,1,0,0:0:0:0:
140,128,75016,1,0,0:0:0:0:
284,212,75187,1,0,0:0:0:0:
48,168,75359,1,0,0:0:0:0:
236,16,75530,6,0,B|256:52|256:52|256:160,1,118.75
260,304,75873,2,0,P|320:280|392:304,1,118.75
400,308,76130,1,0,0:0:0:0:
400,308,76216,2,0,P|396:212|380:144,1,118.75
296,112,76559,1,0,0:0:0:0:
260,280,76730,1,0,0:0:0:0:
180,88,76901,6,0,P|116:80|60:124,1,118.75
16,208,77244,2,0,P|88:212|144:172,1,118.75
208,176,77501,1,0,0:0:0:0:
208,176,77587,2,0,P|288:192|344:176,1,118.75
488,48,77930,2,0,P|476:124|472:208,1,118.75
268,356,78273,6,0,B|256:304|256:304|260:192,1,118.75
356,136,78616,1,0,0:0:0:0:
168,272,78787,2,0,P|96:260|68:200,1,118.75
196,160,79130,1,0,0:0:0:0:
164,352,79301,1,0,0:0:0:0:
200,144,79473,1,0,0:0:0:0:
88,308,79644,5,0,0:0:0:0:
204,124,79816,1,0,0:0:0:0:
60,216,79987,1,0,0:0:0:0:
272,328,80159,1,0,0:0:0:0:
312,292,80244,1,0,0:0:0:0:
364,272,80330,1,0,0:0:0:0:
416,268,80416,1,0,0:0:0:0:
468,284,80501,1,0,0:0:0:0:
352,132,80673,2,0,P|288:140|212:104,1,118.75
120,44,81016,6,0,L|152:256,1,178.125
156,256,81359,2,0,P|84:236|12:256,1,118.75
303,269,81701,2,0,P|306:210|316:152,1,118.75
404,44,82044,1,0,0:0:0:0:
400,264,82216,1,0,0:0:0:0:
292,56,82387,1,0,0:0:0:0:
160,184,82559,5,0,0:0:0:0:
412,148,82730,2,0,L|396:288,1,118.75
392,292,82987,1,0,0:0:0:0:
392,292,83073,2,0,P|328:304|248:260,1,118.75
32,236,83416,2,0,P|35:295|52:352,1,118.75
192,164,83759,6,0,P|184:72|156:8,1,118.75
84,120,84101,1,0,0:0:0:0:
344,80,84273,1,0,0:0:0:0:
168,16,84444,2,0,P|164:124|172:172,1,118.75
236,296,84787,1,0,0:0:0:0:
448,216,84959,1,0,0:0:0:0:
144,232,85130,6,0,P|140:312|164:372,1,118.75
360,300,85473,1,0,0:0:0:0:
32,248,85644,1,0,0:0:0:0:
32,248,85730,1,0,0:0:0:0:
32,248,85816,1,0,0:0:0:0:
304,176,85987,1,0,0:0:0:0:
180,352,86159,1,0,0:0:0:0:
456,180,86330,1,0,0:0:0:0:
288,376,86501,6,0,P|272:284|268:164,1,178.125
280,120,86844,2,0,P|200:132|132:80,1,118.75
24,304,87187,2,0,B|72:296|72:296|188:312,1,118.75
344,248,87530,1,0,0:0:0:0:
144,368,87701,2,0,B|144:324|120:268|120:268|144:236|144:236|168:216|168:216|144:172|148:128,1,237.5
248,100,88216,1,0,0:0:0:0:
296,80,88301,1,0,0:0:0:0:
348,80,88387,1,0,0:0:0:0:
400,96,88473,1,0,0:0:0:0:
440,132,88559,2,0,P|432:228|436:308,1,118.75
416,352,88901,1,0,0:0:0:0:
256,280,89073,1,0,0:0:0:0:
176,344,89244,5,0,0:0:0:0:
360,260,89416,1,0,0:0:0:0:
468,376,89587,2,0,P|480:308|484:224,1,118.75
424,112,89930,2,0,P|348:120|288:72,1,118.75
288,328,90273,2,0,P|376:324|436:344,1,118.75
216,176,90616,5,0,0:0:0:0:
128,300,90787,1,0,0:0:0:0:
72,152,90959,1,0,0:0:0:0:
228,168,91130,2,0,B|224:216|224:216|212:236|212:236|192:272|192:272|232:300|240:352|204:384,1,237.5
392,276,91644,1,0,0:0:0:0:
388,224,91730,1,0,0:0:0:0:
384,172,91816,1,0,0:0:0:0:
384,120,91901,1,0,0:0:0:0:
380,68,91987,5,0,0:0:0:0:
248,160,92159,1,0,0:0:0:0:
288,348,92330,1,0,0:0:0:0:
164,260,92501,1,0,0:0:0:0:
376,216,92673,2,0,B|400:212|400:212|448:220,3,59.375
300,252,93016,1,0,0:0:0:0:
284,252,93101,1,0,0:0:0:0:
268,252,93187,1,0,0:0:0:0:
252,252,93273,1,0,0:0:0:0:
232,252,93359,6,0,B|196:252|168:240|168:240|156:280|128:308|128:308,1,142.500005435944
280,136,94044,2,0,L|268:56,2,71.2500027179719
388,104,94559,2,0,L|376:272,1,142.500005435944
280,276,95073,2,0,L|192:248,1,71.2500027179719
128,224,95416,1,0,0:0:0:0:
364,204,95759,1,0,0:0:0:0:
220,84,96101,5,0,0:0:0:0:
220,84,96444,1,0,0:0:0:0:
220,84,96787,2,0,P|220:144|228:184,1,71.2500027179719
304,252,97130,2,0,P|312:200|316:152,1,71.2500027179719
300,272,98159,6,0,B|256:264|256:264|232:284|208:280|208:280|176:252|136:256,1,142.500005435944
104,224,98844,6,0,B|100:156|84:116|84:116|116:144,1,142.500005435944
196,172,99530,1,0,0:0:0:0:
280,148,99701,1,0,0:0:0:0:
364,164,99873,1,0,0:0:0:0:
428,216,100044,1,0,0:0:0:0:
428,216,100559,1,0,0:0:0:0:
428,216,101073,2,0,P|424:272|424:304,1,71.2500027179719
240,352,101587,6,0,P|232:256|224:184,1,142.500005435944
284,56,102101,1,0,0:0:0:0:
172,128,102273,2,0,P|124:128|88:112,1,71.2500027179719
180,32,102616,1,0,0:0:0:0:
272,160,102787,2,0,L|272:248,1,71.2500027179719
376,352,103130,6,0,P|376:288|396:204,1,113.999996520996
440,104,103473,2,0,B|396:96|396:96|364:116|364:116|328:124|272:100|272:100|256:168,1,227.999993041992
200,276,103987,1,0,0:0:0:0:
152,288,104073,1,0,0:0:0:0:
100,284,104159,1,0,0:0:0:0:
56,260,104244,1,0,0:0:0:0:
32,212,104330,6,0,P|24:136|48:64,1,113.999996520996
200,196,104673,2,0,P|216:276|200:336,1,113.999996520996
312,80,105016,1,0,0:0:0:0:
160,108,105187,1,0,0:0:0:0:
432,76,105359,1,0,0:0:0:0:
212,24,105530,2,0,B|240:92|228:136|228:136|248:172|248:172|224:204|220:252,1,227.999993041992
440,192,106044,1,0,0:0:0:0:
364,360,106216,1,0,0:0:0:0:
272,212,106387,1,0,0:0:0:0:
452,188,106559,1,0,0:0:0:0:
368,376,106730,1,0,0:0:0:0:
256,204,106901,1,0,0:0:0:0:
468,184,107073,6,0,P|448:264|444:316,1,113.999996520996
240,200,107416,2,0,B|224:152|224:152|236:68,1,113.999996520996
240,60,107673,1,0,0:0:0:0:
240,60,107759,1,0,0:0:0:0:
144,128,107930,1,0,0:0:0:0:
64,36,108101,1,0,0:0:0:0:
256,48,108273,2,0,B|256:104|252:112|232:152|232:152|248:204|248:204|228:248|240:308,1,227.999993041992
348,336,108787,2,0,L|476:320,1,113.999996520996
496,196,109130,2,0,P|436:184|380:224,1,113.999996520996
328,248,109387,1,0,0:0:0:0:
328,248,109473,2,0,L|192:220,1,113.999996520996
36,352,109816,6,0,P|16:264|40:208,1,113.999996520996
224,48,110159,1,0,0:0:0:0:
176,288,110330,1,0,0:0:0:0:
124,96,110501,1,0,0:0:0:0:
328,156,110673,1,0,0:0:0:0:
60,176,110844,1,0,0:0:0:0:
264,348,111016,2,0,P|268:216|272:108,1,227.999993041992
468,172,111530,2,0,P|416:204|344:196,1,113.999996520996
336,188,111787,1,0,0:0:0:0:
336,188,111873,2,0,B|352:232|352:232|340:336,1,113.999996520996
132,108,112216,1,0,0:0:0:0:
336,56,112387,1,0,0:0:0:0:
112,92,112559,6,0,P|116:184|128:240,1,113.999996520996
220,292,112901,1,0,0:0:0:0:
296,164,113073,2,0,P|360:144|432:156,1,113.999996520996
444,292,113416,1,0,0:0:0:0:
480,40,113587,1,0,0:0:0:0:
344,256,113759,2,0,P|284:240|180:252,1,113.999996520996
56,308,114101,6,0,P|88:228|84:164,1,113.999996520996
108,28,114444,2,0,B|140:48|140:48|164:80|164:80|208:80|256:108|256:108|312:104,1,227.999993041992
464,200,114959,1,0,0:0:0:0:
468,252,115044,1,0,0:0:0:0:
452,300,115130,1,0,0:0:0:0:
408,328,115216,1,0,0:0:0:0:
356,332,115301,5,0,0:0:0:0:
356,332,115644,6,0,L|264:320,1,71.2500027179719
188,308,115987,1,0,0:0:0:0:
312,128,116330,1,0,0:0:0:0:
236,200,116501,1,0,0:0:0:0:
208,104,116673,5,0,0:0:0:0:
390,263,117016,2,0,L|396:192,1,71.2500027179719
224,188,117359,2,0,B|228:264|228:264|248:300|248:300|248:352,1,142.500005435944
316,228,117873,1,0,0:0:0:0:
156,280,118044,5,0,0:0:0:0:
156,280,118730,1,0,0:0:0:0:
156,280,119073,2,0,L|152:200,1,71.2500027179719
248,216,119416,6,0,L|240:368,1,142.500005435944
144,280,119930,1,0,0:0:0:0:
228,184,120101,2,0,P|304:160|360:204,1,142.500005435944
360,280,120616,1,0,0:0:0:0:
436,228,120787,6,0,B|444:184|444:184|424:88,1,118.75
376,32,121130,1,0,0:0:0:0:
244,160,121301,1,0,0:0:0:0:
248,188,121387,1,0,0:0:0:0:
256,216,121473,1,0,0:0:0:0:
344,132,121644,1,0,0:0:0:0:
132,184,121816,1,0,0:0:0:0:
208,40,121987,1,0,0:0:0:0:
208,40,122073,1,0,0:0:0:0:
208,40,122159,6,0,P|228:116|244:176,1,118.75
264,292,122501,2,0,P|188:284|116:316,1,118.75
116,320,122759,1,0,0:0:0:0:
116,320,122844,2,0,B|72:296|72:296|20:212,1,118.75
332,256,123187,2,0,L|320:392,1,118.75
416,156,123530,6,0,P|380:80|392:8,1,118.75
472,76,123873,1,0,0:0:0:0:
324,200,124044,1,0,0:0:0:0:
260,56,124216,1,0,0:0:0:0:
420,248,124387,1,0,0:0:0:0:
192,204,124559,1,0,0:0:0:0:
404,156,124730,1,0,0:0:0:0:
264,72,124901,6,0,B|264:132|264:132|288:172|288:172|300:224|320:240|320:240|308:312,1,237.5
124,292,125416,1,0,0:0:0:0:
124,292,125501,1,0,0:0:0:0:
124,292,125587,1,0,0:0:0:0:
52,120,125759,1,0,0:0:0:0:
240,36,125930,1,0,0:0:0:0:
52,120,126101,1,0,0:0:0:0:
200,200,126273,5,0,0:0:0:0:
252,188,126359,1,0,0:0:0:0:
304,196,126444,1,0,0:0:0:0:
348,224,126530,1,0,0:0:0:0:
400,236,126616,1,0,0:0:0:0:
448,216,126701,1,0,0:0:0:0:
476,172,126787,1,0,0:0:0:0:
468,120,126873,1,0,0:0:0:0:
428,84,126959,2,0,P|428:52|420:12,1,59.375
308,140,127130,2,0,P|300:92|296:64,1,59.375
176,160,127301,2,0,L|208:304,1,118.75
400,368,127576,6,0,P|408:284|448:216,1,118.75
420,36,127918,2,0,P|328:52|276:28,1,118.75
52,36,128261,2,0,P|32:112|68:196,1,118.75
176,92,128604,1,0,0:0:0:0:
164,332,128776,1,0,0:0:0:0:
284,104,128947,6,0,P|352:100|408:140,1,118.75
464,248,129290,2,0,P|388:264|328:212,1,118.75
284,216,129547,1,0,0:0:0:0:
232,232,129633,1,0,0:0:0:0:
204,276,129718,1,0,0:0:0:0:
212,328,129804,1,0,0:0:0:0:
60,192,129976,2,0,P|56:112|32:32,1,118.75
248,36,130318,6,0,L|240:172,1,118.75
228,268,130661,1,0,0:0:0:0:
360,356,130833,2,0,P|436:356|500:300,1,118.75
212,252,131176,2,0,P|136:244|92:280,1,118.75
340,380,131518,2,0,B|340:336|340:336|328:304|328:304|356:260|348:216|348:216|312:180|320:132,1,237.5
420,76,132033,5,0,0:0:0:0:
244,152,132204,1,0,0:0:0:0:
244,152,132290,1,0,0:0:0:0:
244,152,132376,2,0,P|184:160|128:108,1,118.75
136,344,132718,2,0,P|212:328|264:348,1,118.75
48,108,133061,5,0,0:0:0:0:
80,256,133233,1,0,0:0:0:0:
244,172,133404,2,0,P|304:168|392:192,1,118.75
376,336,133747,2,0,P|456:348|512:336,1,118.75
168,296,134090,1,0,0:0:0:0:
324,84,134261,2,0,P|352:172|344:280,1,178.125
340,296,134604,5,0,0:0:0:0:
468,160,134776,1,0,0:0:0:0:
432,360,134947,1,0,0:0:0:0:
376,120,135118,1,0,0:0:0:0:
328,100,135204,1,0,0:0:0:0:
276,96,135290,1,0,0:0:0:0:
224,100,135376,1,0,0:0:0:0:
172,116,135461,1,0,0:0:0:0:
124,144,135547,1,0,0:0:0:0:
88,184,135633,1,0,0:0:0:0:
64,232,135718,1,0,0:0:0:0:
52,284,135804,5,0,0:0:0:0:
324,188,135976,1,0,0:0:0:0:
312,348,136147,1,0,0:0:0:0:
208,92,136318,2,0,B|164:84|164:84|52:96,1,118.75
32,188,136661,2,0,P|112:192|160:172,1,118.75
320,360,137004,2,0,B|300:248|300:248|340:188|328:108,1,237.5
448,40,137518,2,0,L|432:196,1,118.75
432,292,137861,1,0,0:0:0:0:
388,320,137947,1,0,0:0:0:0:
336,328,138033,1,0,0:0:0:0:
288,304,138118,1,0,0:0:0:0:
252,264,138204,1,0,0:0:0:0:
204,244,138290,1,0,0:0:0:0:
152,244,138376,1,0,0:0:0:0:
104,268,138461,1,0,0:0:0:0:
64,304,138547,6,0,B|44:240|44:240|72:56,1,237.5
180,344,139061,1,0,0:0:0:0:
180,344,139147,1,0,0:0:0:0:
180,344,139233,1,0,0:0:0:0:
176,120,139404,1,0,0:0:0:0:
272,300,139576,1,0,0:0:0:0:
384,192,139747,1,0,0:0:0:0:
152,228,139918,6,0,P|72:216|32:192,1,118.75
256,144,140261,1,0,0:0:0:0:
288,288,140433,1,0,0:0:0:0:
420,316,140604,1,0,0:0:0:0:
432,136,140776,1,0,0:0:0:0:
384,160,140861,1,0,0:0:0:0:
332,164,140947,1,0,0:0:0:0:
280,152,141033,1,0,0:0:0:0:
236,124,141118,1,0,0:0:0:0:
140,284,141290,6,0,L|-8:320,1,118.75
32,172,141633,1,0,0:0:0:0:
152,216,141804,2,0,L|144:356,1,118.75
372,212,142147,2,0,P|360:132|372:68,1,118.75
236,28,142490,2,0,L|280:308,1,237.5
164,356,143004,5,0,0:0:0:0:
120,148,143176,1,0,0:0:0:0:
120,148,143261,1,0,0:0:0:0:
120,148,143347,1,0,0:0:0:0:
84,336,143518,1,0,0:0:0:0:
152,56,143690,1,0,0:0:0:0:
252,320,143861,1,0,0:0:0:0:
340,248,144033,6,0,P|356:328|352:376,1,118.75
188,160,144376,2,0,L|376:128,1,178.125
388,120,144718,2,0,P|384:200|404:264,1,118.75
312,32,145061,1,0,0:0:0:0:
272,188,145233,2,0,B|232:200|232:200|128:184,1,118.75
56,152,145576,5,0,0:0:0:0:
56,152,145661,1,0,0:0:0:0:
56,152,145747,1,0,0:0:0:0:
176,272,145918,1,0,0:0:0:0:
296,140,146090,1,0,0:0:0:0:
260,352,146261,1,0,0:0:0:0:
200,92,146433,1,0,0:0:0:0:
388,208,146604,1,0,0:0:0:0:
88,336,146776,6,0,P|56:276|80:180,1,118.75
192,184,147118,6,0,P|224:244|200:340,1,118.75
220,328,147376,1,0,0:0:0:0:
220,328,147461,2,0,P|304:336|368:312,1,118.75
448,256,147804,2,0,P|356:232|292:236,1,118.75
176,204,148147,5,0,0:0:0:0:
84,328,148318,1,0,0:0:0:0:
192,112,148490,1,0,0:0:0:0:
212,344,148661,1,0,0:0:0:0:
20,252,148833,1,0,0:0:0:0:
212,104,149004,1,0,0:0:0:0:
216,364,149176,2,0,B|168:364|168:364|92:348,1,118.75
8,240,149518,5,0,0:0:0:0:
312,112,160147,5,0,0:0:0:0:
264,216,160318,1,0,0:0:0:0:
172,156,160490,2,0,B|136:152|136:152|120:176|120:176|88:176|88:176|56:156|28:156,1,142.500005435944
248,88,161004,2,0,B|264:132|264:132|244:200|244:200|268:232|264:252,1,142.500005435944
348,264,161518,2,0,L|424:256,1,71.2500027179719
248,272,161861,5,0,0:0:0:0:
96,136,162204,2,0,L|16:128,1,71.2500027179719
192,144,162547,1,0,0:0:0:0:
332,256,162890,6,0,L|320:336,1,71.2500027179719
344,164,163233,2,0,B|328:108|328:108|336:76|332:16,1,142.500005435944
424,116,163747,2,0,B|424:156|436:184|436:184|420:224|420:224|420:276,1,142.500005435944
320,316,164261,1,0,0:0:0:0:
240,248,164604,5,0,0:0:0:0:
240,248,165290,2,0,L|228:104,1,142.500005435944
340,48,165976,6,0,P|344:120|332:200,1,118.75
444,340,166318,2,0,P|444:256|464:184,1,118.75
452,48,166661,2,0,B|396:80|396:80|364:68|364:68|324:84|324:84|308:124,1,178.125
256,192,167004,6,0,P|188:200|152:160,1,118.75
352,68,167347,6,0,L|352:156|352:216,1,118.75
200,356,167690,2,0,P|188:288|192:200,1,118.75
188,156,167947,1,0,0:0:0:0:
192,160,168033,2,0,P|96:176|52:152,1,118.75
280,40,168376,2,0,B|296:80|296:80|288:116|288:116|300:140|300:140|284:176|304:208|304:208|328:172|384:180|416:176|424:244|428:280|376:312,1,356.25
48,232,169061,1,0,0:0:0:0:
160,264,169233,1,0,0:0:0:0:
272,204,169404,1,0,0:0:0:0:
392,248,169576,1,0,0:0:0:0:
392,248,169661,1,0,0:0:0:0:
392,248,169747,1,0,0:0:0:0:
276,356,169918,1,0,0:0:0:0:
248,184,170090,6,0,P|188:168|116:188,1,118.75
32,52,170433,1,0,0:0:0:0:
192,304,170604,2,0,B|232:276|232:276|336:256,1,118.75
472,304,170947,1,0,0:0:0:0:
204,32,171118,1,0,0:0:0:0:
200,56,171204,1,0,0:0:0:0:
196,80,171290,1,0,0:0:0:0:
192,104,171376,1,0,0:0:0:0:
188,128,171461,6,0,B|184:168|184:168|200:208|200:208|176:260|204:320,1,178.125
176,336,171804,2,0,B|136:344|136:344|40:328,1,128.250000489235
64,112,172147,1,0,0:0:0:0:
120,268,172318,1,0,0:0:0:0:
216,56,172490,1,0,0:0:0:0:
312,212,172661,2,0,P|312:304|280:360,1,128.250000489235
356,88,173004,6,0,P|432:124|456:188,1,128.250000489235
188,152,173347,1,0,0:0:0:0:
296,28,173518,1,0,0:0:0:0:
168,168,173690,1,0,0:0:0:0:
368,100,173861,1,0,0:0:0:0:
148,184,174033,1,0,0:0:0:0:
364,204,174204,6,0,P|444:232|496:208,1,128.250000489235
380,76,174547,1,0,0:0:0:0:
232,196,174718,2,0,P|248:276|256:352,1,128.250000489235
84,76,175061,2,0,P|72:168|80:228,1,128.250000489235
200,348,175404,2,0,B|252:340|324:380|324:380|360:336|360:336|360:300|360:300|376:252,1,256.50000097847
300,140,175918,1,0,0:0:0:0:
448,48,176090,1,0,0:0:0:0:
448,48,176176,1,0,0:0:0:0:
448,48,176261,1,0,0:0:0:0:
416,232,176433,1,0,0:0:0:0:
316,48,176604,1,0,0:0:0:0:
172,288,176776,2,0,P|180:225|164:164,1,128.250000489235
84,216,177118,5,0,0:0:0:0:
360,156,177290,1,0,0:0:0:0:
280,28,177461,2,0,P|284:128|288:256,1,192.375000733852
288,256,177804,2,0,L|456:228,1,128.250000489235
480,144,178147,2,0,P|420:124|320:160,1,128.250000489235
240,216,178490,6,0,L|268:360,1,128.250000489235
56,160,178833,2,0,P|88:56|80:0,1,128.250000489235
176,344,179176,1,0,0:0:0:0:
164,60,179347,1,0,0:0:0:0:
44,264,179518,1,0,0:0:0:0:
280,292,179690,5,0,0:0:0:0:
88,160,179861,1,0,0:0:0:0:
88,160,179947,1,0,0:0:0:0:
88,160,180033,1,0,0:0:0:0:
136,328,180204,1,0,0:0:0:0:
376,160,180376,2,0,P|368:64|380:0,1,128.250000489235
488,96,180718,1,0,0:0:0:0:
364,280,180890,2,0,L|156:240,1,192.375000733852
68,192,181233,2,0,B|60:228|60:228|72:264|72:264|112:312|112:312|104:352|112:372,1,192.375000733852
212,360,181576,2,0,B|208:296|200:216|200:216|248:168,1,192.375000733852
328,160,181918,2,0,P|404:184|464:96,1,192.375000733852
380,84,182261,6,0,B|376:144|376:144|400:192|400:192|384:240|388:276|388:272|388:272|308:252,1,256.50000097847
56,56,182776,1,0,0:0:0:0:
92,232,182947,1,0,0:0:0:0:
208,144,183118,2,0,P|200:64|192:4,1,128.250000489235
360,32,183461,1,0,0:0:0:0:
304,224,183633,2,0,B|260:248|260:248|232:252|232:252|200:236|200:236|164:272|128:248|128:248|108:212|120:184,1,256.50000097847
312,112,184147,2,0,B|304:72|304:72|360:0,1,128.250000489235
424,32,184404,1,0,0:0:0:0:
424,32,184490,2,0,P|316:52|284:20,1,128.250000489235
216,28,184833,1,0,0:0:0:0:
48,160,185004,6,0,P|36:244|88:372,1,192.375000733852
92,368,185347,1,0,0:0:0:0:
212,220,185518,2,0,B|272:212|272:212|344:232,1,128.250000489235
448,284,185861,1,0,0:0:0:0:
352,120,186033,1,0,0:0:0:0:
288,288,186204,1,0,0:0:0:0:
464,296,186376,1,0,0:0:0:0:
348,100,186547,5,0,0:0:0:0:
272,308,186718,1,0,0:0:0:0:
492,164,186890,1,0,0:0:0:0:
368,244,187061,2,0,L|384:380,1,128.250000489235
184,308,187404,1,0,0:0:0:0:
184,308,187490,1,0,0:0:0:0:
184,308,187576,2,0,P|168:212|136:152,1,128.250000489235
200,80,187918,6,0,P|260:60|344:88,1,128.250000489235
408,172,188261,1,0,0:0:0:0:
356,360,188433,1,0,0:0:0:0:
228,184,188604,2,0,P|212:100|224:40,1,128.250000489235
324,268,188947,1,0,0:0:0:0:
92,224,189118,1,0,0:0:0:0:
328,104,189290,6,0,P|392:96|472:128,1,128.250000489235
212,312,189633,2,0,P|144:316|84:280,1,128.250000489235
72,264,189890,1,0,0:0:0:0:
72,264,189976,2,0,P|88:336|64:384,1,128.250000489235
220,72,190318,1,0,0:0:0:0:
216,336,190490,1,0,0:0:0:0:
448,320,190661,6,0,B|448:264|448:264|432:216|432:216|456:152|448:96,1,192.375000733852
452,104,191004,1,0,0:0:0:0:
304,248,191176,1,0,0:0:0:0:
160,100,191347,2,0,P|80:88|20:124,1,128.250000489235
128,208,191690,2,0,P|204:200|272:152,1,128.250000489235
464,40,192033,6,0,P|488:136|468:212,1,128.250000489235
396,332,192376,1,0,0:0:0:0:
244,56,192547,1,0,0:0:0:0:
496,28,192718,2,0,P|452:152|440:160,1,128.250000489235
172,360,193061,6,0,P|168:272|160:184,1,128.250000489235
264,144,193404,5,0,0:0:0:0:
64,220,193576,1,0,0:0:0:0:
328,80,193747,1,0,0:0:0:0:
236,312,193918,1,0,0:0:0:0:
204,44,194090,1,0,0:0:0:0:
232,340,194261,1,0,0:0:0:0:
272,124,194433,1,0,0:0:0:0:
152,240,194604,1,0,0:0:0:0:
104,96,194776,5,0,0:0:0:0:
288,124,194947,1,0,0:0:0:0:
156,264,195118,1,0,0:0:0:0:
112,76,195290,1,0,0:0:0:0:
160,292,195461,1,0,0:0:0:0:
208,32,195633,1,0,0:0:0:0:
240,364,195804,1,0,0:0:0:0:
208,16,195976,1,0,0:0:0:0:
364,176,196147,2,0,B|408:184|408:184|444:184|444:184|480:152|480:152|460:224|464:228,1,192.375000733852
464,240,196490,1,0,0:0:0:0:
280,172,196661,2,0,P|272:96|308:24,1,128.250000489235
404,36,197004,1,0,0:0:0:0:
380,176,197176,2,0,B|316:192|256:148|256:148|212:200|212:200|136:200,1,256.50000097847
48,172,197690,5,0,0:0:0:0:
96,280,197861,1,0,0:0:0:0:
180,152,198033,1,0,0:0:0:0:
168,344,198204,1,0,0:0:0:0:
296,188,198376,1,0,0:0:0:0:
32,156,198547,2,0,P|32:228|68:320,1,128.250000489235
236,240,198890,6,0,B|224:168|224:168|240:116|244:72,1,142.500005435944
332,56,199576,2,0,P|352:120|360:196,1,142.500005435944
352,292,200090,1,0,0:0:0:0:
352,292,200261,5,0,0:0:0:0:
352,292,200604,1,0,0:0:0:0:
256,264,200947,2,0,P|208:256|108:252,1,142.500005435944
276,160,201633,5,0,0:0:0:0:
128,360,201976,1,0,0:0:0:0:
112,252,202147,1,0,0:0:0:0:
280,144,202490,1,0,0:0:0:0:
348,240,202661,1,0,0:0:0:0:
348,240,203004,5,0,0:0:0:0:
412,168,203176,1,0,0:0:0:0:
380,80,203347,1,0,0:0:0:0:
292,56,203518,1,0,0:0:0:0:
220,128,203690,1,0,0:0:0:0:
248,216,203861,1,0,0:0:0:0:
340,240,204033,2,0,L|440:224,1,71.2500027179719
316,144,204376,5,0,0:0:0:0:
104,260,204718,1,0,0:0:0:0:
352,296,205061,2,0,L|352:372,1,71.2500027179719
352,204,205404,1,0,0:0:0:0:
272,252,205576,2,0,B|236:256|236:256|204:240|204:240|176:256|132:240,1,142.500005435944
68,168,206090,5,0,0:0:0:0:
68,168,206604,2,0,P|88:228|84:260,1,71.2500027179719
92,316,206861,2,0,L|184:304,1,71.2500027179719
252,300,207118,5,0,0:0:0:0:
240,108,207290,1,0,0:0:0:0:
256,320,207633,1,0,0:0:0:0:
244,88,207976,1,0,0:0:0:0:
264,344,208318,1,0,0:0:0:0:
252,68,208661,5,0,0:0:0:0:
252,68,208747,1,0,0:0:0:0:
252,68,208833,1,0,0:0:0:0:
200,268,209004,1,0,0:0:0:0:
80,160,209176,1,0,0:0:0:0:
124,124,209261,1,0,0:0:0:0:
180,104,209347,1,0,0:0:0:0:
240,92,209433,1,0,0:0:0:0:
300,92,209518,1,0,0:0:0:0:
360,104,209604,1,0,0:0:0:0:
412,132,209690,1,0,0:0:0:0:
464,164,209776,1,0,0:0:0:0:
500,212,209861,6,0,L|496:312,1,71.2500027179719
248,84,210204,2,0,P|332:88|396:56,1,132.999995941162
384,296,210547,2,0,P|304:288|244:300,1,132.999995941162
56,88,210890,1,0,0:0:0:0:
132,356,211061,1,0,0:0:0:0:
316,156,211233,6,0,P|320:64|304:8,1,132.999995941162
336,312,211576,2,0,P|424:304|472:248,1,132.999995941162
472,248,211833,1,0,0:0:0:0:
472,248,211918,1,0,0:0:0:0:
220,252,212090,1,0,0:0:0:0:
224,76,212261,1,0,0:0:0:0:
408,124,212433,1,0,0:0:0:0:
216,268,212604,6,0,B|148:260|72:272|72:272|64:236|64:236|72:184|72:184|60:136,1,265.999991882324
296,20,213118,2,0,P|304:104|288:176,1,132.999995941162
328,312,213461,2,0,P|412:300|472:324,1,132.999995941162
360,144,213804,2,0,B|316:144|316:144|272:160|272:160|256:144|256:144|216:136|216:136|184:176|128:184|96:168,1,265.999991882324
316,328,214318,5,0,0:0:0:0:
320,48,214490,1,0,0:0:0:0:
452,308,214661,1,0,0:0:0:0:
196,208,214833,1,0,0:0:0:0:
196,208,214918,1,0,0:0:0:0:
196,208,215004,1,0,0:0:0:0:
488,76,215176,1,0,0:0:0:0:
308,356,215347,2,0,P|304:228|304:136,1,199.499993911743
304,128,215690,2,0,P|232:136|156:104,1,132.999995941162
56,84,216033,1,0,0:0:0:0:
80,240,216204,1,0,0:0:0:0:
220,312,216376,1,0,0:0:0:0:
312,116,216547,2,0,P|392:96|488:168,1,199.499993911743
496,188,216890,1,0,0:0:0:0:
232,32,217061,2,0,P|216:128|244:200,1,132.999995941162
224,240,217318,1,0,0:0:0:0:
224,240,217404,2,0,B|172:260|172:260|60:248,1,132.999995941162
332,100,217747,2,0,B|376:88|376:88|472:112,1,132.999995941162
144,164,218090,6,0,P|136:268|160:344,1,132.999995941162
316,100,218433,1,0,0:0:0:0:
40,156,218604,1,0,0:0:0:0:
244,24,218776,2,0,P|252:128|240:208,1,132.999995941162
476,216,219118,1,0,0:0:0:0:
152,104,219290,1,0,0:0:0:0:
390,348,219461,6,0,P|391:282|384:216,1,132.999995941162
276,120,219804,1,0,0:0:0:0:
208,260,219976,1,0,0:0:0:0:
208,260,220061,1,0,0:0:0:0:
208,260,220147,1,0,0:0:0:0:
144,84,220318,1,0,0:0:0:0:
108,348,220490,2,0,P|40:344|4:268,1,132.999995941162
452,120,220833,5,0,0:0:0:0:
60,264,221004,1,0,0:0:0:0:
488,204,221176,1,0,0:0:0:0:
24,180,221347,1,0,0:0:0:0:
316,40,221518,1,0,0:0:0:0:
196,344,221690,1,0,0:0:0:0:
200,12,221861,1,0,0:0:0:0:
324,368,222033,1,0,0:0:0:0:
256,184,222204,5,0,0:0:0:0:
436,80,222376,1,0,0:0:0:0:
112,124,222547,1,0,0:0:0:0:
324,16,222718,1,0,0:0:0:0:
344,72,222804,1,0,0:0:0:0:
356,132,222890,1,0,0:0:0:0:
360,192,222976,1,0,0:0:0:0:
360,252,223061,1,0,0:0:0:0:
180,296,223233,1,0,0:0:0:0:
208,104,223404,1,0,0:0:0:0:
272,344,223576,5,0,0:0:0:0:
276,44,223747,1,0,0:0:0:0:
168,312,223918,1,0,0:0:0:0:
380,36,224090,1,0,0:0:0:0:
120,208,224261,1,0,0:0:0:0:
456,112,224433,1,0,0:0:0:0:
280,240,224604,1,0,0:0:0:0:
256,24,224776,1,0,0:0:0:0:
284,264,224947,5,0,0:0:0:0:
96,108,225118,1,0,0:0:0:0:
288,284,225290,1,0,0:0:0:0:
404,24,225461,1,0,0:0:0:0:
292,308,225633,1,0,0:0:0:0:
72,100,225804,1,0,0:0:0:0:
312,344,225976,1,0,0:0:0:0:
312,344,226061,1,0,0:0:0:0:
312,344,226147,1,0,0:0:0:0:
312,344,226233,1,0,0:0:0:0:
312,344,226318,6,0,B|356:352|356:352|392:340|392:340|440:352|480:340|508:300,1,199.499993911743
500,224,226661,2,0,P|504:152|464:48,1,132.999995941162
328,184,227004,2,0,P|340:300|360:348,1,132.999995941162
348,40,227347,1,0,0:0:0:0:
144,92,227518,2,0,P|164:208|180:304,1,199.499993911743
184,312,227861,1,0,0:0:0:0:
304,184,228033,2,0,P|384:180|424:224,1,132.999995941162
488,100,228290,1,0,0:0:0:0:
488,100,228376,2,0,L|472:264,1,132.999995941162
304,336,228718,1,0,0:0:0:0:
248,356,228804,1,0,0:0:0:0:
188,344,228890,1,0,0:0:0:0:
128,352,228976,1,0,0:0:0:0:
68,340,229061,5,0,0:0:0:0:
168,184,229233,1,0,0:0:0:0:
48,352,229404,1,0,0:0:0:0:
84,116,229576,1,0,0:0:0:0:
228,264,229747,1,0,0:0:0:0:
336,140,229918,1,0,0:0:0:0:
80,232,230090,1,0,0:0:0:0:
144,24,230261,2,0,L|176:120,1,66.4999979705811
184,172,230433,6,0,P|180:64|172:4,1,132.999995941162
20,104,230776,2,0,P|120:116|188:72,1,132.999995941162
304,24,231118,1,0,0:0:0:0:
324,80,231204,1,0,0:0:0:0:
328,140,231290,1,0,0:0:0:0:
312,196,231376,1,0,0:0:0:0:
272,240,231461,1,0,0:0:0:0:
256,300,231547,1,0,0:0:0:0:
284,352,231633,1,0,0:0:0:0:
340,372,231718,1,0,0:0:0:0:
396,352,231804,5,0,0:0:0:0:
180,120,231976,1,0,0:0:0:0:
404,232,232147,1,0,0:0:0:0:
144,288,232318,1,0,0:0:0:0:
328,376,232490,2,0,B|336:324|336:324|324:224,1,132.999995941162
280,176,232747,1,0,0:0:0:0:
280,176,232833,2,0,P|376:188|428:144,1,132.999995941162
484,96,233090,1,0,0:0:0:0:
484,96,233176,2,0,B|464:136|464:136|488:176|476:228|476:228|464:264|480:304,1,199.499993911743
416,356,233518,6,0,P|328:332|280:364,1,132.999995941162
96,288,233861,1,0,0:0:0:0:
52,104,234033,1,0,0:0:0:0:
292,36,234204,1,0,0:0:0:0:
184,244,234376,2,0,P|144:248|52:224,1,132.999995941162
168,56,234718,1,0,0:0:0:0:
320,140,234890,1,0,0:0:0:0:
332,200,234976,1,0,0:0:0:0:
332,260,235061,1,0,0:0:0:0:
328,320,235147,1,0,0:0:0:0:
316,380,235233,2,0,P|344:272|388:216,1,132.999995941162
456,152,235576,2,0,B|400:160|400:160|320:140|320:140|240:152,1,199.499993911743
184,168,235918,5,0,0:0:0:0:
44,92,236090,1,0,0:0:0:0:
208,160,236261,2,0,P|192:248|156:288,1,132.999995941162
412,324,236604,2,0,P|400:244|424:176,1,132.999995941162
320,100,236947,1,0,0:0:0:0:
292,348,237118,1,0,0:0:0:0:
336,104,237290,5,0,0:0:0:0:
184,280,237461,1,0,0:0:0:0:
240,28,237633,1,0,0:0:0:0:
308,248,237804,1,0,0:0:0:0:
308,248,237890,1,0,0:0:0:0:
308,248,237976,1,0,0:0:0:0:
380,12,238147,1,0,0:0:0:0:
440,140,238318,2,0,L|436:232,1,66.4999979705811
400,308,238490,2,0,P|360:316|316:308,1,66.4999979705811
244,272,238661,6,0,L|84:292,1,132.999995941162
328,48,239004,1,0,0:0:0:0:
220,352,239176,1,0,0:0:0:0:
120,136,239347,2,0,P|112:48|136:0,1,132.999995941162
344,40,239690,1,0,0:0:0:0:
368,312,239861,1,0,0:0:0:0:
112,328,240033,6,0,P|84:240|88:180,1,132.999995941162
464,116,240376,1,0,0:0:0:0:
256,192,240547,2,0,L|276:336,1,132.999995941162
84,132,240890,1,0,0:0:0:0:
428,252,241061,1,0,0:0:0:0:
