osu file format v14

[General]
AudioFilename: Kasane TetoFIRSTUTAU Cover.mp3
AudioLeadIn: 0
PreviewTime: 63857
Countdown: 0
SampleSet: Normal
StackLeniency: 0.7
Mode: 1
LetterboxInBreaks: 0
WidescreenStoryboard: 0

[Editor]
Bookmarks: 18886
DistanceSpacing: 0.9
BeatDivisor: 2
GridSize: 4
TimelineZoom: 1

[Metadata]
Title:First
TitleUnicode:First
Artist:Cillia
ArtistUnicode:Cillia
Creator:defused bomb
Version:Futsuu
Source:
Tags:Vocaloid Teto Kasane Ilikecheese
BeatmapID:533897
BeatmapSetID:208862

[Difficulty]
HPDrainRate:4
CircleSize:5
OverallDifficulty:4
ApproachRate:5
SliderMultiplier:1.2
SliderTickRate:1

[Events]
//Background and Video events
0,0,"first teto.jpg",0,0
//Break Periods
//Storyboard Layer 0 (Background)
//Storyboard Layer 1 (Fail)
//Storyboard Layer 2 (Pass)
//Storyboard Layer 3 (Foreground)
//Storyboard Sound Samples

[TimingPoints]
19015,315.789473684211,4,1,0,70,1,0
74593,-100,4,1,0,70,0,1
94804,-100,4,1,0,70,0,0
125120,-100,4,1,0,70,0,1
145330,-100,4,1,0,70,0,0
155436,-100,4,1,0,70,0,1
175646,-100,4,1,0,70,0,0

[HitObjects]
256,192,19014,5,12,0:0:0:0:
256,192,19330,1,0,0:0:0:0:
256,192,19962,1,0,0:0:0:0:
256,192,20593,1,0,0:0:0:0:
256,192,21225,1,0,0:0:0:0:
256,192,21857,1,0,0:0:0:0:
256,192,22488,1,0,0:0:0:0:
256,192,23120,1,0,0:0:0:0:
256,192,23751,1,0,0:0:0:0:
256,192,24067,1,12,0:0:0:0:
256,192,24383,1,0,0:0:0:0:
256,192,25014,1,0,0:0:0:0:
256,192,25646,1,0,0:0:0:0:
256,192,26278,1,0,0:0:0:0:
256,192,26909,1,0,0:0:0:0:
256,192,27541,1,0,0:0:0:0:
256,192,28172,1,0,0:0:0:0:
256,192,28804,1,0,0:0:0:0:
256,192,29120,1,12,0:0:0:0:
256,192,29436,1,0,0:0:0:0:
256,192,30067,1,0,0:0:0:0:
256,192,30699,1,0,0:0:0:0:
256,192,31330,1,0,0:0:0:0:
256,192,31962,1,0,0:0:0:0:
256,192,32593,1,0,0:0:0:0:
256,192,33225,1,0,0:0:0:0:
256,192,33857,1,0,0:0:0:0:
256,192,34172,1,12,0:0:0:0:
256,192,34488,1,0,0:0:0:0:
256,192,35120,1,0,0:0:0:0:
256,192,35751,1,0,0:0:0:0:
256,192,36383,1,0,0:0:0:0:
256,192,37015,1,0,0:0:0:0:
256,192,37646,1,0,0:0:0:0:
256,192,38278,1,0,0:0:0:0:
256,192,38909,1,12,0:0:0:0:
256,192,39225,1,4,0:0:0:0:
256,192,39541,1,8,0:0:0:0:
256,192,40172,1,8,0:0:0:0:
256,192,40804,1,8,0:0:0:0:
256,192,41436,1,8,0:0:0:0:
256,192,41751,1,0,0:0:0:0:
256,192,42067,1,8,0:0:0:0:
256,192,42699,1,8,0:0:0:0:
256,192,43015,1,8,0:0:0:0:
256,192,43330,1,0,0:0:0:0:
256,192,43646,1,8,0:0:0:0:
256,192,44278,1,4,0:0:0:0:
256,192,44593,1,8,0:0:0:0:
256,192,45225,1,8,0:0:0:0:
256,192,45857,1,8,0:0:0:0:
256,192,46488,1,8,0:0:0:0:
256,192,46804,1,0,0:0:0:0:
256,192,46962,1,0,0:0:0:0:
256,192,47120,1,8,0:0:0:0:
256,192,47751,1,8,0:0:0:0:
256,192,48383,1,8,0:0:0:0:
256,192,48699,1,0,0:0:0:0:
256,192,49015,1,8,0:0:0:0:
256,192,49330,1,0,0:0:0:0:
256,192,49488,1,0,0:0:0:0:
256,192,49646,1,8,0:0:0:0:
256,192,50278,1,8,0:0:0:0:
256,192,50909,1,8,0:0:0:0:
256,192,51541,1,8,0:0:0:0:
256,192,51857,1,0,0:0:0:0:
256,192,52015,1,0,0:0:0:0:
256,192,52172,1,8,0:0:0:0:
256,192,52804,1,8,0:0:0:0:
256,192,53436,1,8,0:0:0:0:
256,192,53751,1,0,0:0:0:0:
256,192,53909,1,0,0:0:0:0:
256,192,54067,1,0,0:0:0:0:
256,192,54383,1,4,0:0:0:0:
256,192,54699,1,8,0:0:0:0:
256,192,55330,1,8,0:0:0:0:
256,192,55962,1,8,0:0:0:0:
256,192,56593,1,8,0:0:0:0:
256,192,56909,1,0,0:0:0:0:
256,192,57067,1,0,0:0:0:0:
256,192,57225,1,8,0:0:0:0:
256,192,57857,1,8,0:0:0:0:
256,192,58488,1,8,0:0:0:0:
256,192,59120,1,8,0:0:0:0:
256,192,59436,1,4,0:0:0:0:
256,192,59751,1,8,0:0:0:0:
256,192,60383,1,8,0:0:0:0:
256,192,60699,1,0,0:0:0:0:
256,192,61015,1,8,0:0:0:0:
256,192,61646,1,8,0:0:0:0:
256,192,61962,1,0,0:0:0:0:
256,192,62120,1,0,0:0:0:0:
256,192,62278,1,8,0:0:0:0:
256,192,62909,1,8,0:0:0:0:
256,192,63541,1,8,0:0:0:0:
256,192,63857,1,0,0:0:0:0:
256,192,64172,1,8,0:0:0:0:
256,192,64488,1,4,0:0:0:0:
256,192,64804,1,0,0:0:0:0:
256,192,64962,1,0,0:0:0:0:
256,192,65120,1,8,0:0:0:0:
256,192,65436,1,8,0:0:0:0:
256,192,66067,1,0,0:0:0:0:
256,192,66383,1,8,0:0:0:0:
256,192,66699,1,8,0:0:0:0:
256,192,67015,1,0,0:0:0:0:
256,192,67330,1,0,0:0:0:0:
256,192,67488,1,0,0:0:0:0:
256,192,67646,1,8,0:0:0:0:
256,192,67962,1,8,0:0:0:0:
256,192,68593,1,0,0:0:0:0:
256,192,68909,1,8,0:0:0:0:
256,192,69225,1,0,0:0:0:0:
256,192,69541,1,4,0:0:0:0:
256,192,69857,1,0,0:0:0:0:
256,192,70172,1,8,0:0:0:0:
256,192,70488,1,8,0:0:0:0:
256,192,71120,1,0,0:0:0:0:
256,192,71436,1,8,0:0:0:0:
256,192,71751,1,8,0:0:0:0:
256,192,72067,1,0,0:0:0:0:
256,192,72699,1,0,0:0:0:0:
256,192,73330,1,8,0:0:0:0:
256,192,73646,1,0,0:0:0:0:
256,192,73962,1,8,0:0:0:0:
256,192,74436,1,12,0:0:0:0:
256,192,74909,1,8,0:0:0:0:
256,192,75225,1,0,0:0:0:0:
256,192,75383,1,0,0:0:0:0:
256,192,75541,1,8,0:0:0:0:
256,192,76173,1,8,0:0:0:0:
256,192,76488,1,0,0:0:0:0:
256,192,76804,1,8,0:0:0:0:
256,192,76962,1,0,0:0:0:0:
256,192,77436,1,8,0:0:0:0:
256,192,77751,1,0,0:0:0:0:
252,192,78067,1,8,0:0:0:0:
252,192,78225,1,0,0:0:0:0:
256,192,78699,1,8,0:0:0:0:
256,192,79015,1,0,0:0:0:0:
256,192,79330,1,8,0:0:0:0:
256,192,79488,1,0,0:0:0:0:
256,192,79962,1,8,0:0:0:0:
256,192,80278,1,0,0:0:0:0:
256,192,80593,1,8,0:0:0:0:
256,192,80909,1,0,0:0:0:0:
256,192,81225,1,8,0:0:0:0:
256,192,81541,1,0,0:0:0:0:
256,192,81699,1,0,0:0:0:0:
256,192,81857,1,8,0:0:0:0:
256,192,82015,1,0,0:0:0:0:
256,192,82488,1,8,0:0:0:0:
256,192,82804,1,0,0:0:0:0:
256,192,83120,1,8,0:0:0:0:
256,192,83751,1,8,0:0:0:0:
256,192,84067,1,8,0:0:0:0:
256,192,84383,1,8,0:0:0:0:
256,192,84541,1,0,0:0:0:0:
256,192,85015,1,8,0:0:0:0:
256,192,85330,1,0,0:0:0:0:
256,192,85646,1,8,0:0:0:0:
256,192,86278,1,8,0:0:0:0:
256,192,86593,1,0,0:0:0:0:
256,192,86751,1,0,0:0:0:0:
256,192,86909,1,8,0:0:0:0:
256,192,87541,1,8,0:0:0:0:
256,192,87857,1,0,0:0:0:0:
256,192,88015,1,0,0:0:0:0:
256,192,88172,1,8,0:0:0:0:
256,192,88330,1,0,0:0:0:0:
256,192,88804,1,8,0:0:0:0:
256,192,89120,1,0,0:0:0:0:
256,192,89278,1,0,0:0:0:0:
256,192,89436,1,8,0:0:0:0:
256,192,89593,1,0,0:0:0:0:
256,192,90067,1,8,0:0:0:0:
256,192,90383,1,0,0:0:0:0:
256,192,90699,1,8,0:0:0:0:
256,192,91015,1,0,0:0:0:0:
256,192,91330,1,8,0:0:0:0:
256,192,91646,1,0,0:0:0:0:
256,192,91804,1,0,0:0:0:0:
256,192,91962,1,8,0:0:0:0:
256,192,92120,1,0,0:0:0:0:
256,192,92593,1,8,0:0:0:0:
256,192,92909,1,0,0:0:0:0:
256,192,93225,1,8,0:0:0:0:
256,192,93541,1,0,0:0:0:0:
256,192,93699,1,0,0:0:0:0:
256,192,93857,1,8,0:0:0:0:
256,192,94172,1,0,0:0:0:0:
256,192,94330,1,0,0:0:0:0:
256,192,94488,1,8,0:0:0:0:
256,192,94646,1,8,0:0:0:0:
256,192,94804,1,0,0:0:0:0:
256,192,95120,1,8,0:0:0:0:
256,192,95751,1,8,0:0:0:0:
256,192,96383,1,8,0:0:0:0:
256,192,97015,1,8,0:0:0:0:
256,192,97330,1,0,0:0:0:0:
256,192,97488,1,0,0:0:0:0:
256,192,97646,1,8,0:0:0:0:
256,192,98278,1,8,0:0:0:0:
256,192,98593,1,0,0:0:0:0:
256,192,98909,1,8,0:0:0:0:
256,192,99541,1,8,0:0:0:0:
256,192,99857,1,4,0:0:0:0:
256,192,100172,1,8,0:0:0:0:
256,192,100804,1,8,0:0:0:0:
256,192,101120,1,0,0:0:0:0:
256,192,101436,1,8,0:0:0:0:
256,192,102067,1,8,0:0:0:0:
256,192,102383,1,0,0:0:0:0:
256,192,102541,1,0,0:0:0:0:
256,192,102699,1,8,0:0:0:0:
256,192,103330,1,8,0:0:0:0:
256,192,103962,1,8,0:0:0:0:
256,192,104278,1,0,0:0:0:0:
256,192,104593,1,12,0:0:0:0:
256,192,104909,1,0,0:0:0:0:
256,192,105067,1,0,0:0:0:0:
256,192,105225,1,8,0:0:0:0:
256,192,105857,1,8,0:0:0:0:
256,192,106488,1,8,0:0:0:0:
256,192,107120,1,8,0:0:0:0:
256,192,107436,1,0,0:0:0:0:
256,192,107593,1,0,0:0:0:0:
256,192,107751,1,8,0:0:0:0:
256,192,108383,1,8,0:0:0:0:
256,192,108857,1,0,0:0:0:0:
256,192,109015,1,8,0:0:0:0:
256,192,109646,1,8,0:0:0:0:
256,192,109962,1,0,0:0:0:0:
256,192,110120,1,0,0:0:0:0:
256,192,110278,1,8,0:0:0:0:
256,192,110909,1,8,0:0:0:0:
256,192,111383,1,0,0:0:0:0:
256,192,111541,1,8,0:0:0:0:
256,192,112172,1,8,0:0:0:0:
256,192,112488,1,0,0:0:0:0:
256,192,112646,1,0,0:0:0:0:
256,192,112804,1,8,0:0:0:0:
256,192,113436,1,8,0:0:0:0:
256,192,114067,1,8,0:0:0:0:
256,192,114383,1,8,0:0:0:0:
256,192,114541,1,0,0:0:0:0:
256,192,114699,1,8,0:0:0:0:
256,192,115015,1,4,0:0:0:0:
256,192,115330,1,0,0:0:0:0:
256,192,115488,1,0,0:0:0:0:
256,192,115646,1,8,0:0:0:0:
256,192,115962,1,8,0:0:0:0:
256,192,116593,1,0,0:0:0:0:
256,192,116909,1,8,0:0:0:0:
256,192,117225,1,8,0:0:0:0:
256,192,117541,1,0,0:0:0:0:
256,192,117857,1,0,0:0:0:0:
256,192,118172,1,8,0:0:0:0:
256,192,118488,1,8,0:0:0:0:
256,192,119120,1,0,0:0:0:0:
256,192,119436,1,8,0:0:0:0:
256,192,119751,1,0,0:0:0:0:
256,192,120067,1,4,0:0:0:0:
256,192,120383,1,0,0:0:0:0:
256,192,120699,1,8,0:0:0:0:
256,192,121015,1,8,0:0:0:0:
256,192,121646,1,0,0:0:0:0:
256,192,121962,1,8,0:0:0:0:
256,192,122278,1,0,0:0:0:0:
256,192,122593,1,8,0:0:0:0:
256,192,123225,1,0,0:0:0:0:
256,192,123857,1,0,0:0:0:0:
256,192,124172,1,0,0:0:0:0:
256,192,124488,1,8,0:0:0:0:
256,192,124962,1,12,0:0:0:0:
256,192,125436,1,8,0:0:0:0:
256,192,125751,1,0,0:0:0:0:
256,192,126067,1,8,0:0:0:0:
256,192,126383,1,0,0:0:0:0:
256,192,126699,1,8,0:0:0:0:
256,192,127015,1,0,0:0:0:0:
256,192,127172,1,0,0:0:0:0:
256,192,127330,1,8,0:0:0:0:
256,192,127488,1,0,0:0:0:0:
256,192,127962,1,8,0:0:0:0:
256,192,128278,1,0,0:0:0:0:
256,192,128593,1,8,0:0:0:0:
256,192,128751,1,0,0:0:0:0:
256,192,129225,1,8,0:0:0:0:
256,192,129541,1,0,0:0:0:0:
256,192,129857,1,8,0:0:0:0:
256,192,130488,1,8,0:0:0:0:
256,192,130804,1,0,0:0:0:0:
256,192,131120,1,8,0:0:0:0:
256,192,131436,1,0,0:0:0:0:
256,192,131751,1,8,0:0:0:0:
256,192,132067,1,0,0:0:0:0:
256,192,132225,1,0,0:0:0:0:
256,192,132383,1,8,0:0:0:0:
256,192,132541,1,0,0:0:0:0:
256,192,133015,1,8,0:0:0:0:
256,192,133330,1,0,0:0:0:0:
256,192,133646,1,0,0:0:0:0:
256,192,133804,1,8,0:0:0:0:
256,192,134278,1,0,0:0:0:0:
256,192,134593,1,8,0:0:0:0:
256,192,134909,1,0,0:0:0:0:
256,192,135067,1,8,0:0:0:0:
256,192,135541,1,8,0:0:0:0:
256,192,135857,1,0,0:0:0:0:
256,192,136172,1,8,0:0:0:0:
256,192,136804,1,8,0:0:0:0:
256,192,137120,1,0,0:0:0:0:
256,192,137436,1,8,0:0:0:0:
256,192,137593,1,0,0:0:0:0:
256,192,138067,1,0,0:0:0:0:
256,192,138383,1,8,0:0:0:0:
256,192,138699,1,0,0:0:0:0:
256,192,138857,1,8,0:0:0:0:
256,192,139330,1,8,0:0:0:0:
256,192,139646,1,0,0:0:0:0:
256,192,139804,1,0,0:0:0:0:
256,192,139962,1,8,0:0:0:0:
256,192,140120,1,0,0:0:0:0:
256,192,140593,1,8,0:0:0:0:
256,192,140909,1,0,0:0:0:0:
256,192,141225,1,8,0:0:0:0:
256,192,141541,1,0,0:0:0:0:
256,192,141857,1,8,0:0:0:0:
256,192,142172,1,0,0:0:0:0:
256,192,142330,1,0,0:0:0:0:
256,192,142488,1,8,0:0:0:0:
256,192,142646,1,0,0:0:0:0:
256,192,143120,1,8,0:0:0:0:
256,192,143436,1,0,0:0:0:0:
256,192,143751,1,8,0:0:0:0:
256,192,144067,1,0,0:0:0:0:
256,192,144383,1,8,0:0:0:0:
256,192,144700,1,0,0:0:0:0:
256,192,144858,1,0,0:0:0:0:
256,192,145015,1,8,0:0:0:0:
256,192,145173,1,8,0:0:0:0:
256,192,145331,1,4,0:0:0:0:
256,192,145646,1,0,0:0:0:0:
256,192,145962,1,8,0:0:0:0:
256,192,146593,1,8,0:0:0:0:
256,192,147225,1,8,0:0:0:0:
256,196,147857,5,0,0:0:0:0:
256,196,148172,1,0,0:0:0:0:
256,196,148488,1,8,0:0:0:0:
256,196,149120,1,8,0:0:0:0:
256,196,149751,1,8,0:0:0:0:
256,192,150383,5,8,0:0:0:0:
256,192,150699,1,0,0:0:0:0:
256,192,151015,1,0,0:0:0:0:
256,192,151330,1,0,0:0:0:0:
256,192,151646,1,8,0:0:0:0:
256,192,151962,1,0,0:0:0:0:
256,192,152278,1,0,0:0:0:0:
256,192,152593,1,0,0:0:0:0:
256,192,152909,1,8,0:0:0:0:
256,192,153225,1,0,0:0:0:0:
256,192,153541,1,8,0:0:0:0:
256,192,153857,1,0,0:0:0:0:
256,192,154172,1,8,0:0:0:0:
256,192,154488,1,8,0:0:0:0:
256,192,154804,1,8,0:0:0:0:
256,192,155278,1,12,0:0:0:0:
256,192,155751,1,0,0:0:0:0:
256,192,155909,1,0,0:0:0:0:
256,192,156067,1,8,0:0:0:0:
256,192,156383,1,0,0:0:0:0:
256,192,156857,1,0,0:0:0:0:
256,192,157015,1,8,0:0:0:0:
256,192,157330,1,0,0:0:0:0:
256,192,157646,1,8,0:0:0:0:
256,192,157804,1,0,0:0:0:0:
256,192,158278,1,0,0:0:0:0:
256,192,158593,1,8,0:0:0:0:
256,192,158909,1,0,0:0:0:0:
256,192,159067,1,0,0:0:0:0:
256,192,159541,1,8,0:0:0:0:
256,192,159857,1,0,0:0:0:0:
256,192,160172,1,8,0:0:0:0:
256,192,160646,1,0,0:0:0:0:
256,192,160804,1,8,0:0:0:0:
256,192,161120,1,0,0:0:0:0:
256,192,161436,1,8,0:0:0:0:
256,192,161909,1,0,0:0:0:0:
256,192,162067,1,8,0:0:0:0:
256,192,162383,1,0,0:0:0:0:
256,192,162541,1,0,0:0:0:0:
256,192,162699,1,8,0:0:0:0:
256,192,162857,1,0,0:0:0:0:
256,192,163330,1,8,0:0:0:0:
256,192,163646,1,0,0:0:0:0:
256,192,163962,1,8,0:0:0:0:
256,192,164120,1,0,0:0:0:0:
256,192,164593,1,8,0:0:0:0:
256,192,164909,1,8,0:0:0:0:
256,192,165225,1,0,0:0:0:0:
256,192,165383,1,8,0:0:0:0:
256,192,165857,1,8,0:0:0:0:
256,192,166172,1,0,0:0:0:0:
256,192,166488,1,8,0:0:0:0:
256,192,166962,1,0,0:0:0:0:
256,192,167120,1,8,0:0:0:0:
256,192,167436,1,0,0:0:0:0:
256,192,167751,1,8,0:0:0:0:
256,192,168383,1,8,0:0:0:0:
256,192,168699,1,0,0:0:0:0:
256,192,169015,1,8,0:0:0:0:
256,192,169172,1,0,0:0:0:0:
256,192,169646,1,8,0:0:0:0:
256,192,169962,1,0,0:0:0:0:
256,192,170278,1,8,0:0:0:0:
256,192,170436,1,0,0:0:0:0:
256,192,170909,1,8,0:0:0:0:
256,192,171225,1,0,0:0:0:0:
256,192,171541,1,8,0:0:0:0:
256,192,171857,1,0,0:0:0:0:
256,192,172172,1,8,0:0:0:0:
256,192,172488,1,0,0:0:0:0:
256,192,172646,1,0,0:0:0:0:
256,192,172804,1,8,0:0:0:0:
256,192,172962,1,0,0:0:0:0:
256,192,173278,1,0,0:0:0:0:
256,192,173436,1,8,0:0:0:0:
256,192,173751,1,0,0:0:0:0:
256,192,174067,1,8,0:0:0:0:
256,192,174383,1,0,0:0:0:0:
256,192,174699,1,8,0:0:0:0:
256,192,175015,1,0,0:0:0:0:
256,192,175172,1,0,0:0:0:0:
256,192,175330,1,8,0:0:0:0:
256,192,175488,1,8,0:0:0:0:
256,192,175646,1,4,0:0:0:0:
256,192,176120,1,0,0:0:0:0:
256,192,176436,1,0,0:0:0:0:
256,192,176593,1,8,0:0:0:0:
256,192,177225,1,0,0:0:0:0:
256,192,177541,1,8,0:0:0:0:
256,192,177699,1,0,0:0:0:0:
256,192,177857,1,0,0:0:0:0:
256,192,178015,1,8,0:0:0:0:
256,192,178172,1,0,0:0:0:0:
256,192,178646,1,0,0:0:0:0:
256,192,179120,1,12,0:0:0:0:
