osu file format v12

[General]
AudioFilename: wuxuanlan.mp3
AudioLeadIn: 1000
PreviewTime: 16825
Countdown: 0
SampleSet: None
StackLeniency: 0.5
Mode: 0
LetterboxInBreaks: 1
WidescreenStoryboard: 0

[Editor]
Bookmarks: 51489,62924
DistanceSpacing: 1
BeatDivisor: 4
GridSize: 4

[Metadata]
Title:Wu Xuan Lan
TitleUnicode:Wu Xuan Lan
Artist:Ci Mei Gui
ArtistUnicode:Ci Mei Gui
Creator:OrangeNeKo
Version:wkyik
Source:MuziBox
Tags:IGS wantuole OraneNeKo Zweib Left 4 Dead Osu_Cc1Y7 XiaoP_GJ Angelina_Rocca S I N N -WhiteNEKO- __Ag Melt Nunnally Lamperouge ts8zs Kawaiwkyik
BeatmapID:307234
BeatmapSetID:93706

[Difficulty]
HPDrainRate:7
CircleSize:4
OverallDifficulty:7
ApproachRate:9
SliderMultiplier:1.8
SliderTickRate:2

[Events]
//Background and Video events
0,0,"bg.jpg",0,0
//Break Periods
2,51689,62324
//Storyboard Layer 0 (Background)
//Storyboard Layer 1 (Fail)
//Storyboard Layer 2 (Pass)
//Storyboard Layer 3 (Foreground)
//Storyboard Sound Samples
//Background Colour Transformations
3,100,163,162,255

[TimingPoints]
34,357.330030015723,4,2,2,60,1,0
17185,-100,4,2,2,60,0,1
40054,-100,4,2,2,60,0,0
74358,-100,4,2,2,60,0,1
85793,-100,4,2,2,60,0,0
97138,-100,4,2,2,60,0,0

[Colours]
Combo1 : 255,128,255
Combo2 : 255,255,128
Combo3 : 0,255,0
Combo4 : 0,0,255

[HitObjects]
48,96,1463,1,4,0:0:0:0:
172,76,1641,1,0,0:0:0:0:
264,180,1820,1,8,0:0:0:0:
140,160,1998,1,0,0:0:0:0:
48,264,2177,1,0,0:0:0:0:
172,244,2355,1,0,0:0:0:0:
260,348,2535,1,8,0:0:0:0:
136,328,2713,1,0,0:0:0:0:
260,348,2892,5,0,0:0:0:0:
260,348,2981,1,0,0:0:0:0:
260,348,3071,2,0,P|300:352|352:348,1,90,0|8,0:0|0:0,0:0:0:0:
416,288,3428,1,0,0:0:0:0:
360,216,3607,1,0,0:0:0:0:
432,32,3785,1,0,0:0:0:0:
420,172,3964,1,8,0:0:0:0:
368,72,4143,1,0,0:0:0:0:
420,172,4321,6,0,P|432:220|428:288,1,90
267,177,4679,2,0,P|255:129|259:61,1,90,8|0,0:0|0:0,0:0:0:0:
338,120,5036,1,0,0:0:0:0:
166,146,5215,1,0,0:0:0:0:
166,146,5304,1,0,0:0:0:0:
166,146,5393,1,8,0:0:0:0:
338,120,5572,1,0,0:0:0:0:
390,273,5751,1,0,0:0:0:0:
338,120,5929,2,0,B|354:84|354:44|354:44|367:30,1,90,0|8,0:0|0:0,0:0:0:0:
228,106,6287,2,0,B|212:142|212:182|212:182|199:196,2,90
138,92,6823,1,8,0:0:0:0:
338,120,7001,1,0,0:0:0:0:
390,273,7180,5,0,0:0:0:0:
390,273,7269,1,0,0:0:0:0:
390,273,7359,1,0,0:0:0:0:
210,257,7537,1,8,0:0:0:0:
42,312,7716,2,0,P|94:311|130:299,2,90
75,228,8252,1,8,0:0:0:0:
75,228,8431,1,0,0:0:0:0:
60,144,8609,5,0,0:0:0:0:
145,27,8788,1,0,0:0:0:0:
145,172,8967,1,8,0:0:0:0:
60,54,9145,1,0,0:0:0:0:
198,99,9324,1,0,0:0:0:0:
60,144,9503,1,0,0:0:0:0:
145,172,9681,1,8,0:0:0:0:
60,54,9860,1,0,0:0:0:0:
145,27,10039,6,0,P|194:11|250:25,1,90
293,81,10396,2,0,L|412:93,1,90,8|0,0:0|0:0,0:0:0:0:
464,51,10753,1,0,0:0:0:0:
412,223,10932,1,0,0:0:0:0:
378,45,11111,1,8,0:0:0:0:
322,166,11289,2,0,P|312:200|311:269,1,90
358,330,11647,5,0,0:0:0:0:
402,337,11736,1,0,0:0:0:0:
446,331,11825,1,8,0:0:0:0:
274,280,12004,1,0,0:0:0:0:
230,273,12093,1,0,0:0:0:0:
186,279,12182,1,0,0:0:0:0:
113,332,12361,1,0,0:0:0:0:
86,153,12540,1,8,0:0:0:0:
40,270,12719,1,0,0:0:0:0:
167,143,12897,5,0,0:0:0:0:
209,158,12987,1,0,0:0:0:0:
252,148,13076,1,0,0:0:0:0:
280,112,13165,1,0,0:0:0:0:
301,151,13255,5,0,0:0:0:0:
324,138,13344,1,0,0:0:0:0:
350,134,13433,1,0,0:0:0:0:
376,140,13523,1,0,0:0:0:0:
369,184,13612,5,0,0:0:0:0:
404,211,13701,1,0,0:0:0:0:
449,214,13791,1,0,0:0:0:0:
490,196,13880,1,0,0:0:0:0:
504,153,13969,6,0,L|495:98,1,45
364,62,14148,2,0,L|371:106,1,45
256,192,14327,12,0,16471,0:0:0:0:
143,88,16828,6,0,L|82:101,1,45
211,154,17007,2,0,L|255:144,1,45,0|0,0:0|0:0,0:0:0:0:
323,93,17185,5,4,0:0:0:0:
404,253,17364,1,0,0:0:0:0:
423,128,17543,1,12,0:0:0:0:
319,199,17721,1,0,0:0:0:0:
323,93,17900,5,4,0:0:0:0:
202,130,18079,1,0,0:0:0:0:
241,248,18257,1,8,0:0:0:0:
362,211,18436,1,0,0:0:0:0:
323,93,18615,5,0,0:0:0:0:
284,171,18793,1,0,0:0:0:0:
105,227,18972,2,0,L|154:259,1,45,8|0,0:0|0:0,0:0:0:0:
96,135,19151,2,0,L|28:144,1,45
95,40,19329,2,0,P|144:46|229:37,1,135
274,33,19687,2,0,L|300:127,1,90,8|0,0:0|0:0,0:0:0:0:
374,168,20044,5,4,0:0:0:0:
457,202,20223,1,0,0:0:0:0:
388,71,20401,1,12,0:0:0:0:
469,287,20580,1,0,0:0:0:0:
350,232,20759,5,4,0:0:0:0:
272,333,20937,1,0,0:0:0:0:
250,177,21116,1,8,0:0:0:0:
174,226,21295,1,0,0:0:0:0:
170,136,21473,5,0,0:0:0:0:
103,42,21652,1,0,0:0:0:0:
174,226,21831,1,8,0:0:0:0:
235,37,22009,1,0,0:0:0:0:
292,137,22188,2,0,P|311:153|384:163,1,90
413,144,22456,1,0,0:0:0:0:
413,188,22545,2,0,P|428:219|424:282,1,90,8|0,0:0|0:0,0:0:0:0:
399,309,22813,1,0,0:0:0:0:
353,310,22903,6,0,P|308:304|243:311,1,90,4|0,0:0|0:0,0:0:0:0:
183,348,23260,1,12,0:0:0:0:
159,179,23439,1,0,0:0:0:0:
102,248,23617,2,0,P|148:265|200:260,1,90,4|0,0:0|0:0,0:0:0:0:
238,187,23975,1,8,0:0:0:0:
257,320,24153,1,0,0:0:0:0:
238,187,24332,6,0,L|250:85,1,90
376,71,24689,2,0,L|388:138,1,45,8|0,0:0|0:0,0:0:0:0:
479,148,24868,2,0,L|469:209,1,45
372,224,25047,2,0,P|364:260|372:332,1,90
276,316,25404,1,8,0:0:0:0:
186,326,25583,1,0,0:0:0:0:
176,236,25761,6,0,L|159:133,1,90,4|0,0:0|0:0,0:0:0:0:
38,253,26119,2,0,L|55:356,1,90,12|0,0:0|0:0,0:0:0:0:
277,178,26476,1,4,0:0:0:0:
286,88,26655,1,0,0:0:0:0:
286,88,26744,1,0,0:0:0:0:
286,88,26833,1,8,0:0:0:0:
277,178,27012,1,0,0:0:0:0:
364,197,27191,5,0,0:0:0:0:
477,114,27369,1,0,0:0:0:0:
429,272,27548,1,8,0:0:0:0:
352,106,27727,1,0,0:0:0:0:
276,154,27905,1,0,0:0:0:0:
187,138,28084,1,8,0:0:0:0:
429,272,28263,1,8,0:0:0:0:
187,138,28441,1,8,0:0:0:0:
429,272,28620,6,0,P|432:225|450:177,1,90,4|0,0:0|0:0,0:0:0:0:
324,289,28977,2,0,L|308:383,1,90,12|0,0:0|0:0,0:0:0:0:
308,185,29335,1,4,0:0:0:0:
228,275,29513,1,0,0:0:0:0:
169,100,29692,1,8,0:0:0:0:
130,181,29871,1,0,0:0:0:0:
218,169,30049,5,0,0:0:0:0:
251,85,30228,1,0,0:0:0:0:
228,275,30407,1,8,0:0:0:0:
269,290,30496,1,0,0:0:0:0:
311,274,30585,1,0,0:0:0:0:
332,313,30675,1,0,0:0:0:0:
376,304,30764,1,0,0:0:0:0:
376,213,30943,1,0,0:0:0:0:
461,76,31121,1,8,0:0:0:0:
479,164,31300,1,0,0:0:0:0:
347,40,31479,5,4,0:0:0:0:
173,83,31657,1,0,0:0:0:0:
232,15,31836,1,12,0:0:0:0:
219,194,32015,1,0,0:0:0:0:
162,124,32193,1,4,0:0:0:0:
328,192,32372,1,0,0:0:0:0:
178,293,32551,1,8,0:0:0:0:
343,362,32729,1,0,0:0:0:0:
328,192,32908,6,0,P|326:149|352:95,1,90
385,281,33265,2,0,P|350:298|296:299,1,90,8|0,0:0|0:0,0:0:0:0:
239,231,33623,2,0,P|197:212|89:259,1,135
53,287,33980,2,0,L|39:244,1,45,8|0,0:0|0:0,0:0:0:0:
111,104,34159,2,0,L|125:147,1,45
205,231,34337,6,0,P|245:240|308:224,1,90,4|0,0:0|0:0,0:0:0:0:
327,80,34695,2,0,P|287:71|239:79,1,90,12|0,0:0|0:0,0:0:0:0:
282,158,35052,1,4,0:0:0:0:
372,159,35231,1,0,0:0:0:0:
208,220,35409,1,8,0:0:0:0:
448,85,35588,1,0,0:0:0:0:
145,148,35767,5,0,0:0:0:0:
512,168,35945,1,0,0:0:0:0:
332,74,36124,1,8,0:0:0:0:
326,235,36302,1,0,0:0:0:0:
266,166,36481,1,0,0:0:0:0:
240,252,36660,1,0,0:0:0:0:
190,111,36838,1,8,0:0:0:0:
146,277,37017,1,0,0:0:0:0:
190,111,37196,6,0,P|184:62|216:13,1,90,4|0,0:0|0:0,0:0:0:0:
266,166,37553,2,0,P|258:214|215:258,1,90,12|0,0:0|0:0,0:0:0:0:
151,208,37910,1,4,0:0:0:0:
323,293,38089,1,0,0:0:0:0:
323,293,38178,1,0,0:0:0:0:
323,293,38268,1,8,0:0:0:0:
357,210,38446,1,0,0:0:0:0:
323,126,38625,5,0,0:0:0:0:
468,208,38804,1,0,0:0:0:0:
448,73,38982,1,8,0:0:0:0:
323,126,39161,2,0,L|306:155,4,22.5,8|0|0|0|8,0:0|0:0|0:0|0:0|0:0,0:0:0:0:
256,65,39518,1,8,0:0:0:0:
357,210,39697,1,8,0:0:0:0:
190,203,39876,1,0,0:0:0:0:
282,298,40054,6,0,P|328:319|423:306,1,135
455,319,40412,2,0,L|458:220,1,90,12|0,0:0|0:0,0:0:0:0:
407,153,40769,1,0,0:0:0:0:
366,72,40948,1,4,0:0:0:0:
410,64,41037,1,0,0:0:0:0:
456,56,41126,1,8,0:0:0:0:
264,80,41305,1,0,0:0:0:0:
220,160,41484,6,0,L|240:260,1,90
112,152,41841,2,0,L|94:63,1,90,12|0,0:0|0:0,0:0:0:0:
60,240,42198,1,0,0:0:0:0:
202,350,42377,1,4,0:0:0:0:
354,253,42556,1,8,0:0:0:0:
307,79,42734,1,0,0:0:0:0:
126,68,42913,5,0,0:0:0:0:
156,152,43092,1,0,0:0:0:0:
213,61,43270,1,12,0:0:0:0:
239,184,43449,1,0,0:0:0:0:
301,54,43628,1,0,0:0:0:0:
326,213,43806,1,4,0:0:0:0:
387,43,43985,1,8,0:0:0:0:
412,240,44164,1,0,0:0:0:0:
387,43,44342,6,0,P|385:79|413:129,1,90
466,196,44700,2,0,L|428:284,1,90,12|0,0:0|0:0,0:0:0:0:
245,260,45057,2,0,L|363:221,1,90,0|4,0:0|0:0,0:0:0:0:
178,339,45414,2,0,L|88:266,1,90,8|0,0:0|0:0,0:0:0:0:
145,199,45772,6,0,P|150:167|79:43,1,180,0|12,0:0|0:0,0:0:0:0:
165,78,46308,2,0,P|236:89|369:43,1,180,0|4,0:0|0:0,0:0:0:0:
417,17,46844,2,0,L|437:127,1,90,8|0,0:0|0:0,0:0:0:0:
370,169,47201,5,0,0:0:0:0:
458,186,47380,1,0,0:0:0:0:
297,230,47558,1,12,0:0:0:0:
270,93,47737,1,0,0:0:0:0:
297,230,47916,1,0,0:0:0:0:
207,221,48094,1,4,0:0:0:0:
353,330,48273,1,8,0:0:0:0:
270,93,48452,1,0,0:0:0:0:
370,170,48630,6,0,P|400:186|497:74,2,180,0|12|0,0:0|0:0|0:0,0:0:0:0:
420,94,49524,1,4,0:0:0:0:
421,275,49702,1,8,0:0:0:0:
294,208,49881,1,0,0:0:0:0:
220,259,50060,6,0,P|172:256|108:269,1,90
48,299,50417,2,0,L|34:200,1,90,12|0,0:0|0:0,0:0:0:0:
114,167,50774,2,0,L|116:48,1,90,0|4,0:0|0:0,0:0:0:0:
25,70,51132,1,8,0:0:0:0:
248,77,51310,1,0,0:0:0:0:
248,77,51400,1,0,0:0:0:0:
248,77,51489,1,0,0:0:0:0:
216,241,62924,6,0,L|206:143,1,90
104,69,63281,2,0,L|94:158,1,90
184,155,63638,1,0,0:0:0:0:
361,180,63817,1,0,0:0:0:0:
274,159,63996,1,0,0:0:0:0:
439,224,64174,1,0,0:0:0:0:
429,134,64353,5,0,0:0:0:0:
346,329,64532,1,0,0:0:0:0:
464,311,64710,1,0,0:0:0:0:
464,311,64800,1,0,0:0:0:0:
464,311,64889,1,0,0:0:0:0:
464,311,64978,1,0,0:0:0:0:
464,311,65068,1,0,0:0:0:0:
391,258,65246,1,0,0:0:0:0:
273,303,65425,1,0,0:0:0:0:
124,238,65604,1,0,0:0:0:0:
98,78,65782,5,2,0:0:0:0:
370,34,66140,1,2,0:0:0:0:
414,306,66497,1,2,0:0:0:0:
142,350,66855,1,2,0:0:0:0:
176,14,67212,5,2,0:0:0:0:
433,112,67570,1,2,0:0:0:0:
335,369,67927,1,2,0:0:0:0:
78,271,68285,1,2,0:0:0:0:
72,92,68641,6,0,L|172:84,1,90,2|2,0:0|0:0,0:0:0:0:
252,84,68998,1,2,0:0:0:0:
252,84,69177,1,2,0:0:0:0:
432,188,69356,2,0,L|332:180,1,90,2|2,0:0|0:0,0:0:0:0:
252,180,69713,1,2,0:0:0:0:
252,180,69892,1,2,0:0:0:0:
180,232,70070,5,2,0:0:0:0:
236,300,70249,1,2,0:0:0:0:
52,264,70428,1,2,0:0:0:0:
156,132,70606,1,2,0:0:0:0:
68,144,70785,1,2,0:0:0:0:
276,240,70964,1,2,0:0:0:0:
224,56,71142,1,2,0:0:0:0:
132,276,71321,1,2,0:0:0:0:
256,172,71500,6,0,L|296:144,1,45,2|0,0:0|0:0,0:0:0:0:
332,124,71678,1,2,0:0:0:0:
376,120,71768,1,0,0:0:0:0:
420,128,71857,2,0,L|468:140,3,45,2|0|2|0,0:0|0:0|0:0|0:0,0:0:0:0:
448,180,72214,5,2,0:0:0:0:
432,200,72303,1,0,0:0:0:0:
428,228,72393,1,2,0:0:0:0:
436,252,72482,1,0,0:0:0:0:
456,272,72571,2,0,L|480:328,1,45,2|0,0:0|0:0,0:0:0:0:
368,296,72750,2,0,L|350:254,1,45,2|0,0:0|0:0,0:0:0:0:
328,240,72929,5,2,0:0:0:0:
300,236,73018,1,0,0:0:0:0:
276,244,73107,1,2,0:0:0:0:
256,260,73197,1,0,0:0:0:0:
260,304,73286,5,2,0:0:0:0:
220,324,73375,1,0,0:0:0:0:
176,312,73465,1,2,0:0:0:0:
156,272,73554,1,0,0:0:0:0:
176,232,73643,6,0,L|188:184,1,45,2|0,0:0|0:0,0:0:0:0:
96,96,73822,2,0,L|108:144,1,45,2|0,0:0|0:0,0:0:0:0:
216,136,74001,5,0,0:0:0:0:
244,132,74179,1,0,0:0:0:0:
272,128,74358,6,0,L|376:104,1,90
351,253,74715,2,0,L|408:184,1,90,8|0,0:0|0:0,0:0:0:0:
489,293,75073,2,0,L|496:204,1,90
456,124,75430,1,8,0:0:0:0:
456,124,75609,1,0,0:0:0:0:
484,208,75787,5,0,0:0:0:0:
336,128,75966,1,0,0:0:0:0:
340,240,76145,1,8,0:0:0:0:
300,260,76234,2,0,L|244:288,2,45
304,216,76502,1,0,0:0:0:0:
228,164,76681,1,0,0:0:0:0:
412,208,76859,1,8,0:0:0:0:
168,232,77038,1,0,0:0:0:0:
464,128,77217,6,0,L|476:16,1,90
368,156,77574,2,0,L|368:32,1,90,8|0,0:0|0:0,0:0:0:0:
275,202,77931,2,0,L|261:91,1,90
204,278,78289,2,0,L|160:173,1,90,8|0,0:0|0:0,0:0:0:0:
84,224,78646,5,0,0:0:0:0:
281,201,78825,1,0,0:0:0:0:
121,293,79003,1,8,0:0:0:0:
136,80,79182,1,0,0:0:0:0:
281,201,79361,1,0,0:0:0:0:
84,224,79539,1,0,0:0:0:0:
136,80,79718,1,8,0:0:0:0:
214,124,79897,1,0,0:0:0:0:
300,99,80075,6,0,P|326:87|380:40,1,90
447,100,80433,2,0,L|457:213,1,90,8|0,0:0|0:0,0:0:0:0:
366,208,80790,1,0,0:0:0:0:
422,277,80969,1,0,0:0:0:0:
304,326,81147,1,8,0:0:0:0:
270,153,81326,1,0,0:0:0:0:
370,140,81505,5,0,0:0:0:0:
177,212,81683,1,0,0:0:0:0:
210,51,81862,1,8,0:0:0:0:
112,99,82041,1,0,0:0:0:0:
297,91,82219,1,0,0:0:0:0:
177,212,82398,1,0,0:0:0:0:
112,99,82577,1,8,0:0:0:0:
210,51,82755,1,0,0:0:0:0:
177,212,82934,6,0,B|197:244|236:257|236:257|237:280,1,90
164,325,83291,2,0,P|214:359|260:353,1,90,8|0,0:0|0:0,0:0:0:0:
322,318,83649,1,0,0:0:0:0:
105,258,83827,1,0,0:0:0:0:
105,258,83917,1,0,0:0:0:0:
105,258,84006,1,8,0:0:0:0:
115,168,84185,1,0,0:0:0:0:
200,141,84363,6,0,P|208:115|204:18,1,90
301,61,84721,1,8,0:0:0:0:
301,61,84810,1,0,0:0:0:0:
301,61,84899,1,0,0:0:0:0:
346,56,84989,1,0,0:0:0:0:
390,52,85078,1,0,0:0:0:0:
452,117,85257,1,0,0:0:0:0:
473,258,85435,1,8,0:0:0:0:
305,324,85614,1,0,0:0:0:0:
163,144,85793,6,0,P|159:120|173:56,1,90
245,199,86150,2,0,P|249:223|235:287,1,90,8|0,0:0|0:0,0:0:0:0:
162,233,86507,1,0,0:0:0:0:
346,258,86686,1,0,0:0:0:0:
162,233,86865,1,8,0:0:0:0:
346,258,87043,1,0,0:0:0:0:
266,155,87222,6,0,P|278:109|275:47,1,90
266,155,87579,2,0,L|222:248,1,90,8|0,0:0|0:0,0:0:0:0:
266,155,87937,1,0,0:0:0:0:
112,251,88115,1,0,0:0:0:0:
184,117,88294,1,8,0:0:0:0:
191,291,88473,1,0,0:0:0:0:
106,162,88651,6,0,P|99:118|105:56,1,90
222,142,89009,2,0,P|229:186|223:248,1,90,8|0,0:0|0:0,0:0:0:0:
144,193,89366,1,0,0:0:0:0:
304,195,89545,1,0,0:0:0:0:
144,193,89723,1,8,0:0:0:0:
304,195,89902,1,0,0:0:0:0:
302,285,90081,5,0,0:0:0:0:
380,241,90259,1,0,0:0:0:0:
380,241,90349,1,0,0:0:0:0:
380,241,90438,1,8,0:0:0:0:
385,151,90617,1,0,0:0:0:0:
307,106,90795,1,0,0:0:0:0:
223,139,90974,1,0,0:0:0:0:
223,139,91063,1,0,0:0:0:0:
223,139,91153,1,8,0:0:0:0:
208,227,91331,1,0,0:0:0:0:
127,197,91510,1,0,0:0:0:0:
256,192,91599,12,0,92939,0:0:0:0:
