osu file format v12

[General]
AudioFilename: wuxuanlan.mp3
AudioLeadIn: 1000
PreviewTime: 16825
Countdown: 0
SampleSet: None
StackLeniency: 0.5
Mode: 0
LetterboxInBreaks: 1

[Editor]
Bookmarks: 1463,61494
DistanceSpacing: 0.7
BeatDivisor: 4
GridSize: 4

[Metadata]
Title:Wu Xuan Lan
TitleUnicode:舞·絢爛
Artist:Ci Mei Gui
ArtistUnicode:刺玫瑰
Creator:OrangeNeKo
Version:WTNEKo_0
Source:MuziBox
Tags:IGS wantuole OraneNeKo Zweib Left 4 Dead Osu_Cc1Y7 XiaoP_GJ Angelina_Rocca S I N N -WhiteNEKO- __Ag Melt Nunnally Lamperouge ts8zs
BeatmapID:261699
BeatmapSetID:93706

[Difficulty]
HPDrainRate:7
CircleSize:4
OverallDifficulty:7
ApproachRate:8
SliderMultiplier:1.8
SliderTickRate:1

[Events]
//Background and Video events
0,1463,"BG.jpg",0,0
//Break Periods
//Storyboard Layer 0 (Background)
//Storyboard Layer 1 (Fail)
//Storyboard Layer 2 (Pass)
//Storyboard Layer 3 (Foreground)
Sprite,Foreground,Centre,"light.png",320,240 M,0,1463,,151,131 F,0,1463,1820,1,0 S,0,1463,1820,0.25,0.4 M,0,17185,,272,238
//Storyboard Sound Samples
//Background Colour Transformations
3,100,163,162,255

[TimingPoints]
34,357.330030015723,4,2,0,50,1,0
1820,-100,4,2,5,50,0,0
3785,-100,4,2,5,35,0,0
4321,-100,4,2,5,50,0,0
5929,-100,4,2,0,40,0,0
6019,-100,4,2,5,35,0,0
6823,-100,4,2,5,55,0,0
7180,-100,4,2,2,55,0,0
7269,-100,4,2,5,55,0,0
9503,-100,4,2,5,35,0,0
10039,-100,4,2,5,55,0,0
12897,-100,4,2,2,55,0,0
14327,-100,4,2,0,55,0,0
16471,-100,4,2,5,5,0,0
16828,-100,4,2,5,55,0,0
17185,-100,4,2,5,65,0,1
17275,-100,4,2,5,55,0,0
18704,-100,4,2,5,35,0,0
19687,-100,4,2,5,55,0,0
22188,-100,4,2,0,55,0,0
22545,-100,4,2,5,55,0,0
22903,-100,4,2,5,65,0,1
22992,-100,4,2,5,55,0,0
28620,-100,4,2,5,65,0,1
28709,-100,4,2,5,55,0,0
33623,-100,4,2,0,55,0,0
33980,-100,4,2,5,55,0,0
34337,-100,4,2,5,65,0,1
34427,-100,4,2,5,55,0,0
39340,-100,4,2,0,55,0,0
39697,-100,4,2,5,50,0,0
50060,-100,4,2,5,60,0,0
51489,-100,4,2,5,50,0,0
60958,-100,4,2,5,40,0,0
61494,-100,4,2,5,55,0,0
61852,-100,4,2,5,60,0,0
62209,-100,4,2,5,65,0,0
62566,-100,4,2,5,70,0,0
62924,-100,4,2,0,80,0,1
63013,-100,4,2,5,60,0,1
65693,-100,4,2,5,60,0,0
65782,-100,4,2,0,80,0,1
65872,-100,4,2,5,60,0,1
67926,-100,4,2,0,55,0,1
68284,-100,4,2,5,60,0,1
68552,-100,4,2,5,60,0,0
68641,-100,4,2,0,80,0,1
68730,-100,4,2,5,60,0,1
71500,-100,4,2,5,50,0,0
71857,-100,4,2,5,55,0,0
72214,-100,4,2,5,60,0,0
72393,-100,4,2,5,65,0,0
72571,-100,4,2,5,70,0,0
72750,-100,4,2,5,75,0,0
72929,-100,4,2,5,80,0,0
74358,-100,4,2,0,80,0,1
74447,-100,4,2,5,60,0,1
77127,-100,4,2,5,60,0,0
77217,-100,4,2,0,80,0,1
77306,-100,4,2,5,60,0,1
79361,-100,4,2,0,55,0,1
79718,-100,4,2,5,60,0,1
79986,-100,4,2,5,60,0,0
80075,-100,4,2,0,80,0,1
80165,-100,4,2,5,60,0,1
81505,-100,4,2,0,60,0,1
85257,-100,4,2,5,60,0,0
88651,-100,4,2,0,60,0,0
88830,-100,4,2,5,60,0,0
91510,-100,4,2,2,60,0,0
92939,-100,4,2,0,50,0,0
95083,-100,4,2,0,5,0,0

[Colours]
Combo1 : 255,128,255
Combo2 : 255,255,128
Combo3 : 0,255,0
Combo4 : 0,0,255

[HitObjects]
95,78,1463,2,0,P|139:132|161:138,1,90,6|0,0:0|0:0,0:0:0:0:
191,108,1731,1,0,0:0:0:0:
219,73,1820,2,0,P|265:65|311:76,1,90,8|0,0:0|0:0,0:0:0:0:
262,62,2177,2,0,L|262:152,1,90
261,331,2535,2,0,L|262:242,2,90,8|0|2,0:0|0:0|0:0,0:0:0:0:
341,290,3071,5,0,0:0:0:0:
261,331,3249,1,8,0:0:0:0:
177,248,3428,1,0,0:0:0:0:
261,331,3607,1,2,0:0:0:0:
307,157,3785,1,4,0:0:0:0:
261,331,3964,1,12,0:0:0:0:
213,157,4143,1,4,0:0:0:0:
307,157,4321,5,2,0:0:0:0:
383,208,4500,1,0,0:0:0:0:
383,208,4589,1,0,0:0:0:0:
383,208,4679,2,0,P|463:168|470:141,1,90,8|0,0:0|0:0,0:0:0:0:
423,91,5036,2,0,P|360:52|310:53,1,90
338,94,5304,1,0,0:0:0:0:
382,88,5393,2,0,P|399:20|359:-3,1,90,8|0,0:0|0:0,0:0:0:0:
300,14,5751,6,0,L|191:14,1,90,2|4,0:0|0:0,0:0:0:0:
190,38,6019,1,8,0:0:0:0:
170,62,6108,1,8,0:0:0:0:
150,86,6197,1,8,0:0:0:0:
130,111,6287,1,8,0:0:0:0:
110,135,6376,1,8,0:0:0:0:
91,160,6465,1,8,0:0:0:0:
72,185,6555,1,8,0:0:0:0:
55,211,6644,2,0,L|91:311,1,90,8|8,0:0|0:0,0:0:0:0:
171,269,7001,2,0,L|227:254,1,45,0|0,0:0|0:0,0:0:0:0:
215,182,7180,6,0,L|171:193,1,45,6|0,0:0|0:0,0:0:0:0:
140,197,7359,1,0,0:0:0:0:
128,167,7448,1,0,0:0:0:0:
145,140,7537,1,8,0:0:0:0:
166,116,7627,1,0,0:0:0:0:
195,105,7716,1,0,0:0:0:0:
226,105,7805,1,0,0:0:0:0:
257,110,7895,1,0,0:0:0:0:
319,174,8073,6,0,L|359:75,1,90,0|8,0:0|0:0,0:0:0:0:
440,69,8431,1,0,0:0:0:0:
501,134,8609,1,2,0:0:0:0:
424,234,8788,1,0,0:0:0:0:
501,134,8967,1,8,0:0:0:0:
394,278,9145,1,0,0:0:0:0:
367,294,9235,1,0,0:0:0:0:
339,309,9324,6,0,L|296:325,1,45,2|0,0:0|0:0,0:0:0:0:
222,309,9503,2,0,L|265:325,1,45,4|0,0:0|0:0,0:0:0:0:
286,347,9681,1,12,0:0:0:0:
254,351,9771,2,0,P|246:281|310:203,1,135,4|2,0:0|0:0,0:0:0:0:
351,176,10217,6,0,L|306:146,1,45
287,132,10396,2,0,P|245:92|112:104,1,180,8|0,0:0|0:0,0:0:0:0:
155,178,10932,2,0,P|210:174|222:214,1,90,0|8,0:0|0:0,0:0:0:0:
151,254,11289,2,0,P|78:274|41:312,1,90,0|2,0:0|0:0,0:0:0:0:
118,356,11647,6,0,L|16:356,1,90,0|8,0:0|0:0,0:0:0:0:
30,324,11915,1,0,0:0:0:0:
33,292,12004,1,0,0:0:0:0:
36,260,12093,1,0,0:0:0:0:
40,228,12183,1,0,0:0:0:0:
44,196,12272,1,0,0:0:0:0:
48,164,12361,1,0,0:0:0:0:
53,132,12451,1,0,0:0:0:0:
57,100,12540,2,0,P|146:66|240:96,1,180,8|4,0:0|0:0,0:0:0:0:
245,110,12987,5,0,0:0:0:0:
259,137,13076,1,0,0:0:0:0:
268,166,13165,1,0,0:0:0:0:
279,195,13255,1,4,0:0:0:0:
294,222,13344,1,0,0:0:0:0:
313,246,13433,1,0,0:0:0:0:
337,266,13523,1,0,0:0:0:0:
409,289,13612,1,4,0:0:0:0:
435,272,13701,1,0,0:0:0:0:
453,246,13791,1,0,0:0:0:0:
469,219,13880,1,0,0:0:0:0:
476,188,13969,1,4,0:0:0:0:
471,156,14059,1,0,0:0:0:0:
463,125,14148,1,0,0:0:0:0:
473,95,14237,1,0,0:0:0:0:
489,67,14327,1,4,0:0:0:0:
256,192,14416,12,0,16471,0:0:0:0:
109,123,16828,5,8,0:0:0:0:
128,147,16917,1,8,0:0:0:0:
154,164,17007,1,8,0:0:0:0:
182,177,17096,1,8,0:0:0:0:
211,188,17185,2,0,P|264:138|311:139,1,90,10|0,0:0|0:0,0:0:0:0:
300,223,17543,6,0,L|371:287,1,90,0|0,0:0|0:0,0:0:0:0:
324,298,17811,1,0,0:0:0:0:
310,255,17900,2,0,P|374:193|350:88,1,180,0|8,0:0|0:0,0:0:0:0:
296,51,18436,1,0,0:0:0:0:
296,51,18525,2,0,L|236:50,1,45,0|2,0:0|0:0,0:0:0:0:
219,48,18704,5,8,0:0:0:0:
191,62,18793,1,8,0:0:0:0:
167,83,18883,1,8,0:0:0:0:
159,113,18972,1,8,0:0:0:0:
153,143,19061,1,8,0:0:0:0:
137,170,19151,1,8,0:0:0:0:
111,188,19240,1,8,0:0:0:0:
136,206,19329,1,8,0:0:0:0:
152,233,19419,1,8,0:0:0:0:
158,263,19508,1,8,0:0:0:0:
166,293,19597,1,8,0:0:0:0:
190,314,19687,5,12,0:0:0:0:
190,314,19776,2,0,P|261:333|291:329,1,90
301,294,20044,2,0,L|379:357,1,90,2|0,0:0|0:0,0:0:0:0:
453,314,20401,2,0,L|382:257,1,90,8|0,0:0|0:0,0:0:0:0:
345,231,20669,1,0,0:0:0:0:
390,229,20759,2,0,P|456:207|491:168,1,90
412,125,21116,2,0,P|382:59|394:28,1,90,8|0,0:0|0:0,0:0:0:0:
428,36,21384,1,0,0:0:0:0:
424,80,21473,6,0,L|380:93,2,45,2|0|0,0:0|0:0|0:0,0:0:0:0:
292,112,21831,2,0,P|172:128|100:104,1,180,8|6,0:0|0:0,0:0:0:0:
40,64,22367,1,0,0:0:0:0:
128,56,22545,6,0,P|168:112|172:164,1,90,12|0,0:0|0:0,0:0:0:0:
176,224,22903,1,2,0:0:0:0:
176,224,22992,1,0,0:0:0:0:
176,224,23081,2,0,P|240:260|264:260,1,90,0|8,0:0|0:0,0:0:0:0:
252,172,23439,6,0,L|288:136,1,45
328,140,23617,2,0,L|368:192,1,45
383,210,23796,2,0,P|436:283|454:293,1,90,0|8,0:0|0:0,0:0:0:0:
508,332,24153,1,0,0:0:0:0:
423,372,24332,1,2,0:0:0:0:
434,282,24511,2,0,L|481:187,1,90,0|8,0:0|0:0,0:0:0:0:
455,170,24779,1,0,0:0:0:0:
431,148,24868,1,0,0:0:0:0:
407,126,24957,1,0,0:0:0:0:
383,104,25047,1,0,0:0:0:0:
359,82,25136,1,0,0:0:0:0:
335,60,25225,1,0,0:0:0:0:
311,38,25315,1,0,0:0:0:0:
287,17,25404,2,0,L|249:63,2,45,12|0|0,0:0|0:0|0:0,0:0:0:0:
170,85,25761,6,0,L|208:131,1,45,2|0,0:0|0:0,0:0:0:0:
124,178,26119,2,0,L|152:212,1,45,2|0,0:0|0:0,0:0:0:0:
267,284,26476,2,0,L|357:284,1,90,8|0,0:0|0:0,0:0:0:0:
176,284,26833,2,8,L|86:284,1,90,8|0,0:0|0:0,0:0:0:0:
20,219,27191,5,10,0:0:0:0:
33,190,27280,1,8,0:0:0:0:
54,167,27369,1,8,0:0:0:0:
81,151,27459,1,8,0:0:0:0:
112,150,27548,1,8,0:0:0:0:
142,155,27637,1,8,0:0:0:0:
163,131,27727,1,8,0:0:0:0:
187,111,27816,1,8,0:0:0:0:
218,106,27905,1,8,0:0:0:0:
249,110,27995,1,8,0:0:0:0:
279,116,28084,1,8,0:0:0:0:
303,135,28173,1,8,0:0:0:0:
323,159,28263,2,8,L|358:202,2,45,12|8|8,0:0|0:0|0:0,0:0:0:0:
452,283,28620,6,0,P|406:331|413:374,1,90,2|0,0:0|0:0,0:0:0:0:
495,358,28977,1,8,0:0:0:0:
472,318,29067,1,0,0:0:0:0:
452,282,29156,2,0,L|452:175,1,90
451,101,29513,1,0,0:0:0:0:
451,191,29692,2,0,L|508:191,1,45,8|0,0:0|0:0,0:0:0:0:
451,191,29871,2,0,L|389:190,1,45
361,188,30049,2,0,P|306:146|291:110,1,90,2|0,0:0|0:0,0:0:0:0:
331,99,30317,1,0,0:0:0:0:
356,136,30407,2,0,L|394:108,1,45,8|0,0:0|0:0,0:0:0:0:
418,92,30585,1,0,0:0:0:0:
422,60,30675,1,0,0:0:0:0:
401,36,30764,1,0,0:0:0:0:
429,22,30853,1,0,0:0:0:0:
460,20,30943,1,0,0:0:0:0:
487,34,31032,1,0,0:0:0:0:
500,62,31121,2,0,L|500:115,2,45,12|0|0,0:0|0:0|0:0,0:0:0:0:
418,92,31479,6,0,P|355:43|316:43,1,90,2|0,0:0|0:0,0:0:0:0:
275,96,31836,2,0,L|215:198,1,90,8|0,0:0|0:0,0:0:0:0:
205,212,32104,1,0,0:0:0:0:
182,250,32193,2,0,P|105:259|71:236,1,90
59,172,32551,2,0,P|19:207|12:259,1,90,8|0,0:0|0:0,0:0:0:0:
53,320,32908,1,2,0:0:0:0:
84,321,32997,1,0,0:0:0:0:
115,322,33087,1,0,0:0:0:0:
146,323,33176,1,0,0:0:0:0:
177,324,33265,1,8,0:0:0:0:
208,325,33355,1,0,0:0:0:0:
239,326,33444,1,0,0:0:0:0:
270,327,33533,1,0,0:0:0:0:
301,330,33623,2,0,B|340:329|340:329|352:319|352:319|352:339|352:339|367:328|367:328|471:329,1,180,6|12,0:0|0:0,0:0:0:0:
470,302,34069,5,0,0:0:0:0:
478,271,34159,1,0,0:0:0:0:
480,239,34248,1,0,0:0:0:0:
471,208,34337,2,0,P|451:128|463:85,1,90,2|0,0:0|0:0,0:0:0:0:
486,38,34695,2,0,L|384:38,1,90,8|0,0:0|0:0,0:0:0:0:
370,75,34963,1,0,0:0:0:0:
325,75,35052,2,0,P|271:47|224:56,1,90
280,220,35409,2,0,P|277:159|262:137,1,90,8|0,0:0|0:0,0:0:0:0:
192,195,35767,2,0,P|145:156|117:152,1,90,2|0,0:0|0:0,0:0:0:0:
27,161,36124,1,8,0:0:0:0:
16,71,36302,1,0,0:0:0:0:
92,23,36481,1,0,0:0:0:0:
16,71,36838,5,8,0:0:0:0:
27,161,37017,1,0,0:0:0:0:
105,205,37196,1,2,0:0:0:0:
158,133,37374,1,0,0:0:0:0:
105,205,37553,1,8,0:0:0:0:
149,313,37732,1,0,0:0:0:0:
105,205,37910,1,8,0:0:0:0:
95,235,38000,1,0,0:0:0:0:
85,264,38089,1,0,0:0:0:0:
70,291,38178,1,0,0:0:0:0:
52,317,38268,1,8,0:0:0:0:
83,319,38357,1,0,0:0:0:0:
112,328,38446,1,0,0:0:0:0:
141,339,38536,1,0,0:0:0:0:
172,342,38625,1,10,0:0:0:0:
202,335,38714,1,8,0:0:0:0:
232,324,38804,1,8,0:0:0:0:
262,315,38893,1,8,0:0:0:0:
293,316,38982,1,8,0:0:0:0:
322,328,39072,1,8,0:0:0:0:
351,338,39161,1,8,0:0:0:0:
382,335,39250,1,8,0:0:0:0:
412,326,39340,1,4,0:0:0:0:
452,196,39697,5,2,0:0:0:0:
463,181,39876,5,2,0:0:0:0:
476,169,40054,5,2,0:0:0:0:
256,192,40144,12,0,40769,0:0:0:0:
255,190,40948,5,0,0:0:0:0:
255,190,41037,1,0,0:0:0:0:
255,190,41126,2,0,P|221:241|224:266,1,90,8|0,0:0|0:0,0:0:0:0:
314,256,41484,2,0,L|435:256,1,90,2|0,0:0|0:0,0:0:0:0:
265,99,41841,2,0,P|330:126|343:155,1,90,8|0,0:0|0:0,0:0:0:0:
405,199,42198,2,0,P|435:120|381:23,1,180,0|8,0:0|0:0,0:0:0:0:
308,28,42734,1,0,0:0:0:0:
225,64,42913,5,2,0:0:0:0:
213,93,43002,1,0,0:0:0:0:
196,120,43092,1,0,0:0:0:0:
170,138,43181,1,0,0:0:0:0:
142,152,43270,1,8,0:0:0:0:
112,164,43360,1,0,0:0:0:0:
81,170,43449,1,0,0:0:0:0:
49,171,43538,1,0,0:0:0:0:
66,197,43628,1,0,0:0:0:0:
77,226,43717,1,0,0:0:0:0:
81,257,43806,2,0,P|136:302|184:306,1,90,0|8,0:0|0:0,0:0:0:0:
163,215,44164,2,0,L|287:215,1,90,0|2,0:0|0:0,0:0:0:0:
343,215,44521,1,0,0:0:0:0:
433,215,44700,1,8,0:0:0:0:
253,215,44878,2,0,L|253:108,1,90
433,215,45236,2,0,L|433:118,1,90,0|8,0:0|0:0,0:0:0:0:
343,215,45593,2,0,L|343:113,1,90,0|2,0:0|0:0,0:0:0:0:
326,97,45861,5,0,0:0:0:0:
304,73,45950,1,0,0:0:0:0:
274,62,46040,1,0,0:0:0:0:
242,60,46129,1,8,0:0:0:0:
210,64,46218,1,0,0:0:0:0:
184,82,46308,1,0,0:0:0:0:
168,109,46397,1,0,0:0:0:0:
158,139,46486,1,0,0:0:0:0:
157,170,46576,1,0,0:0:0:0:
162,200,46665,1,0,0:0:0:0:
230,259,46844,1,8,0:0:0:0:
249,346,47022,1,0,0:0:0:0:
339,347,47201,2,0,L|403:301,1,45,2|0,0:0|0:0,0:0:0:0:
493,255,47558,2,0,L|454:203,1,45,8|0,0:0|0:0,0:0:0:0:
433,87,47916,2,0,L|379:113,1,45
351,124,48094,2,0,P|294:83|246:83,1,90,0|8,0:0|0:0,0:0:0:0:
273,170,48452,6,0,L|322:78,1,90,0|2,0:0|0:0,0:0:0:0:
335,60,49345,1,2,0:0:0:0:
351,28,50060,1,2,0:0:0:0:
319,23,50149,1,2,0:0:0:0:
289,33,50238,1,2,0:0:0:0:
266,55,50328,1,2,0:0:0:0:
240,73,50417,1,2,0:0:0:0:
209,82,50506,1,2,0:0:0:0:
177,88,50596,1,2,0:0:0:0:
145,91,50685,1,2,0:0:0:0:
113,89,50774,1,2,0:0:0:0:
81,82,50864,1,2,0:0:0:0:
52,68,50953,1,2,0:0:0:0:
25,50,51042,1,2,0:0:0:0:
5,25,51132,1,2,0:0:0:0:
8,56,51221,1,2,0:0:0:0:
10,87,51310,1,2,0:0:0:0:
12,118,51400,1,2,0:0:0:0:
16,149,51489,6,0,B|66:191|66:191|112:168|160:193|166:270,1,180,6|8,0:0|0:0,0:0:0:0:
82,280,52025,1,0,0:0:0:0:
82,280,52204,2,0,L|25:350,1,90
172,280,52561,2,0,L|234:358,1,90,8|0,0:0|0:0,0:0:0:0:
299,294,52918,1,2,0:0:0:0:
361,229,53097,1,0,0:0:0:0:
380,140,53276,1,8,0:0:0:0:
304,161,53454,1,0,0:0:0:0:
362,229,53633,1,0,0:0:0:0:
439,274,53812,1,0,0:0:0:0:
361,229,53990,1,8,0:0:0:0:
475,301,54169,1,0,0:0:0:0:
361,229,54348,5,2,0:0:0:0:
342,203,54437,1,0,0:0:0:0:
341,171,54526,1,0,0:0:0:0:
343,139,54616,1,0,0:0:0:0:
344,107,54705,1,8,0:0:0:0:
332,77,54794,1,0,0:0:0:0:
304,61,54884,1,0,0:0:0:0:
273,54,54973,1,0,0:0:0:0:
241,49,55062,1,0,0:0:0:0:
209,51,55152,1,0,0:0:0:0:
178,58,55241,1,0,0:0:0:0:
153,77,55330,1,0,0:0:0:0:
139,105,55420,1,8,0:0:0:0:
229,192,55777,1,2,0:0:0:0:
219,221,55866,1,0,0:0:0:0:
204,249,55956,1,0,0:0:0:0:
181,271,56045,1,0,0:0:0:0:
156,291,56134,1,8,0:0:0:0:
129,308,56224,1,0,0:0:0:0:
101,322,56313,1,0,0:0:0:0:
72,334,56402,1,0,0:0:0:0:
41,342,56492,1,0,0:0:0:0:
32,266,56581,1,0,0:0:0:0:
57,286,56671,1,0,0:0:0:0:
84,302,56760,1,0,0:0:0:0:
113,316,56849,1,8,0:0:0:0:
142,327,56939,1,0,0:0:0:0:
173,335,57028,1,0,0:0:0:0:
205,340,57117,1,0,0:0:0:0:
236,335,57207,1,2,0:0:0:0:
265,326,57296,5,0,0:0:0:0:
338,212,57564,2,0,P|400:270|401:298,1,90,8|0,0:0|0:0,0:0:0:0:
462,212,57921,2,0,P|400:270|399:298,1,90
478,301,58278,1,8,0:0:0:0:
478,301,58636,2,0,P|395:343|316:289,1,180,2|8,0:0|0:0,0:0:0:0:
66,162,59350,2,0,P|149:120|219:159,1,180,0|8,0:0|0:0,0:0:0:0:
219,160,60065,5,2,0:0:0:0:
204,202,60958,1,8,0:0:0:0:
189,229,61048,1,8,0:0:0:0:
192,260,61137,1,8,0:0:0:0:
209,281,61226,1,8,0:0:0:0:
233,300,61316,1,8,0:0:0:0:
258,318,61405,1,8,0:0:0:0:
260,349,61494,1,10,0:0:0:0:
312,337,61852,1,8,0:0:0:0:
364,326,62209,1,8,0:0:0:0:
416,315,62566,1,8,0:0:0:0:
469,301,62924,5,4,0:0:0:0:
443,216,63102,2,0,L|507:122,1,90,0|8,0:0|0:0,0:0:0:0:
407,112,63460,2,0,L|343:18,1,90
398,21,63728,1,0,0:0:0:0:
423,57,63817,2,0,P|361:109|319:111,1,90,0|8,0:0|0:0,0:0:0:0:
264,103,64174,1,0,0:0:0:0:
182,140,64353,1,2,0:0:0:0:
354,110,64532,2,0,P|350:176|319:216,1,90,0|8,0:0|0:0,0:0:0:0:
310,210,64800,1,0,0:0:0:0:
282,224,64889,1,0,0:0:0:0:
254,238,64978,1,0,0:0:0:0:
225,252,65068,1,0,0:0:0:0:
197,266,65157,1,0,0:0:0:0:
169,280,65246,1,0,0:0:0:0:
141,295,65336,1,0,0:0:0:0:
113,310,65425,5,12,0:0:0:0:
84,324,65514,1,0,0:0:0:0:
54,336,65604,2,0,P|-2:285|4:250,1,90,0|4,0:0|0:0,0:0:0:0:
44,199,65961,1,0,0:0:0:0:
51,109,66140,1,8,0:0:0:0:
118,258,66318,1,0,0:0:0:0:
125,168,66497,1,0,0:0:0:0:
184,66,66676,2,0,P|286:40|294:44,1,90,0|8,0:0|0:0,0:0:0:0:
255,123,67033,2,0,L|323:206,1,90,0|2,0:0|0:0,0:0:0:0:
370,260,67390,1,0,0:0:0:0:
449,216,67569,2,0,P|525:167|528:135,1,90,8|0,0:0|0:0,0:0:0:0:
496,137,67837,1,0,0:0:0:0:
451,138,67926,2,0,P|495:223|494:312,1,180,4|12,0:0|0:0,0:0:0:0:
405,301,68462,1,0,0:0:0:0:
333,355,68641,6,0,L|251:355,1,45,4|0,0:0|0:0,0:0:0:0:
242,354,68820,2,0,L|134:317,1,90,0|8,0:0|0:0,0:0:0:0:
178,237,69177,1,0,0:0:0:0:
206,151,69356,1,0,0:0:0:0:
169,261,69534,1,0,0:0:0:0:
216,121,69713,1,8,0:0:0:0:
153,294,69892,1,0,0:0:0:0:
227,91,70070,1,2,0:0:0:0:
141,328,70249,1,0,0:0:0:0:
241,57,70428,1,8,0:0:0:0:
282,39,70517,1,0,0:0:0:0:
324,53,70606,2,0,P|388:61|426:86,1,90
350,141,70964,1,0,0:0:0:0:
389,221,71142,1,12,0:0:0:0:
350,141,71321,1,0,0:0:0:0:
221,267,71500,5,2,0:0:0:0:
187,224,71857,1,2,0:0:0:0:
153,181,72214,1,2,0:0:0:0:
135,160,72393,1,2,0:0:0:0:
119,139,72571,1,2,0:0:0:0:
101,118,72750,1,2,0:0:0:0:
86,95,72929,2,0,P|110:38|150:21,1,90,2|0,0:0|0:0,0:0:0:0:
159,27,73286,2,0,L|246:81,1,90,0|0,0:0|0:0,0:0:0:0:
259,86,73643,2,0,P|316:125|368:115,1,90
424,112,74001,2,0,L|482:98,2,45,12|0|0,0:0|0:0|0:0,0:0:0:0:
366,181,74358,6,0,B|386:209|386:209|470:221,1,90,4|0,0:0|0:0,0:0:0:0:
506,279,74715,2,0,P|455:317|395:319,1,90,8|0,0:0|0:0,0:0:0:0:
385,325,74983,1,0,0:0:0:0:
339,325,75073,2,0,L|237:325,1,90
169,282,75430,1,8,0:0:0:0:
169,282,75609,1,0,0:0:0:0:
87,244,75787,2,0,P|62:310|49:322,1,90,2|0,0:0|0:0,0:0:0:0:
79,153,76145,1,8,0:0:0:0:
97,127,76234,1,0,0:0:0:0:
121,107,76323,1,0,0:0:0:0:
147,89,76413,1,0,0:0:0:0:
176,77,76502,1,0,0:0:0:0:
206,69,76591,1,0,0:0:0:0:
237,65,76681,1,0,0:0:0:0:
268,68,76770,1,0,0:0:0:0:
298,74,76859,6,0,L|338:96,2,45,12|0|0,0:0|0:0|0:0,0:0:0:0:
428,89,77217,2,0,P|403:154|369:171,1,90,4|0,0:0|0:0,0:0:0:0:
298,164,77574,1,8,0:0:0:0:
207,164,77753,1,0,0:0:0:0:
117,164,77931,2,0,L|117:268,1,90
298,164,78289,2,0,L|298:273,1,90,8|0,0:0|0:0,0:0:0:0:
207,164,78646,2,0,L|207:269,1,90,2|0,0:0|0:0,0:0:0:0:
118,165,79003,1,8,0:0:0:0:
52,227,79182,1,0,0:0:0:0:
49,317,79361,1,4,0:0:0:0:
118,165,79718,5,12,0:0:0:0:
134,76,79897,1,0,0:0:0:0:
214,36,80075,2,0,P|259:23|308:48,1,90,4|0,0:0|0:0,0:0:0:0:
254,117,80433,2,0,L|254:214,1,90,8|0,0:0|0:0,0:0:0:0:
252,297,80790,2,0,P|298:329|357:332,1,90
326,244,81147,2,0,L|437:244,1,90,8|0,0:0|0:0,0:0:0:0:
472,173,81505,1,6,0:0:0:0:
411,106,81683,5,6,0:0:0:0:
306,77,81862,5,4,0:0:0:0:
183,107,82041,5,6,0:0:0:0:
97,221,82219,5,4,0:0:0:0:
255,307,82577,5,2,0:0:0:0:
285,299,82666,1,2,0:0:0:0:
315,292,82755,1,2,0:0:0:0:
345,283,82845,1,2,0:0:0:0:
375,276,82934,2,0,P|411:217|340:138,1,180,2|8,0:0|0:0,0:0:0:0:
113,260,83649,6,0,L|202:243,1,90,2|2,0:0|0:0,0:0:0:0:
232,233,83917,1,2,0:0:0:0:
252,209,84006,1,10,0:0:0:0:
260,178,84095,1,2,0:0:0:0:
265,146,84185,1,2,0:0:0:0:
281,119,84274,1,2,0:0:0:0:
302,96,84363,1,2,0:0:0:0:
330,82,84453,1,2,0:0:0:0:
359,70,84542,1,2,0:0:0:0:
388,60,84631,1,2,0:0:0:0:
419,62,84721,1,10,0:0:0:0:
448,73,84810,1,2,0:0:0:0:
471,94,84899,1,2,0:0:0:0:
487,121,84989,1,2,0:0:0:0:
493,151,85078,1,2,0:0:0:0:
477,178,85167,1,2,0:0:0:0:
458,203,85257,6,0,P|390:247|374:276,1,90,0|8,0:0|0:0,0:0:0:0:
409,339,85614,1,0,0:0:0:0:
319,349,85793,2,0,P|246:368|204:358,1,90,2|0,0:0|0:0,0:0:0:0:
256,192,86061,12,0,88294,0:0:0:0:
124,100,88651,6,0,P|124:172|156:208,1,90,6|0,0:0|0:0,0:0:0:0:
206,133,89009,2,0,L|326:133,1,90
340,134,89276,1,0,0:0:0:0:
385,135,89366,2,0,P|442:213|392:290,1,180
348,212,89902,2,0,L|305:320,1,90,0|2,0:0|0:0,0:0:0:0:
233,334,90259,5,0,0:0:0:0:
233,334,90349,1,0,0:0:0:0:
233,334,90438,2,0,P|164:264|139:273,1,135
131,314,90795,2,0,P|56:288|29:251,1,90
37,192,91153,2,0,L|37:83,1,90
112,52,91510,6,0,L|127:50,1,11.25,6|0,0:0|0:0,0:0:0:0:
138,68,91599,2,0,L|153:66,1,11.25
163,85,91689,2,0,L|178:83,1,11.25
188,102,91778,2,0,L|203:100,1,11.25
216,116,91867,2,0,L|231:114,1,11.25,4|0,0:0|0:0,0:0:0:0:
243,131,91957,2,0,L|258:129,1,11.25
270,146,92046,2,0,L|285:144,1,11.25
299,159,92135,2,0,L|314:157,1,11.25
328,172,92225,2,0,L|343:170,1,11.25,4|0,0:0|0:0,0:0:0:0:
355,187,92314,2,0,L|370:185,1,11.25
384,200,92403,2,0,L|399:198,1,11.25
412,214,92493,2,0,L|427:212,1,11.25
441,227,92582,2,0,L|456:225,1,11.25,4|0,0:0|0:0,0:0:0:0:
454,248,92671,2,0,L|469:246,1,11.25
450,265,92761,2,0,L|465:263,1,11.25
442,278,92850,2,0,L|457:276,1,11.25
439,295,92939,6,0,L|454:293,2,11.25
256,192,93029,12,0,95083,0:0:0:0:
