osu file format v12

[General]
AudioFilename: wuxuanlan.mp3
AudioLeadIn: 1000
PreviewTime: 16825
Countdown: 0
SampleSet: None
StackLeniency: 0.5
Mode: 0
LetterboxInBreaks: 1

[Editor]
Bookmarks: 1373,27905,51489,62209,68641
DistanceSpacing: 1
BeatDivisor: 4
GridSize: 8

[Metadata]
Title:Wu Xuan Lan
TitleUnicode:Wu Xuan Lan
Artist:Ci Mei Gui
ArtistUnicode:Ci Mei Gui
Creator:OrangeNeKo
Version:Ts8zStyle
Source:MuziBox
Tags:IGS wantuole OraneNeKo Zweib Left 4 Dead Osu_Cc1Y7 XiaoP_GJ Angelina_Rocca S I N N -WhiteNEKO- __Ag Melt Nunnally Lamperouge ts8zs
BeatmapID:269406
BeatmapSetID:93706

[Difficulty]
HPDrainRate:6
CircleSize:4
OverallDifficulty:6
ApproachRate:8
SliderMultiplier:1.5
SliderTickRate:1

[Events]
//Background and Video events
0,0,"bg.jpg",0,0
//Break Periods
//Storyboard Layer 0 (Background)
//Storyboard Layer 1 (Fail)
//Storyboard Layer 2 (Pass)
//Storyboard Layer 3 (Foreground)
//Storyboard Sound Samples
//Background Colour Transformations
3,100,163,162,255

[TimingPoints]
34,357.330030015723,4,2,2,40,1,0
17185,-100,4,2,2,40,0,1
40054,-100,4,2,2,40,0,0
74358,-100,4,2,2,40,0,1
85793,-100,4,2,2,40,0,0
97138,-100,4,2,2,40,0,0

[Colours]
Combo1 : 255,128,255
Combo2 : 255,255,128
Combo3 : 0,255,0
Combo4 : 0,0,255

[HitObjects]
64,192,1641,2,0,P|128:224|208:216,1,150,0|0,0:0|0:0,0:0:0:0:
160,72,2355,1,0,0:0:0:0:
64,192,2713,1,0,0:0:0:0:
160,72,3071,2,0,P|232:56|312:80,1,150,0|0,0:0|0:0,0:0:0:0:
224,200,3785,1,0,0:0:0:0:
264,136,3964,1,8,0:0:0:0:
304,72,4143,1,0,0:0:0:0:
224,200,4500,6,0,P|288:208|336:112,1,150,0|0,0:0|0:0,0:0:0:0:
336,296,5215,1,0,0:0:0:0:
224,200,5572,1,0,0:0:0:0:
336,296,5929,2,0,P|408:272|456:216,2,150,0|0|0,0:0|0:0|0:0,0:0:0:0:
264,296,6823,5,8,0:0:0:0:
336,296,7001,2,0,P|312:352|208:344,1,150,0|0,0:0|0:0,0:0:0:0:
120,264,7716,1,0,0:0:0:0:
40,136,8073,2,0,P|112:112|184:128,1,150,0|0,0:0|0:0,0:0:0:0:
120,264,8788,1,0,0:0:0:0:
40,136,9145,1,0,0:0:0:0:
120,264,9503,1,0,0:0:0:0:
152,192,9681,1,8,0:0:0:0:
184,128,9860,1,0,0:0:0:0:
312,48,10217,6,0,P|336:120|320:192,1,150,0|0,0:0|0:0,0:0:0:0:
184,128,10932,1,0,0:0:0:0:
312,48,11289,1,0,0:0:0:0:
448,112,11647,1,0,0:0:0:0:
320,192,12004,1,0,0:0:0:0:
184,128,12361,1,0,0:0:0:0:
248,88,12540,1,8,0:0:0:0:
312,48,12719,1,0,0:0:0:0:
184,128,13969,5,8,0:0:0:0:
184,128,14059,1,0,0:0:0:0:
184,128,14148,1,0,0:0:0:0:
184,128,14237,1,0,0:0:0:0:
184,128,14327,1,0,0:0:0:0:
256,192,14416,12,0,16828,0:0:0:0:
352,184,17185,5,0,0:0:0:0:
400,128,17364,1,0,0:0:0:0:
352,184,17543,1,8,0:0:0:0:
424,200,17900,1,0,0:0:0:0:
400,128,18079,1,0,0:0:0:0:
256,88,18436,6,0,P|216:128|128:152,1,150,0|0,0:0|0:0,0:0:0:0:
272,184,19151,2,0,P|200:216|128:224,1,150,0|0,0:0|0:0,0:0:0:0:
56,224,19687,1,8,0:0:0:0:
128,224,19865,1,0,0:0:0:0:
152,296,20044,6,0,L|224:320,1,75,0|0,0:0|0:0,0:0:0:0:
152,296,20401,1,8,0:0:0:0:
208,248,20759,1,0,0:0:0:0:
224,320,20937,1,0,0:0:0:0:
88,80,21295,5,0,0:0:0:0:
248,80,21652,1,0,0:0:0:0:
168,80,22009,1,0,0:0:0:0:
328,80,22367,1,0,0:0:0:0:
408,80,22545,1,8,0:0:0:0:
328,80,22724,1,0,0:0:0:0:
368,144,22903,5,0,0:0:0:0:
408,208,23081,2,0,L|368:144,1,75,0|8,0:0|0:0,0:0:0:0:
448,144,23617,1,0,0:0:0:0:
408,208,23796,1,0,0:0:0:0:
256,192,24153,5,0,0:0:0:0:
152,304,24511,2,0,P|240:344|304:336,1,150,0|0,0:0|0:0,0:0:0:0:
256,192,25225,1,0,0:0:0:0:
208,248,25404,1,8,0:0:0:0:
152,304,25583,1,0,0:0:0:0:
136,232,25761,5,0,0:0:0:0:
208,104,26119,1,8,0:0:0:0:
168,168,26297,1,0,0:0:0:0:
208,104,26476,1,0,0:0:0:0:
24,240,27012,5,0,0:0:0:0:
176,240,27369,1,0,0:0:0:0:
328,240,27727,1,0,0:0:0:0:
480,240,28084,1,0,0:0:0:0:
328,80,28620,5,0,0:0:0:0:
256,56,28799,1,0,0:0:0:0:
272,128,28977,1,8,0:0:0:0:
200,104,29335,1,0,0:0:0:0:
256,56,29513,1,0,0:0:0:0:
192,192,29871,6,0,P|272:232|328:216,3,150,0|0|0|0,0:0|0:0|0:0|0:0,0:0:0:0:
384,168,31121,1,8,0:0:0:0:
328,216,31300,1,0,0:0:0:0:
320,144,31479,5,0,0:0:0:0:
312,72,31657,1,0,0:0:0:0:
320,144,31836,1,8,0:0:0:0:
384,96,32193,1,0,0:0:0:0:
312,72,32372,1,0,0:0:0:0:
240,208,32729,2,0,P|296:240|376:224,2,150,0|0|0,0:0|0:0|0:0,0:0:0:0:
136,96,33801,1,0,0:0:0:0:
208,80,33980,1,8,0:0:0:0:
136,96,34159,1,0,0:0:0:0:
64,112,34337,5,0,0:0:0:0:
112,168,34516,1,0,0:0:0:0:
136,96,34695,1,8,0:0:0:0:
88,40,35052,1,0,0:0:0:0:
136,96,35231,1,0,0:0:0:0:
112,168,35588,5,0,0:0:0:0:
256,224,35945,1,0,0:0:0:0:
112,168,36302,1,0,0:0:0:0:
256,224,36660,1,0,0:0:0:0:
184,200,36838,1,8,0:0:0:0:
256,224,37017,1,0,0:0:0:0:
240,152,37196,5,0,0:0:0:0:
128,248,37553,1,8,0:0:0:0:
184,200,37732,1,0,0:0:0:0:
128,248,37910,1,0,0:0:0:0:
296,96,38446,5,0,0:0:0:0:
432,152,38804,2,0,L|416:112,1,37.5,0|0,0:0|0:0,0:0:0:0:
400,80,38982,2,0,P|352:112|312:120,1,75,8|0,0:0|0:0,0:0:0:0:
296,120,39250,2,0,L|288:168,1,37.5,0|0,0:0|0:0,0:0:0:0:
280,232,39518,1,0,0:0:0:0:
328,168,39697,2,0,L|368:104,1,75,8|0,0:0|0:0,0:0:0:0:
408,40,40054,1,0,0:0:0:0:
160,192,40412,5,8,0:0:0:0:
328,192,40948,1,0,0:0:0:0:
80,192,41841,1,8,0:0:0:0:
248,192,42377,1,0,0:0:0:0:
80,272,43270,5,8,0:0:0:0:
80,112,43806,1,0,0:0:0:0:
80,352,44700,1,8,0:0:0:0:
80,192,45236,1,0,0:0:0:0:
160,352,46129,5,8,0:0:0:0:
0,352,46665,1,0,0:0:0:0:
240,352,47558,1,8,0:0:0:0:
80,352,48094,1,0,0:0:0:0:
320,352,48988,5,8,0:0:0:0:
160,352,49524,1,0,0:0:0:0:
400,352,50417,1,8,0:0:0:0:
240,352,50953,1,0,0:0:0:0:
320,352,51132,1,8,0:0:0:0:
400,352,51310,1,0,0:0:0:0:
480,352,51846,5,8,0:0:0:0:
480,352,52382,1,0,0:0:0:0:
480,32,53276,1,8,0:0:0:0:
480,32,53812,1,0,0:0:0:0:
32,32,54705,1,8,0:0:0:0:
32,32,55241,1,0,0:0:0:0:
32,352,56134,1,8,0:0:0:0:
32,352,56670,1,0,0:0:0:0:
384,192,57564,5,8,0:0:0:0:
384,192,58100,1,0,0:0:0:0:
128,192,58993,1,8,0:0:0:0:
128,192,59529,1,0,0:0:0:0:
256,192,60422,1,8,0:0:0:0:
256,192,60958,1,0,0:0:0:0:
256,304,61852,5,8,0:0:0:0:
192,248,62388,2,0,P|216:216|224:176,1,75,0|8,0:0|0:0,0:0:0:0:
288,128,62745,2,0,P|264:96|256:56,1,75,0|0,0:0|0:0,0:0:0:0:
144,112,63281,5,8,0:0:0:0:
64,112,63638,1,0,0:0:0:0:
144,112,63817,1,0,0:0:0:0:
224,112,64174,1,0,0:0:0:0:
304,112,64532,1,0,0:0:0:0:
384,112,64889,1,0,0:0:0:0:
464,112,65246,1,0,0:0:0:0:
384,112,65425,1,8,0:0:0:0:
464,112,65604,1,0,0:0:0:0:
424,184,65782,5,0,0:0:0:0:
400,256,65961,1,0,0:0:0:0:
472,240,66139,1,8,0:0:0:0:
496,168,66497,1,0,0:0:0:0:
424,184,66675,1,0,0:0:0:0:
264,288,67033,6,0,P|344:328|400:312,3,150,0|0|0|0,0:0|0:0|0:0|0:0,0:0:0:0:
456,272,68283,1,8,0:0:0:0:
392,240,68462,1,0,0:0:0:0:
416,168,68641,5,0,0:0:0:0:
344,176,68819,1,0,0:0:0:0:
416,168,68998,1,8,0:0:0:0:
368,104,69355,1,0,0:0:0:0:
344,176,69534,1,0,0:0:0:0:
472,96,69891,2,0,P|504:152|488:232,2,150,0|0|0,0:0|0:0|0:0,0:0:0:0:
344,176,70963,1,0,0:0:0:0:
416,208,71142,1,8,0:0:0:0:
488,232,71321,1,0,0:0:0:0:
432,280,71500,5,0,0:0:0:0:
408,136,71857,1,8,0:0:0:0:
280,208,72214,1,0,0:0:0:0:
344,176,72393,5,0,0:0:0:0:
488,232,72750,1,0,0:0:0:0:
344,176,73107,1,0,0:0:0:0:
208,112,73465,1,0,0:0:0:0:
344,176,73822,1,0,0:0:0:0:
408,136,74001,1,8,0:0:0:0:
472,96,74179,1,0,0:0:0:0:
408,56,74358,5,0,0:0:0:0:
344,96,74537,1,0,0:0:0:0:
408,136,74715,1,8,0:0:0:0:
408,136,75073,1,0,0:0:0:0:
344,96,75251,1,0,0:0:0:0:
456,192,75609,6,0,P|401:207|336:144,3,150,0|0|0|0,0:0|0:0|0:0|0:0,0:0:0:0:
408,136,76859,1,8,0:0:0:0:
472,96,77038,1,0,0:0:0:0:
408,56,77217,5,0,0:0:0:0:
344,96,77395,1,0,0:0:0:0:
408,56,77574,1,8,0:0:0:0:
344,24,77931,1,0,0:0:0:0:
344,96,78110,1,0,0:0:0:0:
272,152,78467,2,0,P|328:184|408:168,2,150,0|0|0,0:0|0:0|0:0,0:0:0:0:
200,168,79539,1,0,0:0:0:0:
272,152,79718,1,8,0:0:0:0:
200,168,79897,1,0,0:0:0:0:
128,184,80075,5,0,0:0:0:0:
56,200,80254,1,0,0:0:0:0:
128,184,80433,1,8,0:0:0:0:
80,128,80790,1,0,0:0:0:0:
56,200,80969,1,0,0:0:0:0:
200,168,81326,5,0,0:0:0:0:
56,200,81683,1,0,0:0:0:0:
272,152,82040,1,0,0:0:0:0:
128,184,82398,1,0,0:0:0:0:
176,240,82576,1,8,0:0:0:0:
200,168,82755,1,0,0:0:0:0:
272,152,82934,5,0,0:0:0:0:
128,184,83291,1,8,0:0:0:0:
104,256,83470,1,0,0:0:0:0:
176,240,83648,1,0,0:0:0:0:
152,112,84185,5,0,0:0:0:0:
176,240,84543,2,0,L|192:280,1,37.5,0|0,0:0|0:0,0:0:0:0:
208,312,84721,2,0,P|256:280|296:272,1,75,8|0,0:0|0:0,0:0:0:0:
312,272,84989,2,0,L|320:224,1,37.5,0|0,0:0|0:0,0:0:0:0:
328,160,85257,1,0,0:0:0:0:
368,96,85436,2,0,L|328:160,1,75,8|0,0:0|0:0,0:0:0:0:
288,224,85793,2,0,L|288:264,2,37.5,0|0|0,0:0|0:0|0:0,0:0:0:0:
288,152,86150,1,8,0:0:0:0:
288,80,86686,5,0,0:0:0:0:
224,120,86865,1,8,0:0:0:0:
224,48,87043,1,0,0:0:0:0:
224,200,87401,1,0,0:0:0:0:
152,176,87579,1,8,0:0:0:0:
168,248,87758,1,0,0:0:0:0:
136,104,88115,1,0,0:0:0:0:
80,152,88294,1,8,0:0:0:0:
64,80,88473,1,0,0:0:0:0:
104,224,88830,5,0,0:0:0:0:
176,208,89009,1,8,0:0:0:0:
160,280,89187,1,0,0:0:0:0:
192,136,89545,1,0,0:0:0:0:
264,152,89723,1,8,0:0:0:0:
240,80,89902,1,0,0:0:0:0:
288,224,90259,1,0,0:0:0:0:
360,192,90438,1,8,0:0:0:0:
352,264,90617,1,0,0:0:0:0:
368,112,90974,5,0,0:0:0:0:
432,160,91153,1,8,0:0:0:0:
440,88,91331,1,0,0:0:0:0:
496,144,91510,5,0,0:0:0:0:
464,216,91689,1,0,0:0:0:0:
336,288,92046,1,0,0:0:0:0:
184,288,92403,1,0,0:0:0:0:
48,216,92761,1,0,0:0:0:0:
16,144,92939,1,0,0:0:0:0:
