osu file format v13

[General]
AudioFilename: wuxuanlan.mp3
AudioLeadIn: 1000
PreviewTime: 16825
Countdown: 0
SampleSet: Soft
StackLeniency: 0.5
Mode: 0
LetterboxInBreaks: 1
WidescreenStoryboard: 0

[Editor]
Bookmarks: 1373,27905,51489,62209,68641
DistanceSpacing: 0.9
BeatDivisor: 4
GridSize: 4
TimelineZoom: 1

[Metadata]
Title:Wu Xuan Lan
TitleUnicode:舞·絢爛
Artist:Ci Mei Gui
ArtistUnicode:刺玫瑰
Creator:OrangeNeKo
Version:Neko.I
Source:MuziBox
Tags:IGS wantuole OraneNeKo Zweib Left 4 Dead Osu_Cc1Y7 XiaoP_GJ Angelina_Rocca S I N N -WhiteNEKO- __Ag Melt Nunnally Lamperouge ts8zs
BeatmapID:260772
BeatmapSetID:93706

[Difficulty]
HPDrainRate:8
CircleSize:5
OverallDifficulty:7
ApproachRate:9
SliderMultiplier:2.1
SliderTickRate:1

[Events]
//Background and Video events
0,0,"bg.jpg",0,0
//Break Periods
//Storyboard Layer 0 (Background)
//Storyboard Layer 1 (Fail)
//Storyboard Layer 2 (Pass)
//Storyboard Layer 3 (Foreground)
//Storyboard Sound Samples
//Background Colour Transformations
3,100,163,162,255

[TimingPoints]
34,357.330030015723,4,2,1,80,1,0
1373,-100,4,2,0,80,0,0
1552,-100,4,2,1,80,0,0
12808,-100,4,2,0,80,0,0
12942,-100,4,2,2,60,0,0
14282,-100,4,2,0,5,0,0
16605,-100,4,2,2,20,0,0
16783,-100,4,2,2,60,0,0
17185,-83.3333333333333,4,2,0,80,0,1
17275,-83.3333333333333,4,2,2,80,0,1
27995,-83.3333333333333,4,2,0,20,0,1
28173,-83.3333333333333,4,2,0,40,0,1
28352,-83.3333333333333,4,2,0,60,0,1
28531,-83.3333333333333,4,2,0,80,0,1
28709,-83.3333333333333,4,2,2,80,0,1
40054,-100,4,2,0,80,0,0
40322,-100,4,2,0,40,0,0
40501,-100,4,2,2,80,0,0
41662,-100,4,2,0,5,0,0
41796,-100,4,2,2,80,0,0
43092,-100,4,2,0,5,0,0
43226,-100,4,2,2,80,0,0
44521,-100,4,2,0,5,0,0
44655,-100,4,2,2,80,0,0
45995,-100,4,2,0,5,0,0
46084,-100,4,2,2,80,0,0
47424,-100,4,2,0,5,0,0
47514,-100,4,2,2,80,0,0
48854,-100,4,2,0,5,0,0
48943,-100,4,2,2,80,0,0
50283,-100,4,2,0,5,0,0
50372,-100,4,2,2,80,0,0
50864,-100,4,2,2,40,0,0
51400,-100,4,2,0,80,0,0
51757,-100,4,2,0,40,0,0
51936,-100,4,2,2,80,0,0
53142,-100,4,2,0,5,0,0
53231,-100,4,2,2,80,0,0
54571,-100,4,2,2,5,0,0
54660,-100,4,2,2,80,0,0
56000,-100,4,2,0,5,0,0
56090,-100,4,2,2,80,0,0
57430,-100,4,2,0,5,0,0
57519,-100,4,2,2,80,0,0
58859,-100,4,2,0,5,0,0
58948,-100,4,2,2,80,0,0
60288,-100,4,2,0,5,0,0
60378,-100,4,2,2,80,0,0
62924,-125,4,2,0,80,0,0
63013,-125,4,2,2,80,0,0
65693,-125,4,2,0,40,0,0
65872,-125,4,2,2,80,0,0
68552,-125,4,2,0,40,0,0
68730,-125,4,2,2,80,0,0
71410,-125,4,2,0,40,0,0
71544,-125,4,2,2,40,0,0
72884,-125,4,2,2,60,0,0
73599,-125,4,2,2,40,0,0
73956,-100,4,2,2,5,0,0
74358,-83.3333333333333,4,2,0,80,0,1
74626,-83.3333333333333,4,2,0,40,0,1
74805,-83.3333333333333,4,2,2,80,0,1
85793,-100,4,2,0,80,0,0
85882,-100,4,2,1,80,0,0
91421,-100,4,2,0,30,0,0
94369,-100,4,2,0,15,0,0
95798,-100,4,2,0,5,0,0
97138,-100,4,2,0,5,0,0

[Colours]
Combo1 : 255,128,255
Combo2 : 255,255,128
Combo3 : 0,255,0
Combo4 : 0,0,255

[HitObjects]
108,320,1463,5,4,0:0:0:0:
80,220,1820,1,8,0:0:0:0:
172,168,2177,1,2,0:0:0:0:
264,220,2535,1,8,0:0:0:0:
264,220,2713,2,0,P|316:232|368:216,1,105,0|2,0:0|0:0,0:0:0:0:
368,124,3071,2,0,P|316:112|264:128,1,105,0|2,0:0|0:0,0:0:0:0:
188,76,3428,1,0,0:0:0:0:
188,76,3517,1,0,0:0:0:0:
188,76,3607,5,2,0:0:0:0:
316,172,3785,1,0,0:0:0:0:
340,264,3965,1,8,0:0:0:0:
428,236,4143,1,0,0:0:0:0:
376,316,4321,6,0,P|384:256|404:216,1,105,2|0,0:0|0:0,0:0:0:0:
256,240,4679,2,0,B|260:272|252:312|256:348,1,105,8|0,0:0|0:0,0:0:0:0:
136,316,5036,2,0,P|128:256|108:216,1,105,2|0,0:0|0:0,0:0:0:0:
180,156,5394,1,8,0:0:0:0:
40,264,5572,2,0,P|32:208|48:160,1,105,0|2,0:0|0:0,0:0:0:0:
188,72,5929,6,0,P|156:120|116:144,1,105,0|8,0:0|0:0,0:0:0:0:
100,148,6197,1,0,0:0:0:0:
84,148,6287,1,0,0:0:0:0:
28,72,6465,5,2,0:0:0:0:
156,124,6644,1,0,0:0:0:0:
284,72,6823,1,8,0:0:0:0:
408,128,7001,1,0,0:0:0:0:
316,156,7180,5,2,0:0:0:0:
324,128,7269,1,0,0:0:0:0:
344,104,7359,1,0,0:0:0:0:
420,160,7537,2,0,P|428:220|420:264,1,105,8|0,0:0|0:0,0:0:0:0:
344,324,7895,2,0,P|336:264|344:220,1,105,2|0,0:0|0:0,0:0:0:0:
256,180,8253,1,8,0:0:0:0:
168,220,8431,2,0,P|176:264|168:324,1,105,0|2,0:0|0:0,0:0:0:0:
92,264,8788,2,0,P|84:220|92:160,1,105,0|8,0:0|0:0,0:0:0:0:
16,104,9145,5,0,0:0:0:0:
48,116,9235,1,0,0:0:0:0:
80,116,9324,1,2,0:0:0:0:
164,76,9503,1,0,0:0:0:0:
296,40,9682,1,8,0:0:0:0:
256,172,9860,1,0,0:0:0:0:
236,80,10039,6,0,P|228:136|256:172,1,105,2|0,0:0|0:0,0:0:0:0:
187,236,10396,2,0,P|239:214|256:172,1,105,8|0,0:0|0:0,0:0:0:0:
347,201,10753,2,0,P|302:166|257:172,1,105,2|0,0:0|0:0,0:0:0:0:
168,136,11111,1,8,0:0:0:0:
280,256,11289,2,0,P|292:312|276:360,1,105,0|2,0:0|0:0,0:0:0:0:
196,308,11647,2,0,P|168:264|120:240,1,105,0|8,0:0|0:0,0:0:0:0:
108,240,11915,1,0,0:0:0:0:
92,244,12004,1,0,0:0:0:0:
160,308,12183,5,2,0:0:0:0:
188,216,12361,1,0,0:0:0:0:
256,120,12540,1,8,0:0:0:0:
380,64,12718,1,0,0:0:0:0:
284,56,12897,5,4,0:0:0:0:
312,72,12987,1,0,0:0:0:0:
328,100,13076,1,0,0:0:0:0:
332,132,13165,1,0,0:0:0:0:
324,164,13255,1,0,0:0:0:0:
304,188,13344,1,0,0:0:0:0:
288,216,13433,1,0,0:0:0:0:
280,248,13523,1,0,0:0:0:0:
292,276,13612,5,0,0:0:0:0:
320,292,13701,1,0,0:0:0:0:
352,284,13791,1,0,0:0:0:0:
380,272,13880,1,0,0:0:0:0:
412,276,13969,1,0,0:0:0:0:
436,296,14059,1,0,0:0:0:0:
440,332,14148,1,0,0:0:0:0:
416,356,14237,1,0,0:0:0:0:
256,192,14327,12,0,16113,0:0:0:0:
152,192,16292,6,0,L|120:192,6,26.25
192,176,16649,5,2,0:0:0:0:
192,220,16739,1,2,0:0:0:0:
156,240,16828,1,2,0:0:0:0:
116,224,16917,1,2,0:0:0:0:
108,184,17007,1,2,0:0:0:0:
132,148,17096,1,2,0:0:0:0:
176,136,17185,2,0,B|224:168|268:164|268:164|296:152,2,125.999996154785,4|0|6,0:0|0:0|0:0,0:0:0:0:
64,80,17721,5,0,0:0:0:0:
176,136,17900,1,6,0:0:0:0:
288,80,18079,1,0,0:0:0:0:
64,80,18257,1,8,0:0:0:0:
288,80,18436,1,0,0:0:0:0:
172,28,18615,5,2,0:0:0:0:
268,112,18793,1,0,0:0:0:0:
376,152,18972,1,8,0:0:0:0:
356,176,19061,1,0,0:0:0:0:
348,208,19151,1,0,0:0:0:0:
344,240,19240,1,0,0:0:0:0:
352,272,19329,1,2,0:0:0:0:
444,340,19508,1,0,0:0:0:0:
332,352,19687,5,8,0:0:0:0:
416,280,19865,1,0,0:0:0:0:
308,252,20044,2,0,B|240:264|216:332|216:332|152:352|88:328,1,251.999992309571,6|12,0:0|0:0,0:0:0:0:
204,364,20580,5,0,0:0:0:0:
140,268,20759,1,6,0:0:0:0:
40,216,20937,1,0,0:0:0:0:
20,328,21116,1,8,0:0:0:0:
152,156,21295,1,0,0:0:0:0:
68,80,21474,5,2,0:0:0:0:
168,128,21652,1,0,0:0:0:0:
236,220,21831,1,8,0:0:0:0:
224,332,22009,1,0,0:0:0:0:
272,228,22188,6,0,B|356:160|472:180|472:180|496:144,1,251.999992309571,2|8,0:0|0:0,0:0:0:0:
420,60,22724,1,0,0:0:0:0:
392,260,22903,2,0,P|320:336|176:340,1,251.999992309571,6|12,0:0|0:0,0:0:0:0:
68,352,23439,5,0,0:0:0:0:
172,312,23617,1,6,0:0:0:0:
212,204,23796,1,0,0:0:0:0:
76,92,23974,1,8,0:0:0:0:
188,76,24153,1,0,0:0:0:0:
100,228,24332,5,2,0:0:0:0:
212,204,24511,1,0,0:0:0:0:
112,152,24689,1,8,0:0:0:0:
144,172,24779,1,0,0:0:0:0:
156,208,24868,1,0,0:0:0:0:
172,240,24957,1,0,0:0:0:0:
204,256,25047,5,2,0:0:0:0:
220,368,25225,1,0,0:0:0:0:
236,256,25404,1,8,0:0:0:0:
404,356,25583,1,0,0:0:0:0:
400,232,25761,6,0,P|412:300|400:360,1,125.999996154785,6|0,0:0|0:0,0:0:0:0:
256,200,26119,2,0,B|256:156|256:156|248:116|248:116|256:72,1,125.999996154785,12|0,0:0|0:0,0:0:0:0:
112,232,26476,2,0,P|100:300|112:360,1,125.999996154785,6|0,0:0|0:0,0:0:0:0:
192,276,26833,5,8,0:0:0:0:
84,308,27012,1,0,0:0:0:0:
328,192,27191,1,2,0:0:0:0:
436,224,27370,1,0,0:0:0:0:
256,48,27548,1,8,0:0:0:0:
148,80,27727,1,0,0:0:0:0:
356,80,27905,1,2,0:0:0:0:
256,236,28084,5,4,0:0:0:0:
208,192,28263,1,4,0:0:0:0:
256,152,28441,1,4,0:0:0:0:
304,192,28620,2,0,B|276:284|204:312|204:312|156:292|104:284,1,251.999992309571,4|6,0:0|0:0,0:0:0:0:
24,352,29156,5,0,0:0:0:0:
132,324,29334,1,6,0:0:0:0:
152,212,29513,1,0,0:0:0:0:
236,288,29691,5,8,0:0:0:0:
132,240,29871,1,0,0:0:0:0:
64,80,30049,1,2,0:0:0:0:
164,132,30228,1,0,0:0:0:0:
272,100,30406,1,8,0:0:0:0:
308,104,30496,1,0,0:0:0:0:
340,124,30585,1,0,0:0:0:0:
356,160,30675,1,0,0:0:0:0:
388,144,30763,1,2,0:0:0:0:
284,192,30943,1,0,0:0:0:0:
436,92,31120,5,8,0:0:0:0:
416,204,31300,1,0,0:0:0:0:
468,304,31479,2,0,B|408:344|312:292|312:292|256:288|224:304,1,251.999992309571,6|12,0:0|0:0,0:0:0:0:
336,268,32015,5,0,0:0:0:0:
272,360,32193,1,6,0:0:0:0:
164,328,32372,1,0,0:0:0:0:
340,336,32550,1,8,0:0:0:0:
232,304,32729,1,0,0:0:0:0:
376,200,32908,5,2,0:0:0:0:
208,280,33087,1,0,0:0:0:0:
52,204,33265,1,8,0:0:0:0:
212,268,33444,1,0,0:0:0:0:
36,276,33623,2,0,B|80:216|128:192|128:192|204:204|248:160,1,251.999992309571,2|8,0:0|0:0,0:0:0:0:
164,84,34159,5,0,0:0:0:0:
44,280,34337,2,0,B|88:220|136:196|136:196|212:208|256:164,1,251.999992309571,6|12,0:0|0:0,0:0:0:0:
240,276,34873,5,0,0:0:0:0:
276,168,35051,1,6,0:0:0:0:
384,132,35231,1,0,0:0:0:0:
468,56,35409,2,0,P|408:32|344:36,1,125.999996154785,8|0,0:0|0:0,0:0:0:0:
236,40,35766,5,2,0:0:0:0:
348,64,35945,1,0,0:0:0:0:
184,124,36123,1,8,0:0:0:0:
72,136,36302,1,0,0:0:0:0:
228,220,36481,1,2,0:0:0:0:
340,240,36660,1,0,0:0:0:0:
284,140,36838,5,8,0:0:0:0:
308,252,37017,1,0,0:0:0:0:
392,328,37196,2,0,P|456:276|476:236,1,125.999996154785,6|0,0:0|0:0,0:0:0:0:
476,124,37553,2,0,P|412:176|392:216,1,125.999996154785,12|0,0:0|0:0,0:0:0:0:
332,308,37910,1,6,0:0:0:0:
220,320,38089,1,0,0:0:0:0:
256,324,38178,1,0,0:0:0:0:
288,320,38267,1,8,0:0:0:0:
176,308,38446,1,0,0:0:0:0:
240,212,38625,5,2,0:0:0:0:
140,356,38804,1,8,0:0:0:0:
228,204,38982,1,8,0:0:0:0:
84,308,39161,1,8,0:0:0:0:
60,268,39250,1,8,0:0:0:0:
56,220,39340,1,2,0:0:0:0:
112,124,39518,1,8,0:0:0:0:
164,224,39697,1,2,0:0:0:0:
80,176,39876,1,2,0:0:0:0:
172,168,40054,6,0,B|232:160|260:140|260:140|272:104|296:80,1,157.5,4|0,0:0|0:0,0:0:0:0:
296,72,40412,2,0,P|375:74|484:144,1,210
432,64,40948,5,4,0:0:0:0:
384,144,41126,1,8,0:0:0:0:
292,164,41305,1,0,0:0:0:0:
268,256,41484,2,0,P|352:308|412:328,1,157.5,2|0,0:0|0:0,0:0:0:0:
416,320,41841,2,0,P|352:264|376:204,1,157.5,12|0,0:0|0:0,0:0:0:0:
416,256,42198,5,2,0:0:0:0:
304,352,42377,1,4,0:0:0:0:
160,328,42556,2,0,B|96:352|96:352|60:352,1,105,8|0,0:0|0:0,0:0:0:0:
152,356,42913,6,0,P|40:300|32:276,1,157.5,2|0,0:0|0:0,0:0:0:0:
24,272,43270,2,0,P|72:292|144:228,1,157.5,12|0,0:0|0:0,0:0:0:0:
76,228,43628,1,2,0:0:0:0:
96,84,43806,6,0,P|64:116|40:176,1,105,4|8,0:0|0:0,0:0:0:0:
32,24,44164,1,0,0:0:0:0:
124,160,44342,2,0,P|208:128|244:68,1,157.5,2|0,0:0|0:0,0:0:0:0:
269,73,44700,2,0,P|304:128|388:160,1,157.5,12|0,0:0|0:0,0:0:0:0:
428,224,45057,1,2,0:0:0:0:
368,72,45236,1,4,0:0:0:0:
432,240,45414,2,0,P|380:228|324:232,1,105,8|0,0:0|0:0,0:0:0:0:
256,172,45772,6,0,P|308:252|364:280,1,157.5
376,288,46129,2,0,P|284:288|264:340,1,157.5,12|0,0:0|0:0,0:0:0:0:
328,332,46486,1,2,0:0:0:0:
184,356,46665,6,0,B|112:332|112:332|88:308,1,105,4|8,0:0|0:0,0:0:0:0:
144,232,47022,1,0,0:0:0:0:
100,316,47201,6,0,P|176:328|232:276,1,157.5,2|0,0:0|0:0,0:0:0:0:
240,272,47558,2,0,P|168:220|136:160,1,157.5,12|0,0:0|0:0,0:0:0:0:
68,144,47916,1,2,0:0:0:0:
240,172,48094,6,0,P|184:160|144:128,1,105,4|8,0:0|0:0,0:0:0:0:
196,52,48452,1,0,0:0:0:0:
104,64,48630,6,0,P|200:32|256:44,1,157.5,2|0,0:0|0:0,0:0:0:0:
264,48,48988,2,0,B|328:72|328:72|368:56,1,105,12|0,0:0|0:0,0:0:0:0:
276,20,49345,5,2,0:0:0:0:
340,152,49524,1,4,0:0:0:0:
472,212,49702,1,8,0:0:0:0:
412,284,49881,1,0,0:0:0:0:
508,288,50060,6,0,P|412:256|356:268,1,157.5,2|0,0:0|0:0,0:0:0:0:
348,272,50417,2,0,B|316:324|316:324|276:328|228:288,1,157.5,12|0,0:0|0:0,0:0:0:0:
216,292,50774,1,2,0:0:0:0:
128,324,50953,1,4,0:0:0:0:
64,256,51132,2,0,P|88:208|88:152,1,105,12|4,0:0|0:0,0:0:0:0:
184,140,51489,6,0,P|116:196|48:196,1,157.5,4|0,0:0|0:0,0:0:0:0:
40,184,51846,2,0,P|112:132|104:72,1,157.5,4|0,0:0|0:0,0:0:0:0:
112,64,52204,1,2,0:0:0:0:
68,204,52383,5,4,0:0:0:0:
188,120,52561,1,8,0:0:0:0:
280,108,52740,1,0,0:0:0:0:
228,28,52918,6,0,B|248:68|256:128|256:128|304:156,1,157.5,2|0,0:0|0:0,0:0:0:0:
312,152,53276,2,0,B|356:144|356:144|376:88|420:40,1,157.5,12|0,0:0|0:0,0:0:0:0:
424,44,53633,1,2,0:0:0:0:
428,192,53812,1,4,0:0:0:0:
440,340,53990,2,0,P|408:288|368:264,1,105,8|0,0:0|0:0,0:0:0:0:
464,236,54348,6,0,P|368:300|328:300,1,157.5,2|0,0:0|0:0,0:0:0:0:
320,300,54705,2,0,B|256:252|208:240|208:240|200:200,1,157.5,12|0,0:0|0:0,0:0:0:0:
192,204,55063,1,2,0:0:0:0:
332,168,55241,1,4,0:0:0:0:
232,60,55420,6,0,P|256:112|256:160,1,105,8|0,0:0|0:0,0:0:0:0:
168,124,55777,2,0,P|112:148|52:84,1,157.5,2|0,0:0|0:0,0:0:0:0:
40,92,56134,2,0,L|56:284,1,157.5,12|0,0:0|0:0,0:0:0:0:
44,260,56492,1,2,0:0:0:0:
188,284,56671,1,4,0:0:0:0:
328,244,56849,2,0,B|400:228|400:228|436:240,1,105,8|0,0:0|0:0,0:0:0:0:
412,144,57206,6,0,P|412:232|352:280,1,157.5,2|0,0:0|0:0,0:0:0:0:
364,288,57564,2,0,P|284:320|216:304,1,157.5,12|0,0:0|0:0,0:0:0:0:
208,312,57921,1,2,0:0:0:0:
64,336,58100,1,4,0:0:0:0:
212,344,58278,6,0,P|136:324|120:304,1,105,8|0,0:0|0:0,0:0:0:0:
176,228,58636,2,0,P|184:160|152:72,1,157.5,2|0,0:0|0:0,0:0:0:0:
144,80,58993,2,0,P|96:172|52:176,1,157.5,12|0,0:0|0:0,0:0:0:0:
36,180,59351,1,2,0:0:0:0:
136,288,59529,1,4,0:0:0:0:
64,100,59708,2,0,P|100:64|156:52,1,105,8|0,0:0|0:0,0:0:0:0:
140,144,60065,6,0,P|180:68|260:48,1,157.5,2|0,0:0|0:0,0:0:0:0:
260,48,60422,2,0,P|264:112|328:184,1,157.5,12|0,0:0|0:0,0:0:0:0:
336,188,60780,1,2,0:0:0:0:
192,224,60959,1,4,0:0:0:0:
364,92,61137,1,8,0:0:0:0:
292,32,61316,5,0,0:0:0:0:
296,68,61405,1,0,0:0:0:0:
280,96,61494,2,0,P|320:152|352:168,1,105,2|0,0:0|0:0,0:0:0:0:
428,216,61852,2,0,P|400:288|372:304,1,105,12|0,0:0|0:0,0:0:0:0:
472,324,62209,6,0,L|420:288,1,52.5
388,268,62388,1,4,0:0:0:0:
300,304,62566,2,0,L|248:268,1,52.5,12|0,0:0|0:0,0:0:0:0:
216,248,62745,1,4,0:0:0:0:
256,48,62924,5,4,0:0:0:0:
264,120,65782,6,0,L|348:144,1,84,4|0,0:0|0:0,0:0:0:0:
248,264,66140,2,0,L|164:240,1,84,6|0,0:0|0:0,0:0:0:0:
272,108,66497,6,0,L|356:132,1,84,6|0,0:0|0:0,0:0:0:0:
240,276,66854,2,0,L|156:252,1,84,2|0,0:0|0:0,0:0:0:0:
280,96,67212,6,0,L|364:120,1,84,2|0,0:0|0:0,0:0:0:0:
232,288,67569,2,0,L|148:264,1,84,2|0,0:0|0:0,0:0:0:0:
284,84,67926,6,0,L|368:108,1,84,2|0,0:0|0:0,0:0:0:0:
228,300,68284,2,0,L|144:276,1,84,2|0,0:0|0:0,0:0:0:0:
84,88,68641,5,4,0:0:0:0:
200,156,68820,1,2,0:0:0:0:
316,88,68998,1,6,0:0:0:0:
432,156,69177,1,2,0:0:0:0:
100,88,69356,5,6,0:0:0:0:
216,156,69534,1,2,0:0:0:0:
328,88,69713,1,2,0:0:0:0:
448,156,69892,1,2,0:0:0:0:
396,296,70070,5,2,0:0:0:0:
280,228,70249,1,2,0:0:0:0:
168,296,70428,1,2,0:0:0:0:
52,228,70606,1,2,0:0:0:0:
380,296,70785,5,2,0:0:0:0:
264,228,70964,1,2,0:0:0:0:
152,296,71142,1,2,0:0:0:0:
40,228,71321,1,2,0:0:0:0:
60,328,71500,5,4,0:0:0:0:
60,316,71589,1,2,0:0:0:0:
60,304,71678,1,2,0:0:0:0:
64,292,71768,1,2,0:0:0:0:
68,280,71857,1,6,0:0:0:0:
76,268,71946,1,2,0:0:0:0:
84,256,72036,1,2,0:0:0:0:
92,248,72125,1,2,0:0:0:0:
104,240,72214,5,6,0:0:0:0:
112,228,72303,1,2,0:0:0:0:
116,212,72393,1,2,0:0:0:0:
116,192,72482,1,2,0:0:0:0:
104,176,72571,1,2,0:0:0:0:
92,152,72661,1,2,0:0:0:0:
96,128,72750,1,2,0:0:0:0:
116,112,72839,1,2,0:0:0:0:
140,112,72929,5,2,0:0:0:0:
172,128,73018,1,2,0:0:0:0:
180,160,73107,1,2,0:0:0:0:
212,188,73197,1,2,0:0:0:0:
252,192,73286,1,2,0:0:0:0:
300,180,73375,1,2,0:0:0:0:
328,136,73465,1,2,0:0:0:0:
320,88,73554,1,2,0:0:0:0:
268,88,73643,6,0,L|256:120,6,21
296,40,74001,2,0,P|352:28|404:40,1,105
448,152,74358,2,0,B|404:204|388:264|388:264|324:284|260:268,1,251.999992309571,4|6,0:0|0:0,0:0:0:0:
364,348,74894,5,0,0:0:0:0:
252,292,75072,1,6,0:0:0:0:
132,328,75251,1,0,0:0:0:0:
64,164,75429,1,8,0:0:0:0:
188,192,75609,1,0,0:0:0:0:
32,284,75787,5,2,0:0:0:0:
172,168,75966,1,0,0:0:0:0:
288,216,76144,1,8,0:0:0:0:
332,228,76234,1,0,0:0:0:0:
372,248,76323,1,0,0:0:0:0:
360,204,76413,1,0,0:0:0:0:
376,164,76501,1,2,0:0:0:0:
440,56,76681,1,0,0:0:0:0:
448,180,76858,5,8,0:0:0:0:
360,8,77038,1,0,0:0:0:0:
296,116,77217,2,0,B|216:104|216:104|128:140|128:140|100:112|52:108,1,251.999992309571,6|12,0:0|0:0,0:0:0:0:
172,52,77753,5,0,0:0:0:0:
108,160,77931,1,6,0:0:0:0:
48,272,78110,1,0,0:0:0:0:
132,180,78288,1,8,0:0:0:0:
160,304,78467,1,0,0:0:0:0:
52,372,78646,5,2,0:0:0:0:
112,260,78825,1,0,0:0:0:0:
224,200,79003,1,8,0:0:0:0:
280,312,79182,1,0,0:0:0:0:
404,292,79361,2,0,B|380:260|312:248|312:248|368:188|360:108,1,251.999992309571,2|8,0:0|0:0,0:0:0:0:
464,40,79897,5,0,0:0:0:0:
396,296,80075,2,0,B|372:264|304:252|304:252|360:192|352:112,1,251.999992309571,6|12,0:0|0:0,0:0:0:0:
464,40,80611,5,0,0:0:0:0:
280,152,80789,1,6,0:0:0:0:
156,136,80969,1,0,0:0:0:0:
88,32,81146,1,8,0:0:0:0:
128,152,81326,1,0,0:0:0:0:
72,264,81505,5,2,0:0:0:0:
12,372,81683,1,0,0:0:0:0:
192,228,81861,1,8,0:0:0:0:
188,356,82041,1,0,0:0:0:0:
320,156,82219,1,2,0:0:0:0:
324,28,82398,1,0,0:0:0:0:
440,120,82577,1,8,0:0:0:0:
500,12,82755,1,0,0:0:0:0:
376,280,82934,5,6,0:0:0:0:
136,104,83291,1,12,0:0:0:0:
428,316,83648,1,6,0:0:0:0:
384,320,83738,1,0,0:0:0:0:
348,344,83827,1,0,0:0:0:0:
312,320,83917,1,0,0:0:0:0:
304,276,84005,1,8,0:0:0:0:
372,168,84185,1,0,0:0:0:0:
464,252,84363,5,2,0:0:0:0:
300,192,84542,1,8,0:0:0:0:
180,320,84720,1,8,0:0:0:0:
68,260,84899,1,8,0:0:0:0:
84,236,84988,1,8,0:0:0:0:
84,208,85078,5,2,0:0:0:0:
180,60,85256,1,8,0:0:0:0:
316,220,85435,1,2,0:0:0:0:
408,64,85614,1,2,0:0:0:0:
432,168,85793,6,0,P|372:156|332:136,1,105,4|0,0:0|0:0,0:0:0:0:
252,224,86150,2,0,B|248:256|258:296|256:336,1,105,6|0,0:0|0:0,0:0:0:0:
80,168,86507,2,0,P|140:156|180:136,1,105,4|0,0:0|0:0,0:0:0:0:
284,156,86865,1,8,0:0:0:0:
104,80,87043,2,0,P|40:100|0:104,1,105,0|2,0:0|0:0,0:0:0:0:
124,56,87401,6,0,P|168:60|236:52,1,105,0|8,0:0|0:0,0:0:0:0:
240,52,87669,1,0,0:0:0:0:
252,52,87758,1,0,0:0:0:0:
264,48,87847,1,0,0:0:0:0:
276,44,87937,1,2,0:0:0:0:
368,68,88115,1,0,0:0:0:0:
424,144,88294,1,8,0:0:0:0:
368,68,88473,1,0,0:0:0:0:
464,72,88651,6,0,P|412:112|388:152,1,105,6|0,0:0|0:0,0:0:0:0:
376,240,89009,2,0,P|320:292|288:304,1,105,6|0,0:0|0:0,0:0:0:0:
200,296,89366,2,0,B|176:228|176:228|236:188|256:152|256:152|240:128,1,210,6|8,0:0|0:0,0:0:0:0:
164,72,89902,2,0,P|160:132|168:180,1,105,0|2,0:0|0:0,0:0:0:0:
72,164,90259,6,0,P|152:204|168:216,1,105,0|8,0:0|0:0,0:0:0:0:
144,308,90617,1,0,0:0:0:0:
120,320,90706,1,0,0:0:0:0:
96,344,90796,5,2,0:0:0:0:
372,192,90974,1,0,0:0:0:0:
396,204,91063,1,0,0:0:0:0:
420,228,91153,1,8,0:0:0:0:
256,68,91331,1,0,0:0:0:0:
256,192,91510,12,0,92939,0:0:0:0:
256,192,93029,12,0,97227,0:0:0:0:
