osu file format v12

[General]
AudioFilename: wuxuanlan.mp3
AudioLeadIn: 1489
PreviewTime: 16825
Countdown: 0
SampleSet: Soft
StackLeniency: 0.5
Mode: 0
LetterboxInBreaks: 1

[Editor]
Bookmarks: 1373,27905,51489,62209,68641
DistanceSpacing: 1
BeatDivisor: 4
GridSize: 4

[Metadata]
Title:Wu Xuan Lan
TitleUnicode:舞·絢爛
Artist:Ci Mei Gui
ArtistUnicode:刺玫瑰
Creator:OrangeNeKo
Version:Easier
Source:MuziBox
Tags:IGS wantuole OraneNeKo Zweib Left 4 Dead Osu_Cc1Y7 XiaoP_GJ Angelina_Rocca S I N N -WhiteNEKO- __Ag Melt Nunnally Lamperouge ts8zs
BeatmapID:260770
BeatmapSetID:93706

[Difficulty]
HPDrainRate:6
CircleSize:5
OverallDifficulty:8
ApproachRate:9
SliderMultiplier:2.1
SliderTickRate:1

[Events]
//Background and Video events
0,0,"bg.jpg",0,0
//Break Periods
//Storyboard Layer 0 (Background)
//Storyboard Layer 1 (Fail)
//Storyboard Layer 2 (Pass)
//Storyboard Layer 3 (Foreground)
//Storyboard Sound Samples
//Background Colour Transformations
3,100,163,162,255

[TimingPoints]
34,357.330030015723,4,2,1,80,1,0
1373,-100,4,2,0,80,0,0
1552,-100,4,2,1,80,0,0
12808,-100,4,2,0,80,0,0
12942,-100,4,2,2,60,0,0
14282,-100,4,2,0,5,0,0
16605,-100,4,2,2,20,0,0
16783,-100,4,2,2,60,0,0
17185,-83.3333333333333,4,2,0,80,0,1
17275,-83.3333333333333,4,2,2,80,0,1
27995,-83.3333333333333,4,2,0,20,0,1
28173,-83.3333333333333,4,2,0,40,0,1
28352,-83.3333333333333,4,2,0,60,0,1
28531,-83.3333333333333,4,2,0,80,0,1
28709,-83.3333333333333,4,2,2,80,0,1
40054,-100,4,2,0,80,0,0
40322,-100,4,2,0,40,0,0
40501,-100,4,2,2,80,0,0
41662,-100,4,2,0,5,0,0
41796,-100,4,2,2,80,0,0
43092,-100,4,2,0,5,0,0
43226,-100,4,2,2,80,0,0
44521,-100,4,2,0,5,0,0
44655,-100,4,2,2,80,0,0
45995,-100,4,2,0,5,0,0
46084,-100,4,2,2,80,0,0
47424,-100,4,2,0,5,0,0
47514,-100,4,2,2,80,0,0
48854,-100,4,2,0,5,0,0
48943,-100,4,2,2,80,0,0
50283,-100,4,2,0,5,0,0
50372,-100,4,2,2,80,0,0
50864,-100,4,2,2,40,0,0
51400,-100,4,2,0,80,0,0
51757,-100,4,2,0,40,0,0
51936,-100,4,2,2,80,0,0
53142,-100,4,2,0,5,0,0
53231,-100,4,2,2,80,0,0
54571,-100,4,2,2,5,0,0
54660,-100,4,2,2,80,0,0
56000,-100,4,2,0,5,0,0
56090,-100,4,2,2,80,0,0
57430,-100,4,2,0,5,0,0
57519,-100,4,2,2,80,0,0
58859,-100,4,2,0,5,0,0
58948,-100,4,2,2,80,0,0
60288,-100,4,2,0,5,0,0
60378,-100,4,2,2,80,0,0
62924,-125,4,2,0,80,0,0
63013,-125,4,2,2,80,0,0
65693,-125,4,2,0,40,0,0
65872,-125,4,2,2,80,0,0
68552,-125,4,2,0,40,0,0
68730,-125,4,2,2,80,0,0
71410,-125,4,2,0,40,0,0
71544,-125,4,2,2,40,0,0
72884,-125,4,2,2,60,0,0
73599,-125,4,2,2,40,0,0
73956,-100,4,2,2,5,0,0
74358,-83.3333333333333,4,2,0,80,0,1
74626,-83.3333333333333,4,2,0,40,0,1
74805,-83.3333333333333,4,2,2,80,0,1
85793,-100,4,2,0,80,0,0
85882,-100,4,2,1,80,0,0
91421,-100,4,2,0,30,0,0
94369,-100,4,2,0,15,0,0
95798,-100,4,2,0,5,0,0
97138,-100,4,2,0,5,0,0

[Colours]
Combo1 : 255,128,255
Combo2 : 255,255,128
Combo3 : 0,255,0
Combo4 : 0,0,255

[HitObjects]
432,72,1463,5,0,0:0:0:0:
432,72,1552,1,0,0:0:0:0:
416,228,1820,2,0,L|380:328,1,105
356,332,2088,1,0,0:0:0:0:
328,336,2177,1,0,0:0:0:0:
228,296,2356,5,0,0:0:0:0:
124,308,2535,2,0,P|32:304|0:264,1,105
56,200,2892,2,0,L|88:104,1,52.5
92,100,3071,1,0,0:0:0:0:
120,96,3160,1,0,0:0:0:0:
140,80,3249,1,0,0:0:0:0:
244,56,3428,5,0,0:0:0:0:
348,48,3607,1,0,0:0:0:0:
468,80,3785,1,0,0:0:0:0:
316,128,3964,1,0,0:0:0:0:
448,212,4143,1,0,0:0:0:0:
448,212,4321,6,0,P|412:296|412:324,1,105
308,332,4679,2,0,P|224:320|208:308,1,105
232,200,5036,1,0,0:0:0:0:
156,276,5215,2,0,P|96:304|40:300,1,105
144,176,5483,5,0,0:0:0:0:
156,124,5572,1,0,0:0:0:0:
180,80,5661,1,0,0:0:0:0:
224,112,5751,1,0,0:0:0:0:
276,112,5840,2,0,P|340:136|372:108,1,105
416,128,6108,5,8,0:0:0:0:
424,152,6197,1,0,0:0:0:0:
432,176,6287,1,0,0:0:0:0:
440,200,6376,1,0,0:0:0:0:
452,224,6465,2,0,P|492:216|508:208,2,52.5
436,244,6733,5,0,0:0:0:0:
416,264,6823,1,0,0:0:0:0:
396,284,6912,1,0,0:0:0:0:
380,304,7001,1,0,0:0:0:0:
360,324,7091,2,0,L|304:340,1,52.5
208,308,7269,2,0,L|124:288,1,52.5
104,204,7448,2,0,L|24:232,1,52.5
64,168,7627,5,0,0:0:0:0:
72,116,7716,1,0,0:0:0:0:
80,64,7805,2,0,P|28:48|16:16,1,52.5
84,36,7984,1,0,0:0:0:0:
112,80,8073,2,0,P|152:68|220:24,1,105
312,40,8431,1,0,0:0:0:0:
416,48,8609,1,0,0:0:0:0:
416,48,8699,1,0,0:0:0:0:
416,48,8788,1,0,0:0:0:0:
448,148,8967,6,0,L|472:268,1,105
396,176,9324,1,0,0:0:0:0:
280,68,9503,2,0,P|304:92|336:96,2,52.5
192,88,9860,5,0,0:0:0:0:
192,88,10039,1,0,0:0:0:0:
96,132,10396,2,0,L|192:184,1,105
112,256,10754,2,0,L|172:348,1,105
196,344,11021,1,0,0:0:0:0:
224,344,11111,1,0,0:0:0:0:
328,336,11289,5,0,0:0:0:0:
420,284,11468,1,0,0:0:0:0:
448,184,11647,1,0,0:0:0:0:
460,188,11825,2,0,L|512:188,2,52.5
424,152,12093,2,0,L|508:152,2,52.5
428,100,12361,1,0,0:0:0:0:
276,60,12539,1,0,0:0:0:0:
204,136,12719,5,0,0:0:0:0:
128,60,12897,5,0,0:0:0:0:
108,108,12987,1,0,0:0:0:0:
100,160,13076,1,0,0:0:0:0:
100,212,13165,1,0,0:0:0:0:
124,260,13255,2,0,L|196:260,3,52.5
228,264,13612,1,0,0:0:0:0:
268,264,13701,1,0,0:0:0:0:
228,248,13791,1,0,0:0:0:0:
268,248,13880,2,0,L|332:240,1,52.5
368,264,14059,1,0,0:0:0:0:
416,288,14148,1,0,0:0:0:0:
416,236,14237,1,0,0:0:0:0:
380,200,14327,2,0,B|412:144|412:144|416:44|412:48|412:48|336:88|256:48,1,315
256,192,15041,12,0,16292,0:0:0:0:
456,60,16471,5,0,0:0:0:0:
456,64,16560,1,0,0:0:0:0:
456,68,16649,1,0,0:0:0:0:
456,104,16828,5,0,0:0:0:0:
456,136,17007,1,0,0:0:0:0:
452,168,17185,5,0,0:0:0:0:
444,200,17275,1,0,0:0:0:0:
432,228,17364,1,0,0:0:0:0:
404,264,17453,1,0,0:0:0:0:
372,292,17543,1,0,0:0:0:0:
336,316,17632,1,0,0:0:0:0:
288,328,17721,2,0,L|216:328,3,62.9999980773926
184,308,18079,5,0,0:0:0:0:
20,212,18257,1,0,0:0:0:0:
196,280,18436,1,0,0:0:0:0:
64,64,18615,1,0,0:0:0:0:
160,168,18793,1,0,0:0:0:0:
308,52,18972,5,0,0:0:0:0:
372,48,19061,1,0,0:0:0:0:
436,56,19151,1,0,0:0:0:0:
484,96,19240,1,0,0:0:0:0:
508,152,19329,1,0,0:0:0:0:
320,156,19508,1,0,0:0:0:0:
380,268,19687,5,0,0:0:0:0:
336,284,19865,1,0,0:0:0:0:
76,316,20044,2,0,P|32:320|0:324,2,62.9999980773926
36,40,20580,5,0,0:0:0:0:
156,84,20759,1,0,0:0:0:0:
280,72,20938,1,0,0:0:0:0:
400,36,21116,6,0,L|336:36,1,62.9999980773926
408,96,21295,2,0,L|484:96,1,62.9999980773926
440,192,21473,2,0,L|432:280,1,62.9999980773926
364,320,21652,2,0,L|372:228,1,62.9999980773926
364,164,21831,2,0,L|440:168,1,62.9999980773926
348,216,22009,2,0,L|232:212,1,62.9999980773926
344,140,22188,2,0,L|272:156,1,62.9999980773926
240,144,22367,5,0,0:0:0:0:
208,112,22456,1,0,0:0:0:0:
168,92,22545,1,0,0:0:0:0:
124,88,22635,1,0,0:0:0:0:
80,88,22724,2,0,B|12:88|12:88|48:40|88:52,1,125.999996154785
316,328,23439,5,0,0:0:0:0:
316,328,23617,1,0,0:0:0:0:
424,260,23796,1,0,0:0:0:0:
456,140,23975,2,0,L|456:12,1,125.999996154785
344,76,24332,2,0,L|344:208,1,125.999996154785
224,240,24689,5,0,0:0:0:0:
168,272,24779,1,0,0:0:0:0:
108,292,24868,1,0,0:0:0:0:
44,292,24957,1,0,0:0:0:0:
36,216,25047,1,0,0:0:0:0:
36,216,25225,1,0,0:0:0:0:
36,216,25404,2,0,P|68:128|48:88,1,125.999996154785
104,60,25672,1,0,0:0:0:0:
104,60,25761,6,0,P|244:48|360:16,1,251.999992309571
268,260,26476,6,0,P|128:272|48:296,1,125.999996154785
32,328,26833,1,0,0:0:0:0:
112,232,27012,1,0,0:0:0:0:
220,296,27191,1,0,0:0:0:0:
344,280,27369,1,0,0:0:0:0:
460,328,27548,1,0,0:0:0:0:
464,284,27637,1,0,0:0:0:0:
488,248,27727,1,0,0:0:0:0:
476,136,27905,5,0,0:0:0:0:
444,104,27995,1,0,0:0:0:0:
440,60,28084,1,0,0:0:0:0:
440,60,28263,1,0,0:0:0:0:
440,60,28441,1,0,0:0:0:0:
316,40,28620,2,0,P|160:40|60:68,1,251.999992309571
40,188,29156,2,0,P|52:288|96:320,1,125.999996154785
172,324,29513,1,0,0:0:0:0:
292,292,29692,1,0,0:0:0:0:
188,224,29871,5,0,0:0:0:0:
148,208,29960,1,0,0:0:0:0:
184,184,30049,1,0,0:0:0:0:
220,160,30139,1,0,0:0:0:0:
180,144,30228,1,0,0:0:0:0:
184,188,30317,1,0,0:0:0:0:
208,228,30407,1,0,0:0:0:0:
244,256,30496,1,0,0:0:0:0:
288,268,30585,1,0,0:0:0:0:
244,276,30675,1,0,0:0:0:0:
284,288,30764,1,0,0:0:0:0:
404,340,30943,5,0,0:0:0:0:
404,340,31122,2,0,P|460:240|456:200,1,125.999996154785
496,112,31479,2,0,P|404:168|384:220,1,125.999996154785
296,260,31836,5,0,0:0:0:0:
184,316,32015,1,0,0:0:0:0:
176,192,32193,1,0,0:0:0:0:
252,292,32372,1,0,0:0:0:0:
132,260,32551,1,0,0:0:0:0:
244,204,32729,1,0,0:0:0:0:
148,288,32908,1,0,0:0:0:0:
148,288,32997,1,0,0:0:0:0:
148,288,33087,1,0,0:0:0:0:
32,244,33265,5,0,0:0:0:0:
76,124,33444,1,0,0:0:0:0:
20,12,33623,1,0,0:0:0:0:
272,36,33980,6,0,P|184:48|140:48,1,125.999996154785
44,124,34337,1,0,0:0:0:0:
32,140,34516,1,0,0:0:0:0:
172,132,34873,5,0,0:0:0:0:
76,212,35052,1,0,0:0:0:0:
76,212,35231,1,0,0:0:0:0:
168,296,35409,1,0,0:0:0:0:
292,316,35588,1,0,0:0:0:0:
164,324,35767,5,0,0:0:0:0:
32,256,35945,1,0,0:0:0:0:
220,248,36124,1,0,0:0:0:0:
392,324,36302,1,0,0:0:0:0:
392,324,36481,1,0,0:0:0:0:
476,232,36660,1,0,0:0:0:0:
476,232,36838,2,0,L|512:88,1,125.999996154785
408,32,37196,2,0,P|316:68|288:72,1,125.999996154785
168,40,37553,2,0,P|56:96|20:100,1,125.999996154785
244,80,37910,6,0,L|344:80,1,62.9999980773926
348,96,38089,1,0,0:0:0:0:
392,108,38178,2,0,L|392:184,1,62.9999980773926
456,232,38446,5,0,0:0:0:0:
344,292,38625,1,0,0:0:0:0:
344,292,38804,1,0,0:0:0:0:
288,316,38893,1,0,0:0:0:0:
228,296,38982,1,0,0:0:0:0:
116,308,39161,1,0,0:0:0:0:
88,312,39340,1,0,0:0:0:0:
96,60,39697,6,0,L|224:20,1,125.999996154785
44,140,40054,2,0,L|180:92,1,105
0,232,40412,2,0,L|128:176,1,105
220,360,40769,5,0,0:0:0:0:
220,360,40948,2,0,L|88:380,1,105
320,296,41305,2,0,L|200:308,1,105
408,224,41662,2,0,L|284:236,1,105
300,88,42198,6,0,L|148:72,2,105
432,252,42913,5,0,0:0:0:0:
428,236,43002,1,0,0:0:0:0:
436,220,43092,1,0,0:0:0:0:
440,204,43181,1,0,0:0:0:0:
436,188,43270,1,0,0:0:0:0:
428,172,43360,1,0,0:0:0:0:
436,156,43449,2,0,L|452:96,3,52.5
432,104,43806,5,0,0:0:0:0:
424,92,43896,1,0,0:0:0:0:
424,76,43985,1,0,0:0:0:0:
436,68,44074,1,0,0:0:0:0:
452,68,44164,1,0,0:0:0:0:
464,76,44253,1,0,0:0:0:0:
472,88,44342,1,0,0:0:0:0:
472,104,44432,1,0,0:0:0:0:
460,116,44521,1,0,0:0:0:0:
444,120,44610,1,0,0:0:0:0:
428,120,44700,2,0,L|360:96,3,52.5
364,108,45057,5,0,0:0:0:0:
348,104,45146,1,0,0:0:0:0:
332,96,45236,1,0,0:0:0:0:
332,80,45325,1,0,0:0:0:0:
316,88,45414,1,0,0:0:0:0:
300,80,45504,1,0,0:0:0:0:
288,72,45593,1,0,0:0:0:0:
272,80,45682,1,0,0:0:0:0:
268,60,45772,2,0,L|196:64,8,52.5
64,116,46665,5,0,0:0:0:0:
68,112,46754,1,0,0:0:0:0:
72,108,46844,1,0,0:0:0:0:
76,104,46933,1,0,0:0:0:0:
80,100,47022,1,0,0:0:0:0:
84,100,47112,1,0,0:0:0:0:
88,100,47201,1,0,0:0:0:0:
92,96,47290,1,0,0:0:0:0:
96,92,47380,1,0,0:0:0:0:
100,88,47469,1,0,0:0:0:0:
104,84,47558,1,0,0:0:0:0:
104,88,47648,1,0,0:0:0:0:
108,92,47737,1,0,0:0:0:0:
112,92,47826,1,0,0:0:0:0:
116,92,47916,1,0,0:0:0:0:
212,136,48094,5,0,0:0:0:0:
216,136,48184,1,0,0:0:0:0:
220,132,48273,1,0,0:0:0:0:
224,128,48362,1,0,0:0:0:0:
228,124,48452,1,0,0:0:0:0:
232,120,48541,1,0,0:0:0:0:
236,120,48630,1,0,0:0:0:0:
240,120,48720,1,0,0:0:0:0:
244,120,48809,1,0,0:0:0:0:
248,120,48898,1,0,0:0:0:0:
252,116,48988,1,0,0:0:0:0:
256,116,49077,1,0,0:0:0:0:
260,112,49166,1,0,0:0:0:0:
356,64,49345,5,0,0:0:0:0:
456,188,49524,1,0,0:0:0:0:
480,216,49613,1,0,0:0:0:0:
452,196,49702,1,0,0:0:0:0:
324,108,49881,5,0,0:0:0:0:
348,264,50060,1,0,0:0:0:0:
340,300,50149,1,0,0:0:0:0:
356,268,50238,1,0,0:0:0:0:
208,324,50417,6,0,L|108:324,2,52.5
52,272,50774,2,0,L|112:272,2,52.5
56,112,51132,1,0,0:0:0:0:
56,112,51221,1,0,0:0:0:0:
56,112,51310,1,0,0:0:0:0:
196,40,51489,5,0,0:0:0:0:
196,44,51578,1,0,0:0:0:0:
192,48,51668,1,0,0:0:0:0:
188,52,51757,1,0,0:0:0:0:
184,56,51846,1,0,0:0:0:0:
180,64,52025,1,0,0:0:0:0:
176,68,52114,1,0,0:0:0:0:
176,72,52204,1,0,0:0:0:0:
176,76,52293,1,0,0:0:0:0:
172,80,52382,1,0,0:0:0:0:
168,84,52472,1,0,0:0:0:0:
168,88,52561,1,0,0:0:0:0:
164,92,52650,1,0,0:0:0:0:
164,96,52740,1,0,0:0:0:0:
160,100,52829,1,0,0:0:0:0:
156,104,52918,2,0,L|52:204,1,105
252,300,53276,6,0,L|180:376,1,105
344,244,53633,2,0,L|428:336,1,105
404,112,53990,2,0,L|500:212,1,105
448,212,54258,1,0,0:0:0:0:
472,240,54348,2,0,P|388:292|344:296,1,105
348,292,54616,5,0,0:0:0:0:
344,292,54705,1,0,0:0:0:0:
340,292,54794,1,0,0:0:0:0:
336,292,54884,1,0,0:0:0:0:
332,292,54973,1,0,0:0:0:0:
328,288,55062,1,0,0:0:0:0:
324,288,55152,1,0,0:0:0:0:
320,288,55241,1,0,0:0:0:0:
316,288,55330,1,0,0:0:0:0:
312,288,55420,1,0,0:0:0:0:
308,292,55509,1,0,0:0:0:0:
304,292,55598,1,0,0:0:0:0:
300,292,55688,1,0,0:0:0:0:
296,288,55777,1,0,0:0:0:0:
292,288,55866,1,0,0:0:0:0:
288,288,55956,1,0,0:0:0:0:
284,288,56045,1,0,0:0:0:0:
280,292,56134,1,0,0:0:0:0:
276,292,56224,1,0,0:0:0:0:
272,292,56313,1,0,0:0:0:0:
268,292,56402,1,0,0:0:0:0:
264,292,56492,1,0,0:0:0:0:
260,292,56581,1,0,0:0:0:0:
256,288,56670,1,0,0:0:0:0:
252,288,56760,1,0,0:0:0:0:
248,292,56849,1,0,0:0:0:0:
244,292,56938,1,0,0:0:0:0:
240,296,57028,1,0,0:0:0:0:
148,252,57206,6,0,L|264:252,1,105
288,156,57564,1,0,0:0:0:0:
328,252,57742,2,0,L|360:148,1,105
400,248,58100,1,0,0:0:0:0:
428,148,58278,1,0,0:0:0:0:
468,244,58457,1,0,0:0:0:0:
488,236,58546,1,0,0:0:0:0:
508,228,58636,1,0,0:0:0:0:
396,48,58993,5,0,0:0:0:0:
104,72,59350,1,0,0:0:0:0:
100,76,59440,1,0,0:0:0:0:
100,80,59529,1,0,0:0:0:0:
100,84,59618,1,0,0:0:0:0:
96,88,59708,1,0,0:0:0:0:
96,92,59797,1,0,0:0:0:0:
92,96,59886,1,0,0:0:0:0:
60,196,60065,5,0,0:0:0:0:
64,192,60154,1,0,0:0:0:0:
68,192,60244,1,0,0:0:0:0:
72,192,60333,1,0,0:0:0:0:
76,192,60422,1,0,0:0:0:0:
80,192,60512,1,0,0:0:0:0:
84,188,60601,1,0,0:0:0:0:
88,188,60690,1,0,0:0:0:0:
92,188,60780,1,0,0:0:0:0:
100,188,60958,5,0,0:0:0:0:
104,188,61048,1,0,0:0:0:0:
108,188,61137,1,0,0:0:0:0:
176,116,61316,5,0,0:0:0:0:
188,168,61405,1,0,0:0:0:0:
184,220,61494,2,0,P|148:268|84:308,1,105
244,128,61852,2,0,P|216:80|144:32,1,105
212,256,62209,2,0,P|172:320|136:344,1,105
16,172,62566,2,0,P|20:256|48:300,1,105
108,304,62924,5,0,0:0:0:0:
148,312,63013,1,0,0:0:0:0:
188,296,63102,1,0,0:0:0:0:
232,296,63192,1,0,0:0:0:0:
256,332,63281,1,0,0:0:0:0:
292,352,63370,1,0,0:0:0:0:
328,328,63460,1,0,0:0:0:0:
368,312,63549,1,0,0:0:0:0:
404,328,63638,1,0,0:0:0:0:
436,304,63728,1,0,0:0:0:0:
476,308,63817,1,0,0:0:0:0:
476,308,63906,1,0,0:0:0:0:
476,304,63996,1,0,0:0:0:0:
476,304,64085,1,0,0:0:0:0:
476,300,64174,1,0,0:0:0:0:
448,216,64353,6,0,L|448:116,1,84
376,88,64711,1,0,0:0:0:0:
356,52,64800,1,0,0:0:0:0:
356,96,64890,1,0,0:0:0:0:
332,60,64979,1,0,0:0:0:0:
332,100,65068,2,0,P|268:88|224:64,1,84
168,60,65425,5,0,0:0:0:0:
168,60,65604,2,0,P|216:36|264:40,1,84
428,208,66318,5,0,0:0:0:0:
428,208,66497,2,0,P|416:256|436:292,1,84
280,364,66854,6,0,P|228:348|180:352,1,84
60,252,67212,6,0,P|20:184|28:144,1,84
136,60,67569,6,0,P|196:40|212:8,1,84
236,32,67837,1,0,0:0:0:0:
264,40,67926,1,0,0:0:0:0:
488,156,68284,5,0,0:0:0:0:
428,268,68462,1,0,0:0:0:0:
324,196,68641,2,0,P|360:172|400:204,1,84
312,284,68998,2,0,P|272:312|228:280,1,84
116,292,69356,5,8,0:0:0:0:
116,292,69534,1,8,0:0:0:0:
44,188,69713,1,8,0:0:0:0:
44,188,69892,1,8,0:0:0:0:
44,188,70070,1,8,0:0:0:0:
36,304,70249,1,0,0:0:0:0:
36,304,70428,1,0,0:0:0:0:
136,228,70606,5,0,0:0:0:0:
104,236,70696,1,0,0:0:0:0:
84,208,70785,1,0,0:0:0:0:
108,184,70874,1,0,0:0:0:0:
140,200,70964,1,0,0:0:0:0:
248,264,71142,5,0,0:0:0:0:
368,308,71321,2,0,P|436:300|452:284,1,84
460,168,71857,5,0,0:0:0:0:
248,32,72214,1,0,0:0:0:0:
352,72,72393,1,0,0:0:0:0:
476,44,72571,1,0,0:0:0:0:
424,160,72750,1,0,0:0:0:0:
336,72,72929,1,0,0:0:0:0:
328,240,73107,1,0,0:0:0:0:
184,328,73286,5,0,0:0:0:0:
184,328,73375,1,0,0:0:0:0:
184,328,73465,1,0,0:0:0:0:
172,328,73554,1,0,0:0:0:0:
160,328,73643,1,0,0:0:0:0:
148,328,73733,1,0,0:0:0:0:
136,320,73822,2,0,L|108:300,4,21
72,120,74179,5,0,0:0:0:0:
36,108,74358,1,0,0:0:0:0:
328,348,74894,5,0,0:0:0:0:
452,328,75073,1,0,0:0:0:0:
332,292,75251,2,0,B|284:272|284:272|416:252,1,125.999996154785
360,140,75609,1,0,0:0:0:0:
456,60,75787,1,0,0:0:0:0:
236,124,75966,1,0,0:0:0:0:
316,28,76145,5,0,0:0:0:0:
356,76,76234,1,0,0:0:0:0:
332,136,76323,1,0,0:0:0:0:
392,156,76413,1,0,0:0:0:0:
424,212,76502,2,0,B|392:268|388:272|392:284|392:320|392:320|364:280,1,125.999996154785
260,324,76859,5,0,0:0:0:0:
136,344,77038,1,0,0:0:0:0:
252,296,77217,1,0,0:0:0:0:
376,268,77395,1,0,0:0:0:0:
248,264,77574,1,0,0:0:0:0:
124,244,77753,1,0,0:0:0:0:
248,228,77931,2,0,B|328:180|328:180|272:184,1,125.999996154785
188,248,78289,5,0,0:0:0:0:
88,324,78467,1,0,0:0:0:0:
88,324,78646,1,0,0:0:0:0:
176,236,78825,1,0,0:0:0:0:
272,316,79003,1,0,0:0:0:0:
156,268,79182,1,0,0:0:0:0:
280,288,79361,1,0,0:0:0:0:
400,296,79539,5,0,0:0:0:0:
436,272,79629,1,0,0:0:0:0:
452,232,79718,1,0,0:0:0:0:
460,108,79897,5,0,0:0:0:0:
460,108,80075,1,0,0:0:0:0:
220,28,80254,1,0,0:0:0:0:
220,28,80433,5,0,0:0:0:0:
280,44,80522,1,0,0:0:0:0:
344,52,80611,1,0,0:0:0:0:
108,88,80790,5,0,0:0:0:0:
172,88,80879,1,0,0:0:0:0:
232,108,80969,1,0,0:0:0:0:
4,216,81147,5,0,0:0:0:0:
68,208,81237,1,0,0:0:0:0:
124,184,81326,1,0,0:0:0:0:
124,184,81505,1,0,0:0:0:0:
108,308,81683,1,0,0:0:0:0:
108,308,81862,5,0,0:0:0:0:
164,280,81951,1,0,0:0:0:0:
228,268,82041,1,0,0:0:0:0:
292,276,82130,1,0,0:0:0:0:
348,304,82219,1,0,0:0:0:0:
348,304,82398,5,0,0:0:0:0:
348,304,82577,1,0,0:0:0:0:
460,244,82755,5,0,0:0:0:0:
456,276,82845,1,0,0:0:0:0:
452,308,82934,1,0,0:0:0:0:
420,56,83291,5,0,0:0:0:0:
420,56,83381,1,0,0:0:0:0:
420,56,83470,1,0,0:0:0:0:
420,56,83649,5,0,0:0:0:0:
156,56,83827,5,0,0:0:0:0:
92,64,83917,1,0,0:0:0:0:
32,52,84006,1,0,0:0:0:0:
72,172,84185,1,0,0:0:0:0:
52,296,84363,5,0,0:0:0:0:
328,336,84542,1,0,0:0:0:0:
392,312,84631,1,0,0:0:0:0:
456,312,84721,1,0,0:0:0:0:
376,72,84899,1,0,0:0:0:0:
124,56,85078,1,0,0:0:0:0:
252,52,85257,5,0,0:0:0:0:
312,68,85435,1,0,0:0:0:0:
376,56,85614,1,0,0:0:0:0:
376,56,85793,2,0,B|464:104|464:104|480:168|432:224|400:240,1,210
372,288,86508,5,0,0:0:0:0:
168,332,86865,1,0,0:0:0:0:
168,332,87043,1,0,0:0:0:0:
88,264,87222,6,0,L|88:160,2,105
180,212,87758,1,0,0:0:0:0:
180,212,87937,2,0,L|296:212,2,105
120,128,88473,1,0,0:0:0:0:
120,128,88651,2,0,L|48:8,2,105
316,52,89366,5,0,0:0:0:0:
464,220,89723,5,0,0:0:0:0:
464,220,89902,1,0,0:0:0:0:
304,356,90259,6,0,L|356:356,4,52.5
356,264,90795,1,0,0:0:0:0:
352,256,90885,1,0,0:0:0:0:
360,244,90974,1,0,0:0:0:0:
428,164,91153,1,0,0:0:0:0:
348,96,91331,1,0,0:0:0:0:
248,68,91510,5,0,0:0:0:0:
196,56,91599,1,0,0:0:0:0:
144,60,91689,1,0,0:0:0:0:
108,100,91778,1,0,0:0:0:0:
104,152,91867,1,0,0:0:0:0:
136,196,91957,1,0,0:0:0:0:
184,220,92046,1,0,0:0:0:0:
236,236,92135,1,0,0:0:0:0:
280,268,92225,1,0,0:0:0:0:
308,312,92314,1,0,0:0:0:0:
312,364,92403,1,0,0:0:0:0:
312,364,92493,1,0,0:0:0:0:
336,316,92582,1,0,0:0:0:0:
368,276,92671,1,0,0:0:0:0:
408,244,92761,1,0,0:0:0:0:
456,220,92850,1,0,0:0:0:0:
508,204,92939,2,0,L|508:148,1,52.5
256,192,93118,12,0,95798,0:0:0:0:
