osu file format v14

[General]
AudioFilename: wuxuanlan.mp3
AudioLeadIn: 0
PreviewTime: 16828
Countdown: 0
SampleSet: Normal
StackLeniency: 0.7
Mode: 1
LetterboxInBreaks: 0
WidescreenStoryboard: 0

[Editor]
DistanceSpacing: 1.6
BeatDivisor: 4
GridSize: 32
TimelineZoom: 1

[Metadata]
Title:Wu Xuan Lan
TitleUnicode:舞·絢爛
Artist:Ci Mei Gui
ArtistUnicode:刺玫瑰
Creator:Nardoxyribonucleic
Version:Muzukashii
Source:MuziBox
Tags:Taiko
BeatmapID:751960
BeatmapSetID:339558

[Difficulty]
HPDrainRate:5
CircleSize:5
OverallDifficulty:4
ApproachRate:5
SliderMultiplier:1.4
SliderTickRate:1

[Events]
//Background and Video events
0,0,"BG.jpg",0,-30
//Break Periods
//Storyboard Layer 0 (Background)
//Storyboard Layer 1 (Fail)
//Storyboard Layer 2 (Pass)
//Storyboard Layer 3 (Foreground)
//Storyboard Sound Samples

[TimingPoints]
34,357.330030015723,4,1,0,70,1,0
14505,-100,4,1,0,50,0,0
16828,-100,4,1,0,70,0,0
17185,-100,4,1,0,80,0,0
40054,-100,4,1,0,90,0,1
62924,-100,4,1,0,70,0,0
65782,-100,4,1,0,75,0,0
68641,-100,4,1,0,80,0,0
71500,-100,4,1,0,85,0,0
74358,-100,4,1,0,90,0,1
85793,-100,4,1,0,70,0,0
93118,-100,4,1,0,50,0,0
93833,-100,4,1,0,30,0,0
94547,-100,4,1,0,10,0,0

[HitObjects]
256,192,1463,5,4,0:0:0:0:
256,192,1820,1,8,0:0:0:0:
256,192,2177,1,8,0:0:0:0:
256,192,2535,1,0,0:0:0:0:
256,192,2713,1,8,0:0:0:0:
256,192,3071,1,0,0:0:0:0:
256,192,3428,1,8,0:0:0:0:
256,192,3607,1,0,0:0:0:0:
256,192,3964,1,8,0:0:0:0:
256,192,4143,1,0,0:0:0:0:
256,192,4321,1,0,0:0:0:0:
256,192,4679,1,8,0:0:0:0:
256,192,5036,1,8,0:0:0:0:
256,192,5393,1,0,0:0:0:0:
256,192,5572,1,8,0:0:0:0:
256,192,5929,1,8,0:0:0:0:
256,192,6287,1,0,0:0:0:0:
256,192,6465,1,8,0:0:0:0:
256,192,6823,1,8,0:0:0:0:
256,192,7001,1,0,0:0:0:0:
256,192,7180,1,0,0:0:0:0:
256,192,7537,1,8,0:0:0:0:
256,192,7895,1,8,0:0:0:0:
256,192,8252,1,0,0:0:0:0:
256,192,8431,1,8,0:0:0:0:
256,192,8788,1,0,0:0:0:0:
256,192,9145,1,8,0:0:0:0:
256,192,9324,1,0,0:0:0:0:
256,192,9681,1,8,0:0:0:0:
256,192,9860,1,0,0:0:0:0:
256,192,10039,1,0,0:0:0:0:
256,192,10396,1,8,0:0:0:0:
256,192,10753,1,8,0:0:0:0:
256,192,11111,1,0,0:0:0:0:
256,192,11289,1,8,0:0:0:0:
256,192,11647,1,8,0:0:0:0:
256,192,12004,1,0,0:0:0:0:
256,192,12183,1,8,0:0:0:0:
256,192,12540,1,8,0:0:0:0:
256,192,12719,1,0,0:0:0:0:
256,192,12897,1,12,0:0:0:0:
256,192,13255,1,8,0:0:0:0:
256,192,13433,1,0,0:0:0:0:
256,192,13612,1,8,0:0:0:0:
256,192,13791,1,0,0:0:0:0:
256,192,13969,1,0,0:0:0:0:
256,192,14059,1,0,0:0:0:0:
256,192,14148,1,0,0:0:0:0:
256,192,14327,1,8,0:0:0:0:
256,192,14505,12,0,16649,0:0:0:0:
256,192,16828,5,8,0:0:0:0:
256,192,16917,1,8,0:0:0:0:
256,192,17007,1,8,0:0:0:0:
256,192,17185,1,4,0:0:0:0:
256,192,17543,1,8,0:0:0:0:
256,192,17721,1,0,0:0:0:0:
256,192,17900,1,0,0:0:0:0:
256,192,18257,1,8,0:0:0:0:
256,192,18436,1,8,0:0:0:0:
256,192,18615,1,0,0:0:0:0:
256,192,18793,1,8,0:0:0:0:
256,192,18972,1,0,0:0:0:0:
256,192,19061,1,0,0:0:0:0:
256,192,19151,1,0,0:0:0:0:
256,192,19329,1,8,0:0:0:0:
256,192,19687,1,8,0:0:0:0:
256,192,19865,1,8,0:0:0:0:
256,192,20044,1,0,0:0:0:0:
256,192,20401,1,8,0:0:0:0:
256,192,20580,1,0,0:0:0:0:
256,192,20759,1,0,0:0:0:0:
256,192,21116,1,8,0:0:0:0:
256,192,21295,1,8,0:0:0:0:
256,192,21473,1,0,0:0:0:0:
256,192,21652,1,8,0:0:0:0:
256,192,21831,1,0,0:0:0:0:
256,192,22009,1,8,0:0:0:0:
256,192,22188,1,8,0:0:0:0:
256,192,22545,1,8,0:0:0:0:
256,192,22724,1,8,0:0:0:0:
256,192,22903,1,0,0:0:0:0:
256,192,23260,1,8,0:0:0:0:
256,192,23438,1,0,0:0:0:0:
256,192,23617,1,0,0:0:0:0:
256,192,23975,1,8,0:0:0:0:
256,192,24153,1,8,0:0:0:0:
256,192,24332,1,0,0:0:0:0:
256,192,24510,1,8,0:0:0:0:
256,192,24689,1,0,0:0:0:0:
256,192,24779,1,0,0:0:0:0:
256,192,24868,1,0,0:0:0:0:
256,192,25046,1,8,0:0:0:0:
256,192,25404,1,8,0:0:0:0:
256,192,25582,1,8,0:0:0:0:
256,192,25761,1,0,0:0:0:0:
256,192,26119,1,8,0:0:0:0:
256,192,26476,1,8,0:0:0:0:
256,192,27191,1,0,0:0:0:0:
256,192,27369,1,8,0:0:0:0:
256,192,27548,1,8,0:0:0:0:
256,192,27727,1,0,0:0:0:0:
256,192,27816,1,0,0:0:0:0:
256,192,27905,1,0,0:0:0:0:
256,192,28084,1,8,0:0:0:0:
256,192,28263,1,8,0:0:0:0:
256,192,28620,1,4,0:0:0:0:
256,192,28977,1,8,0:0:0:0:
256,192,29155,1,0,0:0:0:0:
256,192,29334,1,0,0:0:0:0:
256,192,29691,1,8,0:0:0:0:
256,192,29870,1,8,0:0:0:0:
256,192,30049,1,0,0:0:0:0:
256,192,30227,1,8,0:0:0:0:
256,192,30406,1,0,0:0:0:0:
256,192,30496,1,0,0:0:0:0:
256,192,30585,1,0,0:0:0:0:
256,192,30763,1,8,0:0:0:0:
256,192,31121,1,8,0:0:0:0:
256,192,31299,1,8,0:0:0:0:
256,192,31478,1,0,0:0:0:0:
256,192,31835,1,8,0:0:0:0:
256,192,32014,1,0,0:0:0:0:
256,192,32193,1,0,0:0:0:0:
256,192,32550,1,8,0:0:0:0:
256,192,32729,1,8,0:0:0:0:
256,192,32907,1,0,0:0:0:0:
256,192,33086,1,8,0:0:0:0:
256,192,33265,1,0,0:0:0:0:
256,192,33443,1,8,0:0:0:0:
256,192,33622,1,8,0:0:0:0:
256,192,33979,1,8,0:0:0:0:
256,192,34158,1,8,0:0:0:0:
256,192,34337,1,0,0:0:0:0:
256,192,34695,1,8,0:0:0:0:
256,192,34873,1,0,0:0:0:0:
256,192,35052,1,0,0:0:0:0:
256,192,35409,1,8,0:0:0:0:
256,192,35588,1,0,0:0:0:0:
256,192,35767,1,0,0:0:0:0:
256,192,35945,1,8,0:0:0:0:
256,192,36124,1,8,0:0:0:0:
256,192,36481,1,8,0:0:0:0:
256,192,36660,1,0,0:0:0:0:
256,192,36839,1,8,0:0:0:0:
256,192,37017,1,8,0:0:0:0:
256,192,37196,1,0,0:0:0:0:
256,192,37554,1,8,0:0:0:0:
256,192,37911,1,8,0:0:0:0:
256,192,38625,1,0,0:0:0:0:
256,192,38804,1,8,0:0:0:0:
256,192,38893,1,8,0:0:0:0:
256,192,38982,1,8,0:0:0:0:
256,192,39161,1,8,0:0:0:0:
256,192,39340,1,0,0:0:0:0:
256,192,39518,1,8,0:0:0:0:
256,192,39697,1,8,0:0:0:0:
256,192,40054,1,4,0:0:0:0:
256,192,40412,1,8,0:0:0:0:
256,192,40590,1,0,0:0:0:0:
256,192,40769,1,8,0:0:0:0:
256,192,40948,1,0,0:0:0:0:
256,192,41037,1,0,0:0:0:0:
256,192,41126,1,0,0:0:0:0:
256,192,41305,1,8,0:0:0:0:
256,192,41484,1,0,0:0:0:0:
256,192,41841,1,8,0:0:0:0:
256,192,42020,1,8,0:0:0:0:
256,192,42198,1,0,0:0:0:0:
256,192,42377,1,8,0:0:0:0:
256,192,42466,1,8,0:0:0:0:
256,192,42556,1,8,0:0:0:0:
256,192,42913,1,0,0:0:0:0:
256,192,43270,1,8,0:0:0:0:
256,192,43449,1,0,0:0:0:0:
256,192,43628,1,0,0:0:0:0:
256,192,43806,1,8,0:0:0:0:
256,192,43896,1,8,0:0:0:0:
256,192,43985,1,8,0:0:0:0:
256,192,44164,1,8,0:0:0:0:
256,192,44342,1,0,0:0:0:0:
256,192,44700,1,8,0:0:0:0:
256,192,44878,1,8,0:0:0:0:
256,192,45057,1,0,0:0:0:0:
256,192,45236,1,0,0:0:0:0:
256,192,45325,1,0,0:0:0:0:
256,192,45414,1,0,0:0:0:0:
256,192,45772,1,0,0:0:0:0:
256,192,46129,1,8,0:0:0:0:
256,192,46486,1,0,0:0:0:0:
256,192,46665,1,8,0:0:0:0:
256,192,46844,1,0,0:0:0:0:
256,192,47022,1,8,0:0:0:0:
256,192,47201,1,0,0:0:0:0:
256,192,47558,1,8,0:0:0:0:
256,192,47916,1,0,0:0:0:0:
256,192,48094,1,8,0:0:0:0:
256,192,48273,1,0,0:0:0:0:
256,192,48452,1,8,0:0:0:0:
256,192,48630,1,0,0:0:0:0:
256,192,48988,1,8,0:0:0:0:
256,192,49345,1,8,0:0:0:0:
256,192,50060,1,0,0:0:0:0:
256,192,50238,1,8,0:0:0:0:
256,192,50328,1,8,0:0:0:0:
256,192,50417,1,8,0:0:0:0:
256,192,50596,1,8,0:0:0:0:
256,192,50774,1,0,0:0:0:0:
256,192,50953,1,0,0:0:0:0:
256,192,51132,1,8,0:0:0:0:
256,192,51489,1,4,0:0:0:0:
256,192,51846,1,8,0:0:0:0:
256,192,52024,1,0,0:0:0:0:
256,192,52203,1,0,0:0:0:0:
256,192,52382,1,8,0:0:0:0:
256,192,52472,1,8,0:0:0:0:
256,192,52560,1,8,0:0:0:0:
256,192,52739,1,8,0:0:0:0:
256,192,52918,1,0,0:0:0:0:
256,192,53275,1,8,0:0:0:0:
256,192,53454,1,8,0:0:0:0:
256,192,53632,1,0,0:0:0:0:
256,192,53811,1,8,0:0:0:0:
256,192,53901,1,8,0:0:0:0:
256,192,53990,1,8,0:0:0:0:
256,192,54347,1,0,0:0:0:0:
256,192,54704,1,8,0:0:0:0:
256,192,54883,1,0,0:0:0:0:
256,192,54973,1,0,0:0:0:0:
256,192,55062,1,0,0:0:0:0:
256,192,55240,1,0,0:0:0:0:
256,192,55419,1,8,0:0:0:0:
256,192,55598,1,8,0:0:0:0:
256,192,55776,1,0,0:0:0:0:
256,192,56134,1,8,0:0:0:0:
256,192,56312,1,8,0:0:0:0:
256,192,56491,1,0,0:0:0:0:
256,192,56670,1,0,0:0:0:0:
256,192,56760,1,0,0:0:0:0:
256,192,56849,1,0,0:0:0:0:
256,192,57206,1,0,0:0:0:0:
256,192,57563,1,8,0:0:0:0:
256,192,57920,1,0,0:0:0:0:
256,192,58099,1,0,0:0:0:0:
256,192,58278,1,8,0:0:0:0:
256,192,58456,1,8,0:0:0:0:
256,192,58635,1,0,0:0:0:0:
256,192,58992,1,8,0:0:0:0:
256,192,59350,1,8,0:0:0:0:
256,192,59528,1,0,0:0:0:0:
256,192,59708,1,8,0:0:0:0:
256,192,59886,1,8,0:0:0:0:
256,192,60064,1,0,0:0:0:0:
256,192,60780,1,0,0:0:0:0:
256,192,60958,1,8,0:0:0:0:
256,192,61137,1,0,0:0:0:0:
256,192,61316,1,0,0:0:0:0:
256,192,61494,1,8,0:0:0:0:
256,192,61852,1,8,0:0:0:0:
256,192,62030,1,0,0:0:0:0:
256,192,62120,1,0,0:0:0:0:
256,192,62209,1,0,0:0:0:0:
256,192,62388,1,0,0:0:0:0:
256,192,62566,1,8,0:0:0:0:
256,192,62745,1,8,0:0:0:0:
256,192,62923,1,4,0:0:0:0:
256,192,63281,1,8,0:0:0:0:
256,192,63459,1,0,0:0:0:0:
256,192,63638,1,0,0:0:0:0:
256,192,63995,1,8,0:0:0:0:
256,192,64174,1,8,0:0:0:0:
256,192,64353,1,0,0:0:0:0:
256,192,64531,1,8,0:0:0:0:
256,192,64710,1,0,0:0:0:0:
256,192,64889,1,0,0:0:0:0:
256,192,65067,1,8,0:0:0:0:
256,192,65425,1,8,0:0:0:0:
256,192,65603,1,8,0:0:0:0:
256,192,65782,1,4,0:0:0:0:
256,192,66140,1,8,0:0:0:0:
256,192,66318,1,0,0:0:0:0:
256,192,66497,1,8,0:0:0:0:
256,192,66854,1,8,0:0:0:0:
256,192,67033,1,0,0:0:0:0:
256,192,67212,1,8,0:0:0:0:
256,192,67390,1,0,0:0:0:0:
256,192,67569,1,8,0:0:0:0:
256,192,67748,1,8,0:0:0:0:
256,192,67926,1,8,0:0:0:0:
256,192,68284,1,8,0:0:0:0:
256,192,68462,1,8,0:0:0:0:
256,192,68641,1,4,0:0:0:0:
256,192,68998,1,8,0:0:0:0:
256,192,69176,1,0,0:0:0:0:
256,192,69355,1,0,0:0:0:0:
256,192,69712,1,8,0:0:0:0:
256,192,69891,1,8,0:0:0:0:
256,192,70070,1,0,0:0:0:0:
256,192,70248,1,8,0:0:0:0:
256,192,70427,1,0,0:0:0:0:
256,192,70784,1,8,0:0:0:0:
256,192,70964,1,0,0:0:0:0:
256,192,71142,1,8,0:0:0:0:
256,192,71320,1,8,0:0:0:0:
256,192,71499,1,4,0:0:0:0:
256,192,71857,1,12,0:0:0:0:
256,192,72214,1,12,0:0:0:0:
256,192,72929,1,0,0:0:0:0:
256,192,73107,1,8,0:0:0:0:
256,192,73286,1,8,0:0:0:0:
256,192,73465,1,0,0:0:0:0:
256,192,73554,1,0,0:0:0:0:
256,192,73643,1,0,0:0:0:0:
256,192,73822,1,0,0:0:0:0:
256,192,74001,1,8,0:0:0:0:
256,192,74358,1,4,0:0:0:0:
256,192,74715,1,8,0:0:0:0:
256,192,74893,1,0,0:0:0:0:
256,192,75072,1,0,0:0:0:0:
256,192,75429,1,8,0:0:0:0:
256,192,75608,1,8,0:0:0:0:
256,192,75787,1,0,0:0:0:0:
256,192,75965,1,8,0:0:0:0:
256,192,76144,1,0,0:0:0:0:
256,192,76234,1,0,0:0:0:0:
256,192,76323,1,0,0:0:0:0:
256,192,76501,1,8,0:0:0:0:
256,192,76859,1,8,0:0:0:0:
256,192,77037,1,8,0:0:0:0:
256,192,77216,1,0,0:0:0:0:
256,192,77573,1,8,0:0:0:0:
256,192,77752,1,0,0:0:0:0:
256,192,77931,1,0,0:0:0:0:
256,192,78288,1,8,0:0:0:0:
256,192,78467,1,8,0:0:0:0:
256,192,78645,1,0,0:0:0:0:
256,192,78824,1,8,0:0:0:0:
256,192,79003,1,0,0:0:0:0:
256,192,79181,1,8,0:0:0:0:
256,192,79271,1,8,0:0:0:0:
256,192,79360,1,8,0:0:0:0:
256,192,79717,1,8,0:0:0:0:
256,192,79896,1,8,0:0:0:0:
256,192,80075,1,0,0:0:0:0:
256,192,80433,1,8,0:0:0:0:
256,192,80611,1,0,0:0:0:0:
256,192,80790,1,0,0:0:0:0:
256,192,81147,1,8,0:0:0:0:
256,192,81326,1,0,0:0:0:0:
256,192,81415,1,0,0:0:0:0:
256,192,81505,1,0,0:0:0:0:
256,192,81683,1,8,0:0:0:0:
256,192,81862,1,0,0:0:0:0:
256,192,82219,1,8,0:0:0:0:
256,192,82398,1,8,0:0:0:0:
256,192,82487,1,8,0:0:0:0:
256,192,82577,1,8,0:0:0:0:
256,192,82755,1,8,0:0:0:0:
256,192,82934,1,0,0:0:0:0:
256,192,83292,1,8,0:0:0:0:
256,192,83649,1,8,0:0:0:0:
256,192,84363,1,0,0:0:0:0:
256,192,84542,1,8,0:0:0:0:
256,192,84631,1,8,0:0:0:0:
256,192,84720,1,8,0:0:0:0:
256,192,84899,1,8,0:0:0:0:
256,192,85078,1,0,0:0:0:0:
256,192,85256,1,8,0:0:0:0:
256,192,85435,1,8,0:0:0:0:
256,192,85792,1,0,0:0:0:0:
256,192,86150,1,8,0:0:0:0:
256,192,86507,1,8,0:0:0:0:
256,192,86865,1,0,0:0:0:0:
256,192,87043,1,8,0:0:0:0:
256,192,87401,1,0,0:0:0:0:
256,192,87758,1,8,0:0:0:0:
256,192,87937,1,0,0:0:0:0:
256,192,88294,1,8,0:0:0:0:
256,192,88473,1,0,0:0:0:0:
256,192,88651,1,0,0:0:0:0:
256,192,89009,1,8,0:0:0:0:
256,192,89366,1,8,0:0:0:0:
256,192,89723,1,0,0:0:0:0:
256,192,89902,1,8,0:0:0:0:
256,192,90259,1,8,0:0:0:0:
256,192,90617,1,0,0:0:0:0:
256,192,90795,1,8,0:0:0:0:
256,192,91153,1,8,0:0:0:0:
256,192,91331,1,0,0:0:0:0:
256,192,91510,1,12,0:0:0:0:
256,192,91867,1,8,0:0:0:0:
256,192,92046,1,0,0:0:0:0:
256,192,92225,1,8,0:0:0:0:
256,192,92403,1,0,0:0:0:0:
256,192,92582,1,8,0:0:0:0:
256,192,92671,1,8,0:0:0:0:
256,192,92761,1,8,0:0:0:0:
256,192,92939,1,0,0:0:0:0:
256,192,93118,12,0,94547,0:0:0:0:
