osu file format v14

[General]
AudioFilename: wuxuanlan.mp3
AudioLeadIn: 0
PreviewTime: 16828
Countdown: 0
SampleSet: Normal
StackLeniency: 0.7
Mode: 1
LetterboxInBreaks: 0
WidescreenStoryboard: 0

[Editor]
DistanceSpacing: 1.6
BeatDivisor: 4
GridSize: 32
TimelineZoom: 1

[Metadata]
Title:Wu Xuan Lan
TitleUnicode:舞·絢爛
Artist:Ci Mei Gui
ArtistUnicode:刺玫瑰
Creator:Nardoxyribonucleic
Version:Kantan
Source:MuziBox
Tags:Taiko
BeatmapID:752323
BeatmapSetID:339558

[Difficulty]
HPDrainRate:7
CircleSize:5
OverallDifficulty:3
ApproachRate:3
SliderMultiplier:1.4
SliderTickRate:1

[Events]
//Background and Video events
0,0,"BG.jpg",0,-30
//Break Periods
//Storyboard Layer 0 (Background)
//Storyboard Layer 1 (Fail)
//Storyboard Layer 2 (Pass)
//Storyboard Layer 3 (Foreground)
//Storyboard Sound Samples

[TimingPoints]
34,357.330030015723,4,1,0,70,1,0
14505,-100,4,1,0,50,0,0
16828,-100,4,1,0,70,0,0
17185,-100,4,1,0,80,0,0
40054,-100,4,1,0,90,0,1
62924,-100,4,1,0,70,0,0
65782,-100,4,1,0,75,0,0
68641,-100,4,1,0,80,0,0
71500,-100,4,1,0,85,0,0
74358,-100,4,1,0,90,0,1
85793,-100,4,1,0,70,0,0
93118,-100,4,1,0,50,0,0
93833,-100,4,1,0,30,0,0
94547,-100,4,1,0,10,0,0

[HitObjects]
256,192,1463,5,4,0:0:0:0:
256,192,2177,1,8,0:0:0:0:
256,192,2892,1,0,0:0:0:0:
256,192,3607,1,8,0:0:0:0:
256,192,3964,1,8,0:0:0:0:
256,192,4321,1,0,0:0:0:0:
256,192,5036,1,8,0:0:0:0:
256,192,5751,1,0,0:0:0:0:
256,192,7180,1,0,0:0:0:0:
256,192,7895,1,8,0:0:0:0:
256,192,8609,1,0,0:0:0:0:
256,192,9324,1,8,0:0:0:0:
256,192,9681,1,8,0:0:0:0:
256,192,10039,1,0,0:0:0:0:
256,192,10753,1,8,0:0:0:0:
256,192,11468,1,0,0:0:0:0:
256,192,12897,2,0,L|320:192,16,35
256,192,14505,12,0,16471,0:0:0:0:
256,192,16828,5,8,0:0:0:0:
256,192,17185,1,4,0:0:0:0:
256,192,17900,1,0,0:0:0:0:
256,192,18615,1,0,0:0:0:0:
256,192,18972,1,8,0:0:0:0:
256,192,19329,1,0,0:0:0:0:
256,192,20044,1,0,0:0:0:0:
256,192,20759,1,0,0:0:0:0:
256,192,21473,1,8,0:0:0:0:
256,192,21831,1,8,0:0:0:0:
256,192,22188,1,8,0:0:0:0:
256,192,22903,1,0,0:0:0:0:
256,192,23617,1,0,0:0:0:0:
256,192,24332,1,0,0:0:0:0:
256,192,24689,1,8,0:0:0:0:
256,192,25047,1,0,0:0:0:0:
256,192,25761,1,0,0:0:0:0:
256,192,26119,1,8,0:0:0:0:
256,192,26476,1,8,0:0:0:0:
256,192,27191,1,0,0:0:0:0:
256,192,28620,1,4,0:0:0:0:
256,192,29334,1,0,0:0:0:0:
256,192,30049,1,0,0:0:0:0:
256,192,30406,1,8,0:0:0:0:
256,192,30763,1,0,0:0:0:0:
256,192,31478,1,0,0:0:0:0:
256,192,32193,1,0,0:0:0:0:
256,192,32908,1,8,0:0:0:0:
256,192,33265,1,0,0:0:0:0:
256,192,33623,1,8,0:0:0:0:
256,192,34337,1,0,0:0:0:0:
256,192,35051,1,0,0:0:0:0:
256,192,35766,1,0,0:0:0:0:
256,192,36123,1,8,0:0:0:0:
256,192,36481,1,0,0:0:0:0:
256,192,37195,1,0,0:0:0:0:
256,192,37553,1,8,0:0:0:0:
256,192,37910,1,8,0:0:0:0:
256,192,38625,1,0,0:0:0:0:
256,192,40054,1,4,0:0:0:0:
256,192,40769,1,8,0:0:0:0:
256,192,41484,1,0,0:0:0:0:
256,192,41841,1,0,0:0:0:0:
256,192,42198,1,8,0:0:0:0:
256,192,42913,1,0,0:0:0:0:
256,192,43628,1,0,0:0:0:0:
256,192,43985,1,8,0:0:0:0:
256,192,44342,1,0,0:0:0:0:
256,192,45772,1,0,0:0:0:0:
256,192,46486,1,0,0:0:0:0:
256,192,46844,1,8,0:0:0:0:
256,192,47201,1,0,0:0:0:0:
256,192,47916,1,0,0:0:0:0:
256,192,48273,1,8,0:0:0:0:
256,192,48630,1,0,0:0:0:0:
256,192,49345,1,8,0:0:0:0:
256,192,50060,1,8,0:0:0:0:
256,192,51489,1,4,0:0:0:0:
256,192,52203,1,8,0:0:0:0:
256,192,52560,1,8,0:0:0:0:
256,192,52918,1,0,0:0:0:0:
256,192,53633,1,8,0:0:0:0:
256,192,54347,1,0,0:0:0:0:
256,192,55062,1,0,0:0:0:0:
256,192,55419,1,8,0:0:0:0:
256,192,55776,1,0,0:0:0:0:
256,192,57206,1,0,0:0:0:0:
256,192,57920,1,0,0:0:0:0:
256,192,58278,1,8,0:0:0:0:
256,192,58635,1,0,0:0:0:0:
256,192,59350,1,8,0:0:0:0:
256,192,60064,1,8,0:0:0:0:
256,192,61494,1,8,0:0:0:0:
256,192,61852,1,8,0:0:0:0:
256,192,62209,1,0,0:0:0:0:
256,192,62924,1,4,0:0:0:0:
256,192,63638,1,0,0:0:0:0:
256,192,64353,1,0,0:0:0:0:
256,192,64710,1,8,0:0:0:0:
256,192,65067,1,0,0:0:0:0:
256,192,65782,1,4,0:0:0:0:
256,192,66497,1,0,0:0:0:0:
256,192,67212,1,8,0:0:0:0:
256,192,67569,1,8,0:0:0:0:
256,192,67926,1,8,0:0:0:0:
256,192,68641,1,4,0:0:0:0:
256,192,69355,1,0,0:0:0:0:
256,192,70070,1,8,0:0:0:0:
256,192,70427,1,0,0:0:0:0:
256,192,70785,1,8,0:0:0:0:
256,192,71500,1,4,0:0:0:0:
256,192,71857,1,12,0:0:0:0:
256,192,72214,1,12,0:0:0:0:
256,192,72929,1,0,0:0:0:0:
256,192,74358,1,4,0:0:0:0:
256,192,75072,1,0,0:0:0:0:
256,192,75787,1,0,0:0:0:0:
256,192,76145,1,8,0:0:0:0:
256,192,76501,1,0,0:0:0:0:
256,192,77216,1,0,0:0:0:0:
256,192,77931,1,0,0:0:0:0:
256,192,78645,1,8,0:0:0:0:
256,192,79003,1,0,0:0:0:0:
256,192,79361,1,8,0:0:0:0:
256,192,80075,1,0,0:0:0:0:
256,192,80789,1,0,0:0:0:0:
256,192,81504,1,0,0:0:0:0:
256,192,81862,1,8,0:0:0:0:
256,192,82219,1,0,0:0:0:0:
256,192,82933,1,0,0:0:0:0:
256,192,83291,1,8,0:0:0:0:
256,192,83648,1,8,0:0:0:0:
256,192,84363,1,0,0:0:0:0:
256,192,85792,1,0,0:0:0:0:
256,192,86507,1,8,0:0:0:0:
256,192,87222,1,0,0:0:0:0:
256,192,87937,1,8,0:0:0:0:
256,192,88294,1,8,0:0:0:0:
256,192,88651,1,0,0:0:0:0:
256,192,89366,1,8,0:0:0:0:
256,192,90081,1,0,0:0:0:0:
256,192,91510,2,0,L|320:192,16,35
256,192,93118,12,0,94547,0:0:0:0:
