osu file format v14

[General]
AudioFilename: wuxuanlan.mp3
AudioLeadIn: 0
PreviewTime: 16828
Countdown: 0
SampleSet: Normal
StackLeniency: 0.7
Mode: 1
LetterboxInBreaks: 0
WidescreenStoryboard: 0

[Editor]
DistanceSpacing: 1.6
BeatDivisor: 4
GridSize: 32
TimelineZoom: 1

[Metadata]
Title:Wu Xuan Lan
TitleUnicode:舞·絢爛
Artist:Ci Mei Gui
ArtistUnicode:刺玫瑰
Creator:Nardoxyribonucleic
Version:Inner Oni
Source:MuziBox
Tags:Taiko
BeatmapID:751680
BeatmapSetID:339558

[Difficulty]
HPDrainRate:7
CircleSize:5
OverallDifficulty:6
ApproachRate:7
SliderMultiplier:1.4
SliderTickRate:1

[Events]
//Background and Video events
0,0,"BG.jpg",0,-30
//Break Periods
//Storyboard Layer 0 (Background)
//Storyboard Layer 1 (Fail)
//Storyboard Layer 2 (Pass)
//Storyboard Layer 3 (Foreground)
//Storyboard Sound Samples

[TimingPoints]
34,357.330030015723,4,1,0,70,1,0
14505,-100,4,1,0,50,0,0
16828,-100,4,1,0,70,0,0
17185,-100,4,1,0,80,0,0
40054,-100,4,1,0,90,0,1
62924,-100,4,1,0,70,0,0
65782,-100,4,1,0,75,0,0
68641,-100,4,1,0,80,0,0
71500,-100,4,1,0,85,0,0
74358,-100,4,1,0,90,0,1
85793,-100,4,1,0,70,0,0
93118,-100,4,1,0,50,0,0
93833,-100,4,1,0,30,0,0
94547,-100,4,1,0,10,0,0

[HitObjects]
256,192,1463,5,4,0:0:0:0:
256,192,1820,1,8,0:0:0:0:
256,192,1999,1,0,0:0:0:0:
256,192,2088,1,0,0:0:0:0:
256,192,2177,1,8,0:0:0:0:
256,192,2356,1,0,0:0:0:0:
256,192,2535,1,8,0:0:0:0:
256,192,2713,1,8,0:0:0:0:
256,192,3071,1,0,0:0:0:0:
256,192,3249,1,8,0:0:0:0:
256,192,3428,1,8,0:0:0:0:
256,192,3517,1,8,0:0:0:0:
256,192,3607,1,0,0:0:0:0:
256,192,3785,1,8,0:0:0:0:
256,192,3964,1,8,0:0:0:0:
256,192,4143,1,0,0:0:0:0:
256,192,4232,1,0,0:0:0:0:
256,192,4321,1,0,0:0:0:0:
256,192,4679,1,8,0:0:0:0:
256,192,4857,1,0,0:0:0:0:
256,192,4947,1,0,0:0:0:0:
256,192,5036,1,8,0:0:0:0:
256,192,5215,1,0,0:0:0:0:
256,192,5393,1,8,0:0:0:0:
256,192,5572,1,8,0:0:0:0:
256,192,5929,1,8,0:0:0:0:
256,192,6287,1,0,0:0:0:0:
256,192,6376,1,0,0:0:0:0:
256,192,6465,1,8,0:0:0:0:
256,192,6644,1,0,0:0:0:0:
256,192,6733,1,0,0:0:0:0:
256,192,6823,1,8,0:0:0:0:
256,192,7001,1,8,0:0:0:0:
256,192,7180,1,0,0:0:0:0:
256,192,7537,1,8,0:0:0:0:
256,192,7716,1,0,0:0:0:0:
256,192,7805,1,0,0:0:0:0:
256,192,7895,1,8,0:0:0:0:
256,192,8073,1,0,0:0:0:0:
256,192,8252,1,8,0:0:0:0:
256,192,8431,1,8,0:0:0:0:
256,192,8788,1,0,0:0:0:0:
256,192,8967,1,8,0:0:0:0:
256,192,9145,1,8,0:0:0:0:
256,192,9235,1,8,0:0:0:0:
256,192,9324,1,0,0:0:0:0:
256,192,9503,1,8,0:0:0:0:
256,192,9681,1,8,0:0:0:0:
256,192,9860,1,0,0:0:0:0:
256,192,9949,1,0,0:0:0:0:
256,192,10039,1,0,0:0:0:0:
256,192,10396,1,8,0:0:0:0:
256,192,10575,1,0,0:0:0:0:
256,192,10664,1,0,0:0:0:0:
256,192,10753,1,8,0:0:0:0:
256,192,10932,1,0,0:0:0:0:
256,192,11111,1,8,0:0:0:0:
256,192,11289,1,8,0:0:0:0:
256,192,11647,1,8,0:0:0:0:
256,192,12004,1,0,0:0:0:0:
256,192,12093,1,0,0:0:0:0:
256,192,12183,1,8,0:0:0:0:
256,192,12361,1,0,0:0:0:0:
256,192,12451,1,0,0:0:0:0:
256,192,12540,1,8,0:0:0:0:
256,192,12719,1,0,0:0:0:0:
256,192,12897,1,8,0:0:0:0:
256,192,12987,1,8,0:0:0:0:
256,192,13076,1,0,0:0:0:0:
256,192,13165,1,0,0:0:0:0:
256,192,13255,1,8,0:0:0:0:
256,192,13344,1,8,0:0:0:0:
256,192,13433,1,0,0:0:0:0:
256,192,13523,1,0,0:0:0:0:
256,192,13612,1,8,0:0:0:0:
256,192,13701,1,0,0:0:0:0:
256,192,13791,1,8,0:0:0:0:
256,192,13880,1,8,0:0:0:0:
256,192,13969,1,0,0:0:0:0:
256,192,14059,1,8,0:0:0:0:
256,192,14148,1,0,0:0:0:0:
256,192,14237,1,0,0:0:0:0:
256,192,14327,1,8,0:0:0:0:
256,192,14505,12,0,16649,0:0:0:0:
256,192,16828,5,8,0:0:0:0:
256,192,16917,1,8,0:0:0:0:
256,192,17007,1,8,0:0:0:0:
256,192,17096,1,8,0:0:0:0:
256,192,17185,1,0,0:0:0:0:
256,192,17543,1,8,0:0:0:0:
256,192,17721,1,0,0:0:0:0:
256,192,17811,1,0,0:0:0:0:
256,192,17900,1,0,0:0:0:0:
256,192,18079,1,8,0:0:0:0:
256,192,18257,1,8,0:0:0:0:
256,192,18436,1,0,0:0:0:0:
256,192,18525,1,0,0:0:0:0:
256,192,18615,1,0,0:0:0:0:
256,192,18793,1,8,0:0:0:0:
256,192,18972,1,0,0:0:0:0:
256,192,19061,1,8,0:0:0:0:
256,192,19151,1,0,0:0:0:0:
256,192,19240,1,0,0:0:0:0:
256,192,19329,1,8,0:0:0:0:
256,192,19508,1,0,0:0:0:0:
256,192,19687,1,8,0:0:0:0:
256,192,19776,1,0,0:0:0:0:
256,192,19865,1,8,0:0:0:0:
256,192,19955,1,8,0:0:0:0:
256,192,20044,1,0,0:0:0:0:
256,192,20401,1,8,0:0:0:0:
256,192,20580,1,0,0:0:0:0:
256,192,20669,1,0,0:0:0:0:
256,192,20759,1,0,0:0:0:0:
256,192,20937,1,8,0:0:0:0:
256,192,21116,1,8,0:0:0:0:
256,192,21295,1,0,0:0:0:0:
256,192,21384,1,0,0:0:0:0:
256,192,21473,1,0,0:0:0:0:
256,192,21652,1,8,0:0:0:0:
256,192,21741,1,8,0:0:0:0:
256,192,21831,1,0,0:0:0:0:
256,192,21920,1,0,0:0:0:0:
256,192,22009,1,8,0:0:0:0:
256,192,22099,1,8,0:0:0:0:
256,192,22188,1,8,0:0:0:0:
256,192,22367,1,0,0:0:0:0:
256,192,22456,1,0,0:0:0:0:
256,192,22545,1,8,0:0:0:0:
256,192,22724,1,8,0:0:0:0:
256,192,22903,1,0,0:0:0:0:
256,192,23260,1,8,0:0:0:0:
256,192,23438,1,0,0:0:0:0:
256,192,23528,1,0,0:0:0:0:
256,192,23617,1,0,0:0:0:0:
256,192,23796,1,8,0:0:0:0:
256,192,23974,1,8,0:0:0:0:
256,192,24153,1,0,0:0:0:0:
256,192,24243,1,0,0:0:0:0:
256,192,24332,1,0,0:0:0:0:
256,192,24510,1,8,0:0:0:0:
256,192,24689,1,0,0:0:0:0:
256,192,24778,1,8,0:0:0:0:
256,192,24868,1,0,0:0:0:0:
256,192,24957,1,0,0:0:0:0:
256,192,25046,1,8,0:0:0:0:
256,192,25225,1,0,0:0:0:0:
256,192,25315,1,0,0:0:0:0:
256,192,25404,1,8,0:0:0:0:
256,192,25582,1,8,0:0:0:0:
256,192,25761,1,0,0:0:0:0:
256,192,26119,1,8,0:0:0:0:
256,192,26476,1,8,0:0:0:0:
256,192,26655,1,0,0:0:0:0:
256,192,26744,1,0,0:0:0:0:
256,192,26833,1,8,0:0:0:0:
256,192,27012,1,8,0:0:0:0:
256,192,27191,1,0,0:0:0:0:
256,192,27369,1,8,0:0:0:0:
256,192,27459,1,0,0:0:0:0:
256,192,27548,1,8,0:0:0:0:
256,192,27727,1,0,0:0:0:0:
256,192,27816,1,0,0:0:0:0:
256,192,27905,1,8,0:0:0:0:
256,192,27995,1,8,0:0:0:0:
256,192,28084,1,0,0:0:0:0:
256,192,28263,1,8,0:0:0:0:
256,192,28441,1,8,0:0:0:0:
256,192,28620,1,4,0:0:0:0:
256,192,28977,1,8,0:0:0:0:
256,192,29155,1,0,0:0:0:0:
256,192,29245,1,0,0:0:0:0:
256,192,29334,1,0,0:0:0:0:
256,192,29513,1,8,0:0:0:0:
256,192,29691,1,8,0:0:0:0:
256,192,29870,1,0,0:0:0:0:
256,192,29960,1,0,0:0:0:0:
256,192,30049,1,0,0:0:0:0:
256,192,30227,1,8,0:0:0:0:
256,192,30406,1,0,0:0:0:0:
256,192,30495,1,8,0:0:0:0:
256,192,30585,1,0,0:0:0:0:
256,192,30674,1,0,0:0:0:0:
256,192,30763,1,8,0:0:0:0:
256,192,30942,1,0,0:0:0:0:
256,192,31121,1,8,0:0:0:0:
256,192,31211,1,0,0:0:0:0:
256,192,31299,1,8,0:0:0:0:
256,192,31389,1,8,0:0:0:0:
256,192,31478,1,0,0:0:0:0:
256,192,31835,1,8,0:0:0:0:
256,192,32014,1,0,0:0:0:0:
256,192,32103,1,0,0:0:0:0:
256,192,32193,1,0,0:0:0:0:
256,192,32371,1,8,0:0:0:0:
256,192,32550,1,8,0:0:0:0:
256,192,32729,1,0,0:0:0:0:
256,192,32819,1,0,0:0:0:0:
256,192,32907,1,0,0:0:0:0:
256,192,33086,1,8,0:0:0:0:
256,192,33176,1,8,0:0:0:0:
256,192,33265,1,0,0:0:0:0:
256,192,33355,1,0,0:0:0:0:
256,192,33443,1,8,0:0:0:0:
256,192,33533,1,8,0:0:0:0:
256,192,33622,1,8,0:0:0:0:
256,192,33801,1,0,0:0:0:0:
256,192,33891,1,0,0:0:0:0:
256,192,33979,1,8,0:0:0:0:
256,192,34158,1,8,0:0:0:0:
256,192,34337,1,0,0:0:0:0:
256,192,34695,1,8,0:0:0:0:
256,192,34873,1,0,0:0:0:0:
256,192,34963,1,0,0:0:0:0:
256,192,35052,1,0,0:0:0:0:
256,192,35231,1,8,0:0:0:0:
256,192,35409,1,8,0:0:0:0:
256,192,35588,1,0,0:0:0:0:
256,192,35677,1,8,0:0:0:0:
256,192,35767,1,0,0:0:0:0:
256,192,35856,1,0,0:0:0:0:
256,192,35945,1,8,0:0:0:0:
256,192,36124,1,8,0:0:0:0:
256,192,36213,1,8,0:0:0:0:
256,192,36303,1,0,0:0:0:0:
256,192,36392,1,0,0:0:0:0:
256,192,36481,1,8,0:0:0:0:
256,192,36660,1,0,0:0:0:0:
256,192,36749,1,0,0:0:0:0:
256,192,36839,1,8,0:0:0:0:
256,192,37017,1,8,0:0:0:0:
256,192,37196,1,0,0:0:0:0:
256,192,37554,1,8,0:0:0:0:
256,192,37911,1,8,0:0:0:0:
256,192,38090,1,8,0:0:0:0:
256,192,38178,1,8,0:0:0:0:
256,192,38268,1,0,0:0:0:0:
256,192,38447,1,8,0:0:0:0:
256,192,38625,1,0,0:0:0:0:
256,192,38804,1,8,0:0:0:0:
256,192,38893,1,0,0:0:0:0:
256,192,38982,1,8,0:0:0:0:
256,192,39072,1,0,0:0:0:0:
256,192,39161,1,8,0:0:0:0:
256,192,39250,1,8,0:0:0:0:
256,192,39340,1,0,0:0:0:0:
256,192,39518,1,8,0:0:0:0:
256,192,39608,1,8,0:0:0:0:
256,192,39697,1,8,0:0:0:0:
256,192,39786,1,8,0:0:0:0:
256,192,39876,1,0,0:0:0:0:
256,192,40054,1,4,0:0:0:0:
256,192,40412,1,8,0:0:0:0:
256,192,40590,1,0,0:0:0:0:
256,192,40680,1,0,0:0:0:0:
256,192,40769,1,8,0:0:0:0:
256,192,40948,1,0,0:0:0:0:
256,192,41126,1,8,0:0:0:0:
256,192,41305,1,8,0:0:0:0:
256,192,41394,1,8,0:0:0:0:
256,192,41484,1,0,0:0:0:0:
256,192,41662,1,0,0:0:0:0:
256,192,41752,1,0,0:0:0:0:
256,192,41841,1,8,0:0:0:0:
256,192,42020,1,8,0:0:0:0:
256,192,42198,1,0,0:0:0:0:
256,192,42377,1,8,0:0:0:0:
256,192,42466,1,0,0:0:0:0:
256,192,42556,1,8,0:0:0:0:
256,192,42734,1,8,0:0:0:0:
256,192,42913,1,0,0:0:0:0:
256,192,43270,1,8,0:0:0:0:
256,192,43449,1,0,0:0:0:0:
256,192,43538,1,0,0:0:0:0:
256,192,43628,1,0,0:0:0:0:
256,192,43806,1,8,0:0:0:0:
256,192,43896,1,8,0:0:0:0:
256,192,43985,1,0,0:0:0:0:
256,192,44164,1,8,0:0:0:0:
256,192,44342,1,0,0:0:0:0:
256,192,44521,1,0,0:0:0:0:
256,192,44610,1,0,0:0:0:0:
256,192,44700,1,8,0:0:0:0:
256,192,44878,1,8,0:0:0:0:
256,192,45057,1,0,0:0:0:0:
256,192,45146,1,8,0:0:0:0:
256,192,45236,1,0,0:0:0:0:
256,192,45414,1,8,0:0:0:0:
256,192,45593,1,8,0:0:0:0:
256,192,45772,1,0,0:0:0:0:
256,192,46129,1,8,0:0:0:0:
256,192,46308,1,0,0:0:0:0:
256,192,46397,1,0,0:0:0:0:
256,192,46486,1,0,0:0:0:0:
256,192,46665,1,8,0:0:0:0:
256,192,46844,1,0,0:0:0:0:
256,192,47022,1,8,0:0:0:0:
256,192,47112,1,8,0:0:0:0:
256,192,47201,1,0,0:0:0:0:
256,192,47380,1,0,0:0:0:0:
256,192,47558,1,8,0:0:0:0:
256,192,47737,1,0,0:0:0:0:
256,192,47826,1,0,0:0:0:0:
256,192,47916,1,0,0:0:0:0:
256,192,48094,1,8,0:0:0:0:
256,192,48273,1,0,0:0:0:0:
256,192,48452,1,8,0:0:0:0:
256,192,48541,1,8,0:0:0:0:
256,192,48630,1,0,0:0:0:0:
256,192,48809,1,0,0:0:0:0:
256,192,48898,1,0,0:0:0:0:
256,192,48988,1,8,0:0:0:0:
256,192,49166,1,0,0:0:0:0:
256,192,49345,1,8,0:0:0:0:
256,192,49434,1,8,0:0:0:0:
256,192,49524,1,0,0:0:0:0:
256,192,49613,1,0,0:0:0:0:
256,192,49702,1,8,0:0:0:0:
256,192,49881,1,0,0:0:0:0:
256,192,50060,1,0,0:0:0:0:
256,192,50149,1,0,0:0:0:0:
256,192,50238,1,8,0:0:0:0:
256,192,50328,1,8,0:0:0:0:
256,192,50417,1,8,0:0:0:0:
256,192,50596,1,8,0:0:0:0:
256,192,50685,1,8,0:0:0:0:
256,192,50774,1,0,0:0:0:0:
256,192,50953,1,0,0:0:0:0:
256,192,51042,1,0,0:0:0:0:
256,192,51132,1,8,0:0:0:0:
256,192,51310,1,0,0:0:0:0:
256,192,51489,1,4,0:0:0:0:
256,192,51846,1,8,0:0:0:0:
256,192,52024,1,0,0:0:0:0:
256,192,52114,1,0,0:0:0:0:
256,192,52203,1,0,0:0:0:0:
256,192,52382,1,8,0:0:0:0:
256,192,52472,1,8,0:0:0:0:
256,192,52561,1,0,0:0:0:0:
256,192,52739,1,8,0:0:0:0:
256,192,52918,1,0,0:0:0:0:
256,192,53096,1,0,0:0:0:0:
256,192,53186,1,0,0:0:0:0:
256,192,53275,1,8,0:0:0:0:
256,192,53454,1,8,0:0:0:0:
256,192,53632,1,0,0:0:0:0:
256,192,53811,1,8,0:0:0:0:
256,192,53900,1,0,0:0:0:0:
256,192,53990,1,8,0:0:0:0:
256,192,54168,1,8,0:0:0:0:
256,192,54347,1,0,0:0:0:0:
256,192,54704,1,8,0:0:0:0:
256,192,54883,1,0,0:0:0:0:
256,192,54972,1,0,0:0:0:0:
256,192,55062,1,0,0:0:0:0:
256,192,55240,1,0,0:0:0:0:
256,192,55419,1,8,0:0:0:0:
256,192,55598,1,8,0:0:0:0:
256,192,55687,1,8,0:0:0:0:
256,192,55776,1,0,0:0:0:0:
256,192,55956,1,0,0:0:0:0:
256,192,56134,1,8,0:0:0:0:
256,192,56312,1,8,0:0:0:0:
256,192,56491,1,0,0:0:0:0:
256,192,56581,1,8,0:0:0:0:
256,192,56670,1,0,0:0:0:0:
256,192,56760,1,0,0:0:0:0:
256,192,56848,1,8,0:0:0:0:
256,192,57027,1,8,0:0:0:0:
256,192,57206,1,0,0:0:0:0:
256,192,57563,1,8,0:0:0:0:
256,192,57742,1,0,0:0:0:0:
256,192,57831,1,0,0:0:0:0:
256,192,57920,1,0,0:0:0:0:
256,192,58099,1,0,0:0:0:0:
256,192,58278,1,8,0:0:0:0:
256,192,58456,1,8,0:0:0:0:
256,192,58546,1,8,0:0:0:0:
256,192,58635,1,0,0:0:0:0:
256,192,58814,1,0,0:0:0:0:
256,192,58992,1,8,0:0:0:0:
256,192,59171,1,0,0:0:0:0:
256,192,59260,1,0,0:0:0:0:
256,192,59350,1,8,0:0:0:0:
256,192,59528,1,0,0:0:0:0:
256,192,59708,1,8,0:0:0:0:
256,192,59886,1,8,0:0:0:0:
256,192,59975,1,8,0:0:0:0:
256,192,60064,1,0,0:0:0:0:
256,192,60243,1,0,0:0:0:0:
256,192,60422,1,8,0:0:0:0:
256,192,60601,1,0,0:0:0:0:
256,192,60690,1,0,0:0:0:0:
256,192,60780,1,0,0:0:0:0:
256,192,60958,1,8,0:0:0:0:
256,192,61137,1,0,0:0:0:0:
256,192,61316,1,0,0:0:0:0:
256,192,61405,1,8,0:0:0:0:
256,192,61494,1,8,0:0:0:0:
256,192,61673,1,0,0:0:0:0:
256,192,61852,1,8,0:0:0:0:
256,192,61941,1,0,0:0:0:0:
256,192,62030,1,8,0:0:0:0:
256,192,62120,1,8,0:0:0:0:
256,192,62209,1,0,0:0:0:0:
256,192,62388,1,0,0:0:0:0:
256,192,62566,1,8,0:0:0:0:
256,192,62745,1,8,0:0:0:0:
256,192,62923,1,4,0:0:0:0:
256,192,63281,1,8,0:0:0:0:
256,192,63459,1,0,0:0:0:0:
256,192,63549,1,0,0:0:0:0:
256,192,63638,1,0,0:0:0:0:
256,192,63817,1,8,0:0:0:0:
256,192,63995,1,8,0:0:0:0:
256,192,64174,1,0,0:0:0:0:
256,192,64264,1,0,0:0:0:0:
256,192,64353,1,0,0:0:0:0:
256,192,64531,1,8,0:0:0:0:
256,192,64710,1,0,0:0:0:0:
256,192,64799,1,8,0:0:0:0:
256,192,64889,1,0,0:0:0:0:
256,192,64978,1,0,0:0:0:0:
256,192,65067,1,8,0:0:0:0:
256,192,65246,1,0,0:0:0:0:
256,192,65336,1,0,0:0:0:0:
256,192,65425,1,8,0:0:0:0:
256,192,65603,1,8,0:0:0:0:
256,192,65782,1,4,0:0:0:0:
256,192,66140,1,8,0:0:0:0:
256,192,66318,1,0,0:0:0:0:
256,192,66408,1,0,0:0:0:0:
256,192,66497,1,8,0:0:0:0:
256,192,66676,1,0,0:0:0:0:
256,192,66854,1,8,0:0:0:0:
256,192,67033,1,8,0:0:0:0:
256,192,67122,1,8,0:0:0:0:
256,192,67212,1,0,0:0:0:0:
256,192,67390,1,0,0:0:0:0:
256,192,67569,1,8,0:0:0:0:
256,192,67748,1,8,0:0:0:0:
256,192,67837,1,0,0:0:0:0:
256,192,67926,1,8,0:0:0:0:
256,192,68105,1,0,0:0:0:0:
256,192,68194,1,0,0:0:0:0:
256,192,68284,1,8,0:0:0:0:
256,192,68462,1,8,0:0:0:0:
256,192,68641,1,4,0:0:0:0:
256,192,68820,1,0,0:0:0:0:
256,192,68909,1,0,0:0:0:0:
256,192,68998,1,8,0:0:0:0:
256,192,69176,1,0,0:0:0:0:
256,192,69266,1,0,0:0:0:0:
256,192,69355,1,8,0:0:0:0:
256,192,69445,1,0,0:0:0:0:
256,192,69534,1,0,0:0:0:0:
256,192,69712,1,8,0:0:0:0:
256,192,69802,1,8,0:0:0:0:
256,192,69891,1,0,0:0:0:0:
256,192,69981,1,8,0:0:0:0:
256,192,70070,1,0,0:0:0:0:
256,192,70248,1,8,0:0:0:0:
256,192,70427,1,0,0:0:0:0:
256,192,70516,1,8,0:0:0:0:
256,192,70606,1,0,0:0:0:0:
256,192,70695,1,0,0:0:0:0:
256,192,70784,1,8,0:0:0:0:
256,192,70963,1,0,0:0:0:0:
256,192,71053,1,0,0:0:0:0:
256,192,71142,1,8,0:0:0:0:
256,192,71320,1,8,0:0:0:0:
256,192,71499,1,4,0:0:0:0:
256,192,71678,1,0,0:0:0:0:
256,192,71768,1,0,0:0:0:0:
256,192,71857,1,8,0:0:0:0:
256,192,72036,1,0,0:0:0:0:
256,192,72214,1,8,0:0:0:0:
256,192,72303,1,8,0:0:0:0:
256,192,72393,1,0,0:0:0:0:
256,192,72482,1,0,0:0:0:0:
256,192,72571,1,8,0:0:0:0:
256,192,72750,1,8,0:0:0:0:
256,192,72839,1,8,0:0:0:0:
256,192,72929,1,0,0:0:0:0:
256,192,73107,1,8,0:0:0:0:
256,192,73286,1,8,0:0:0:0:
256,192,73375,1,8,0:0:0:0:
256,192,73465,1,0,0:0:0:0:
256,192,73554,1,0,0:0:0:0:
256,192,73643,1,8,0:0:0:0:
256,192,73703,1,8,0:0:0:0:
256,192,73763,1,8,0:0:0:0:
256,192,73822,1,0,0:0:0:0:
256,192,73911,1,0,0:0:0:0:
256,192,74001,1,8,0:0:0:0:
256,192,74179,1,8,0:0:0:0:
256,192,74358,1,4,0:0:0:0:
256,192,74715,1,8,0:0:0:0:
256,192,74893,1,0,0:0:0:0:
256,192,74983,1,0,0:0:0:0:
256,192,75072,1,0,0:0:0:0:
256,192,75251,1,8,0:0:0:0:
256,192,75429,1,8,0:0:0:0:
256,192,75519,1,8,0:0:0:0:
256,192,75608,1,0,0:0:0:0:
256,192,75698,1,0,0:0:0:0:
256,192,75787,1,0,0:0:0:0:
256,192,75965,1,8,0:0:0:0:
256,192,76144,1,0,0:0:0:0:
256,192,76233,1,8,0:0:0:0:
256,192,76323,1,0,0:0:0:0:
256,192,76412,1,0,0:0:0:0:
256,192,76501,1,8,0:0:0:0:
256,192,76680,1,0,0:0:0:0:
256,192,76770,1,0,0:0:0:0:
256,192,76859,1,8,0:0:0:0:
256,192,76949,1,0,0:0:0:0:
256,192,77037,1,8,0:0:0:0:
256,192,77216,1,0,0:0:0:0:
256,192,77573,1,8,0:0:0:0:
256,192,77752,1,0,0:0:0:0:
256,192,77841,1,0,0:0:0:0:
256,192,77931,1,0,0:0:0:0:
256,192,78109,1,8,0:0:0:0:
256,192,78288,1,8,0:0:0:0:
256,192,78378,1,0,0:0:0:0:
256,192,78467,1,8,0:0:0:0:
256,192,78557,1,8,0:0:0:0:
256,192,78645,1,0,0:0:0:0:
256,192,78824,1,8,0:0:0:0:
256,192,78914,1,8,0:0:0:0:
256,192,79003,1,0,0:0:0:0:
256,192,79093,1,0,0:0:0:0:
256,192,79181,1,8,0:0:0:0:
256,192,79271,1,8,0:0:0:0:
256,192,79360,1,8,0:0:0:0:
256,192,79539,1,0,0:0:0:0:
256,192,79629,1,0,0:0:0:0:
256,192,79717,1,8,0:0:0:0:
256,192,79896,1,8,0:0:0:0:
256,192,80075,1,0,0:0:0:0:
256,192,80433,1,8,0:0:0:0:
256,192,80611,1,0,0:0:0:0:
256,192,80701,1,0,0:0:0:0:
256,192,80790,1,0,0:0:0:0:
256,192,80969,1,8,0:0:0:0:
256,192,81147,1,8,0:0:0:0:
256,192,81326,1,0,0:0:0:0:
256,192,81415,1,8,0:0:0:0:
256,192,81505,1,0,0:0:0:0:
256,192,81594,1,0,0:0:0:0:
256,192,81683,1,8,0:0:0:0:
256,192,81862,1,8,0:0:0:0:
256,192,81951,1,8,0:0:0:0:
256,192,82041,1,0,0:0:0:0:
256,192,82130,1,0,0:0:0:0:
256,192,82219,1,8,0:0:0:0:
256,192,82398,1,0,0:0:0:0:
256,192,82487,1,0,0:0:0:0:
256,192,82577,1,8,0:0:0:0:
256,192,82755,1,8,0:0:0:0:
256,192,82934,1,0,0:0:0:0:
256,192,83292,1,8,0:0:0:0:
256,192,83649,1,8,0:0:0:0:
256,192,83828,1,8,0:0:0:0:
256,192,83916,1,8,0:0:0:0:
256,192,84006,1,0,0:0:0:0:
256,192,84185,1,8,0:0:0:0:
256,192,84363,1,0,0:0:0:0:
256,192,84453,1,0,0:0:0:0:
256,192,84542,1,8,0:0:0:0:
256,192,84631,1,0,0:0:0:0:
256,192,84720,1,8,0:0:0:0:
256,192,84810,1,0,0:0:0:0:
256,192,84899,1,8,0:0:0:0:
256,192,84988,1,8,0:0:0:0:
256,192,85078,1,0,0:0:0:0:
256,192,85256,1,8,0:0:0:0:
256,192,85346,1,8,0:0:0:0:
256,192,85435,1,8,0:0:0:0:
256,192,85525,1,8,0:0:0:0:
256,192,85614,1,0,0:0:0:0:
256,192,85792,1,0,0:0:0:0:
256,192,86150,1,8,0:0:0:0:
256,192,86329,1,0,0:0:0:0:
256,192,86418,1,0,0:0:0:0:
256,192,86507,1,8,0:0:0:0:
256,192,86686,1,0,0:0:0:0:
256,192,86865,1,8,0:0:0:0:
256,192,87043,1,8,0:0:0:0:
256,192,87401,1,0,0:0:0:0:
256,192,87579,1,8,0:0:0:0:
256,192,87758,1,8,0:0:0:0:
256,192,87847,1,8,0:0:0:0:
256,192,87937,1,0,0:0:0:0:
256,192,88115,1,8,0:0:0:0:
256,192,88294,1,8,0:0:0:0:
256,192,88473,1,0,0:0:0:0:
256,192,88562,1,0,0:0:0:0:
256,192,88651,1,0,0:0:0:0:
256,192,89009,1,8,0:0:0:0:
256,192,89187,1,0,0:0:0:0:
256,192,89277,1,0,0:0:0:0:
256,192,89366,1,8,0:0:0:0:
256,192,89545,1,0,0:0:0:0:
256,192,89723,1,8,0:0:0:0:
256,192,89902,1,8,0:0:0:0:
256,192,90259,1,8,0:0:0:0:
256,192,90617,1,0,0:0:0:0:
256,192,90706,1,0,0:0:0:0:
256,192,90795,1,8,0:0:0:0:
256,192,90974,1,0,0:0:0:0:
256,192,91063,1,0,0:0:0:0:
256,192,91153,1,8,0:0:0:0:
256,192,91331,1,0,0:0:0:0:
256,192,91510,1,8,0:0:0:0:
256,192,91599,1,8,0:0:0:0:
256,192,91689,1,0,0:0:0:0:
256,192,91778,1,0,0:0:0:0:
256,192,91867,1,8,0:0:0:0:
256,192,91957,1,8,0:0:0:0:
256,192,92046,1,0,0:0:0:0:
256,192,92135,1,0,0:0:0:0:
256,192,92225,1,8,0:0:0:0:
256,192,92314,1,8,0:0:0:0:
256,192,92403,1,0,0:0:0:0:
256,192,92493,1,0,0:0:0:0:
256,192,92582,1,8,0:0:0:0:
256,192,92671,1,0,0:0:0:0:
256,192,92761,1,8,0:0:0:0:
256,192,92850,1,8,0:0:0:0:
256,192,92939,1,0,0:0:0:0:
256,192,93118,12,0,94547,0:0:0:0:
