osu file format v12

[General]
AudioFilename: Hatsune+Miku.mp3
AudioLeadIn: 0
PreviewTime: 65235
Countdown: 0
SampleSet: Soft
StackLeniency: 0.7
Mode: 0
LetterboxInBreaks: 0

[Editor]
Bookmarks: 14435
DistanceSpacing: 1
BeatDivisor: 4
GridSize: 4

[Metadata]
Title:Uta Catastrophe
TitleUnicode:ウタカタストロフィ
Artist:ChuuToroP
ArtistUnicode:ちゅうとろP
Creator:HelloSCV
Version:Huard
Source:
Tags:Hatsune Miku Vocaloid Gloria Guard Zejky kosiga
BeatmapID:219746
BeatmapSetID:78487

[Difficulty]
HPDrainRate:5
CircleSize:4
OverallDifficulty:6
ApproachRate:7
SliderMultiplier:1.6
SliderTickRate:1

[Events]
//Background and Video events
0,0,"Hatsune-Miku.jpg",0,0
//Break Periods
2,91428,101529
2,155428,165529
//Storyboard Layer 0 (Background)
//Storyboard Layer 1 (Fail)
//Storyboard Layer 2 (Pass)
//Storyboard Layer 3 (Foreground)
//Storyboard Sound Samples
//Background Colour Transformations
3,100,163,162,255

[TimingPoints]
29,400,4,2,1,70,1,0
14429,-100,4,2,1,70,0,1
14529,-100,4,2,1,70,0,0
65829,-100,4,2,1,70,0,0
66629,-100,4,2,1,70,0,0
67229,-100,4,2,1,70,0,1
72229,-100,4,2,1,70,0,0
73029,-100,4,2,1,70,0,0
73229,-100,4,2,1,70,0,0
73629,-100,4,2,1,70,0,1
78229,-100,4,2,1,15,0,1
78429,-100,4,2,1,15,0,0
78829,-100,4,2,1,70,0,0
79029,-100,4,2,1,15,0,0
79629,-100,4,2,1,70,0,0
79729,-100,4,2,1,15,0,0
80029,-100,4,2,1,70,0,1
84829,-100,4,2,1,15,0,0
85229,-100,4,2,1,70,0,0
85429,-100,4,2,1,15,0,0
86029,-100,4,2,1,70,0,0
86229,-100,4,2,1,15,0,0
86429,-100,4,2,1,70,0,1
89929,-100,4,2,1,5,0,1
90029,-100,4,2,1,70,0,1
90329,-100,4,2,1,5,0,1
90429,-100,4,2,1,70,0,1
91129,-100,4,2,1,70,0,0
91229,-100,4,2,1,70,0,1
91329,-100,4,2,1,70,0,0
103629,-100,4,2,1,5,0,0
104029,-100,4,2,1,50,0,0
110429,-100,4,2,1,70,0,0
129229,-100,4,2,1,15,0,0
129829,-100,4,2,1,70,0,0
130229,-100,4,2,1,15,0,0
130629,-100,4,2,1,70,0,0
131229,-100,4,2,1,70,0,1
135829,-100,4,2,1,15,0,1
136029,-100,4,2,1,15,0,0
136229,-100,4,2,1,70,0,0
136629,-100,4,2,1,15,0,0
137029,-100,4,2,1,70,0,0
137629,-100,4,2,1,70,0,1
142229,-100,4,2,1,15,0,1
142429,-100,4,2,1,15,0,0
142829,-100,4,2,1,70,0,0
143029,-100,4,2,1,15,0,0
143629,-100,4,2,1,70,0,0
143729,-100,4,2,1,15,0,0
144029,-100,4,2,1,70,0,1
148829,-100,4,2,1,15,0,0
149229,-100,4,2,1,70,0,0
149429,-100,4,2,1,15,0,0
150029,-100,4,2,1,70,0,0
150229,-100,4,2,1,15,0,0
150429,-100,4,2,1,70,0,1
155229,-100,4,2,1,70,0,0
166429,-100,4,2,1,70,0,0
168029,-200,4,2,1,15,0,0
168429,-100,4,2,1,70,0,1
168529,-100,4,2,1,70,0,0
194829,-100,4,2,1,15,0,0
195429,-100,4,2,1,70,0,0
195829,-100,4,2,1,15,0,0
196229,-100,4,2,1,70,0,0
196829,-100,4,2,1,70,0,1
201429,-100,4,2,1,15,0,1
201629,-100,4,2,1,15,0,0
201829,-100,4,2,1,70,0,0
202229,-100,4,2,1,15,0,0
202629,-100,4,2,1,70,0,0
203229,-100,4,2,1,70,0,1
208029,-100,4,2,1,15,0,0
208429,-100,4,2,1,70,0,0
208629,-100,4,2,1,15,0,0
208829,-100,4,2,1,15,0,0
209229,-100,4,2,1,70,0,0
209429,-100,4,2,1,15,0,0
209629,-100,4,2,1,70,0,1
214429,-100,4,2,1,15,0,0
214829,-100,4,2,1,70,0,0
215029,-100,4,2,1,15,0,0
215629,-100,4,2,1,70,0,0
215829,-100,4,2,1,15,0,0
216029,-100,4,2,1,70,0,1
222429,-100,4,2,1,35,0,0
223629,-100,4,2,1,70,0,0
224029,-100,4,2,1,70,0,1
224129,-100,4,2,1,70,0,0

[Colours]
Combo1 : 255,70,70
Combo2 : 128,255,255
Combo3 : 255,157,255
Combo4 : 255,255,255

[HitObjects]
72,264,14429,2,0,L|24:264,3,40,4|0|0|0,0:0|0:0|0:0|0:0,0:0:0:0:
132,328,14829,2,0,L|132:372,3,40,8|0|0|0,0:0|0:0|0:0|0:0,0:0:0:0:
152,248,15229,2,0,P|184:220|224:216,1,80
284,260,15629,2,0,L|312:288,3,40,8|0|0|0,0:0|0:0|0:0|0:0,0:0:0:0:
348,304,16029,2,0,P|432:308|488:256,1,160,0|8,0:0|0:0,0:0:0:0:
472,180,16629,1,0,0:0:0:0:
472,100,16829,2,0,L|432:80,3,40
396,76,17229,2,0,P|352:76|316:100,1,80,8|0,0:0|0:0,0:0:0:0:
248,128,17629,6,0,P|208:128|168:112,1,80
124,224,18029,2,0,P|164:224|204:240,1,80,8|0,0:0|0:0,0:0:0:0:
280,224,18429,1,0,0:0:0:0:
256,300,18629,1,0,0:0:0:0:
256,300,18729,1,0,0:0:0:0:
256,300,18829,1,8,0:0:0:0:
180,324,19029,1,0,0:0:0:0:
112,280,19229,6,0,P|80:256|28:248,1,80
48,328,19629,2,0,L|100:176,1,160,8|0,0:0|0:0,0:0:0:0:
152,116,20229,1,0,0:0:0:0:
216,72,20429,1,8,0:0:0:0:
296,72,20629,1,0,0:0:0:0:
360,120,20829,6,0,L|408:120,3,40,4|0|0|0,0:0|0:0|0:0|0:0,0:0:0:0:
380,196,21229,2,0,L|428:220,3,40,8|0|0|0,0:0|0:0|0:0|0:0,0:0:0:0:
360,272,21629,2,0,P|324:288|280:288,1,80
256,216,22029,2,0,L|232:184,3,40,8|0|0|0,0:0|0:0|0:0|0:0,0:0:0:0:
188,160,22429,2,0,P|108:160|60:224,1,160,0|8,0:0|0:0,0:0:0:0:
108,284,23029,1,0,0:0:0:0:
66,349,23229,2,0,P|44:332|28:284,1,80
61,218,23629,1,8,0:0:0:0:
88,152,23829,1,0,0:0:0:0:
168,136,24029,6,0,P|148:96|108:80,1,80
88,152,24429,1,8,0:0:0:0:
140,212,24629,1,0,0:0:0:0:
140,212,24729,1,0,0:0:0:0:
140,212,24829,1,0,0:0:0:0:
220,200,25029,1,0,0:0:0:0:
248,124,25229,2,0,P|292:124|328:144,1,80,8|0,0:0|0:0,0:0:0:0:
372,204,25629,6,0,P|380:248|368:284,1,80,0|8,0:0|0:0,0:0:0:0:
348,316,25929,2,0,P|312:328|264:324,1,80,0|8,0:0|0:0,0:0:0:0:
236,304,26229,1,0,0:0:0:0:
156,316,26429,1,0,0:0:0:0:
140,240,26629,2,0,L|80:240,2,40
212,212,27029,1,0,0:0:0:0:
212,212,27229,6,0,P|256:212|288:228,1,80,4|0,0:0|0:0,0:0:0:0:
340,288,27629,1,8,0:0:0:0:
420,304,27829,1,0,0:0:0:0:
480,256,28029,2,0,P|480:172|428:120,1,160,0|8,0:0|0:0,0:0:0:0:
352,144,28629,2,0,P|324:176|280:192,1,80
212,192,29029,2,0,L|164:192,2,40,0|0|8,0:0|0:0|0:0,0:0:0:0:
292,192,29429,1,0,0:0:0:0:
332,256,29629,2,0,P|332:336|256:372,1,160,0|8,0:0|0:0,0:0:0:0:
196,340,30229,2,0,P|172:304|136:288,1,80
64,256,30629,6,0,P|60:304|76:340,2,80,0|8|0,0:0|0:0|0:0,0:0:0:0:
124,208,31229,2,0,P|164:208|212:184,1,80
256,136,31629,1,8,0:0:0:0:
224,64,31829,1,0,0:0:0:0:
148,40,32029,6,0,P|96:40|60:64,1,80
32,120,32429,2,0,P|32:164|60:220,1,80,8|0,0:0|0:0,0:0:0:0:
124,208,32829,2,0,P|208:208|272:272,1,160,0|8,0:0|0:0,0:0:0:0:
236,332,33429,1,0,0:0:0:0:
160,312,33629,6,0,L|228:168,1,160,4|8,0:0|0:0,0:0:0:0:
260,96,34229,1,0,0:0:0:0:
284,20,34429,2,0,P|320:40|340:80,1,80
320,152,34829,2,0,P|320:192|344:232,1,80,8|0,0:0|0:0,0:0:0:0:
412,264,35229,5,0,0:0:0:0:
448,192,35429,1,0,0:0:0:0:
448,192,35529,1,0,0:0:0:0:
448,192,35629,1,8,0:0:0:0:
396,132,35829,1,0,0:0:0:0:
316,132,36029,2,0,P|240:152|188:216,1,160,0|8,0:0|0:0,0:0:0:0:
200,292,36629,1,0,0:0:0:0:
200,292,36829,6,0,P|208:336|240:360,2,80,0|0|8,0:0|0:0|0:0,0:0:0:0:
124,316,37429,1,0,0:0:0:0:
124,316,37629,2,0,P|98:338|54:350,1,80,0|0,0:0|0:0,0:0:0:0:
63,267,38029,2,0,P|48:236|48:192,1,80,8|0,0:0|0:0,0:0:0:0:
188,260,38429,1,0,0:0:0:0:
256,216,38629,1,0,0:0:0:0:
324,260,38829,2,0,P|368:260|412:228,1,80,8|0,0:0|0:0,0:0:0:0:
344,184,39229,2,0,L|384:348,1,160,0|8,0:0|0:0,0:0:0:0:
130,339,40029,6,0,L|168:184,1,160,4|8,0:0|0:0,0:0:0:0:
184,104,40629,1,0,0:0:0:0:
104,104,40829,2,0,L|60:104,2,40
184,104,41229,2,0,L|220:28,1,80,8|0,0:0|0:0,0:0:0:0:
293,31,41629,6,0,L|328:104,1,80
256,200,42029,2,0,L|256:120,1,80,8|0,0:0|0:0,0:0:0:0:
184,264,42429,2,0,P|256:296|328:264,1,160,0|8,0:0|0:0,0:0:0:0:
256,120,43229,5,0,0:0:0:0:
220,48,43429,2,0,P|256:36|296:48,2,80,0|8|0,0:0|0:0|0:0,0:0:0:0:
256,120,44029,1,0,0:0:0:0:
192,172,44229,1,0,0:0:0:0:
192,252,44429,1,8,0:0:0:0:
256,300,44629,1,0,0:0:0:0:
336,208,44829,6,0,L|176:208,1,160,0|8,0:0|0:0,0:0:0:0:
96,208,45429,1,0,0:0:0:0:
52,144,45629,2,0,P|16:212|56:276,1,160,0|8,0:0|0:0,0:0:0:0:
96,208,46229,1,0,0:0:0:0:
132,136,46429,5,4,0:0:0:0:
212,136,46629,2,0,L|256:136,2,40,0|0|8,0:0|0:0|0:0,0:0:0:0:
132,136,47029,1,0,0:0:0:0:
96,208,47229,2,0,P|96:288|156:348,1,160,0|8,0:0|0:0,0:0:0:0:
228,360,47829,1,0,0:0:0:0:
308,352,48029,6,0,P|348:340|372:304,1,80
300,276,48429,2,0,P|300:236|280:184,1,80,8|0,0:0|0:0,0:0:0:0:
220,244,48829,2,0,P|156:192|68:196,1,160,0|8,0:0|0:0,0:0:0:0:
36,344,49629,5,0,0:0:0:0:
116,360,49829,2,0,P|160:360|204:344,2,80,0|8|0,0:0|0:0|0:0,0:0:0:0:
36,344,50429,1,0,0:0:0:0:
36,264,50629,1,0,0:0:0:0:
88,204,50829,1,8,0:0:0:0:
168,192,51029,1,0,0:0:0:0:
216,256,51229,6,0,L|216:336,1,80
296,336,51629,2,0,L|296:256,1,80,8|0,0:0|0:0,0:0:0:0:
256,184,52029,2,0,L|256:24,1,160,0|8,0:0|0:0,0:0:0:0:
408,72,52829,5,4,0:0:0:0:
480,36,53029,2,0,P|488:76|476:116,2,80,0|8|0,0:0|0:0|0:0,0:0:0:0:
408,72,53629,1,0,0:0:0:0:
336,108,53829,2,0,P|325:70|333:30,2,80,0|8|0,0:0|0:0|0:0,0:0:0:0:
404,148,54429,2,0,P|414:185|406:225,1,80
336,188,54829,2,0,L|256:188,1,80,8|8,0:0|0:0,0:0:0:0:
208,124,55229,2,0,P|180:192|224:260,1,160,0|8,0:0|0:0,0:0:0:0:
356,348,56029,5,4,0:0:0:0:
436,344,56229,2,0,P|476:320|488:288,2,80,0|8|8,0:0|0:0|0:0,0:0:0:0:
356,348,56829,1,0,0:0:0:0:
296,296,57029,1,0,0:0:0:0:
216,296,57229,1,8,0:0:0:0:
156,348,57429,1,0,0:0:0:0:
216,296,57629,6,0,L|216:212,1,80
296,88,58029,2,0,L|296:172,1,80,8|0,0:0|0:0,0:0:0:0:
296,248,58429,1,4,0:0:0:0:
80,296,59229,6,0,P|48:264|32:224,1,80,4|0,0:0|0:0,0:0:0:0:
36,152,59629,1,8,0:0:0:0:
112,132,59829,2,0,P|192:132|264:84,1,160
320,40,60429,2,0,P|364:40|404:56,1,80,8|0,0:0|0:0,0:0:0:0:
456,108,60829,1,0,0:0:0:0:
468,188,61029,1,0,0:0:0:0:
404,232,61229,1,8,0:0:0:0:
328,204,61429,1,8,0:0:0:0:
404,232,61629,2,0,P|404:312|328:352,1,160,0|8,0:0|0:0,0:0:0:0:
256,216,62429,5,0,0:0:0:0:
256,136,62629,2,0,L|256:48,2,80,0|8|0,0:0|0:0|0:0,0:0:0:0:
256,216,63229,1,0,0:0:0:0:
188,256,63429,1,0,0:0:0:0:
116,224,63629,1,8,0:0:0:0:
116,144,63829,1,0,0:0:0:0:
184,104,64029,5,0,0:0:0:0:
256,136,64229,1,0,0:0:0:0:
256,216,64429,1,0,0:0:0:0:
256,296,64629,1,0,0:0:0:0:
332,324,64829,1,4,0:0:0:0:
456,224,65229,6,0,P|440:144|372:104,1,160,0|0,0:0|0:0,0:0:0:0:
296,104,65829,2,0,P|260:124|240:160,1,80,4|0,0:0|0:0,0:0:0:0:
256,316,66629,2,0,P|216:332|176:332,1,80,4|0,0:0|0:0,0:0:0:0:
100,316,67029,1,0,0:0:0:0:
52,252,67229,6,0,P|52:204|72:168,1,80,4|0,0:0|0:0,0:0:0:0:
96,152,67529,1,0,0:0:0:0:
136,148,67629,2,0,P|176:148|212:132,1,80,8|0,0:0|0:0,0:0:0:0:
280,92,68029,2,0,P|360:92|440:144,1,160,0|8,0:0|0:0,0:0:0:0:
376,192,68629,1,0,0:0:0:0:
428,252,68829,6,0,P|360:290|280:290,1,160,0|8,0:0|0:0,0:0:0:0:
208,260,69429,1,0,0:0:0:0:
208,180,69629,2,0,P|260:112|340:120,2,160,0|8|0,0:0|0:0|0:0,0:0:0:0:
208,260,70629,2,0,L|208:312,2,40,0|0|8,0:0|0:0|0:0,0:0:0:0:
128,260,71029,1,0,0:0:0:0:
56,224,71229,2,0,P|56:140|116:88,1,160,0|8,0:0|0:0,0:0:0:0:
224,124,72029,6,0,P|268:124|300:108,1,80,0|4,0:0|0:0,0:0:0:0:
299,108,72429,1,4,0:0:0:0:
460,124,72829,2,0,P|460:168|444:204,1,80,0|4,0:0|0:0,0:0:0:0:
446,200,73229,1,4,0:0:0:0:
420,276,73429,1,0,0:0:0:0:
348,248,73629,6,0,P|304:248|264:260,1,80
200,292,74029,2,0,P|160:272|136:236,1,80,8|0,0:0|0:0,0:0:0:0:
212,212,74429,2,0,L|112:344,1,160,0|8,0:0|0:0,0:0:0:0:
160,144,75229,6,0,P|244:132|300:196,1,160,0|8,0:0|0:0,0:0:0:0:
292,260,75829,1,0,0:0:0:0:
292,340,76029,2,0,P|336:356|372:344,1,80
436,304,76429,2,0,P|460:264|460:224,1,80,8|0,0:0|0:0,0:0:0:0:
392,192,76829,5,0,0:0:0:0:
428,120,77029,2,0,L|476:120,2,40,0|0|8,0:0|0:0|0:0,0:0:0:0:
392,192,77429,1,0,0:0:0:0:
312,192,77629,2,0,P|232:192|164:144,1,160,0|8,0:0|0:0,0:0:0:0:
120,84,78229,1,0,0:0:0:0:
192,52,78429,6,0,L|280:24,1,80
300,100,78829,2,0,L|388:72,1,80,4|0,0:0|0:0,0:0:0:0:
372,156,79229,2,0,L|280:188,1,80
340,248,79629,2,0,L|248:280,1,80,4|0,0:0|0:0,0:0:0:0:
188,300,80029,5,0,0:0:0:0:
112,276,80229,1,0,0:0:0:0:
84,200,80429,1,8,0:0:0:0:
124,132,80629,1,0,0:0:0:0:
200,116,80829,2,0,P|284:116|324:56,1,160,0|8,0:0|0:0,0:0:0:0:
244,48,81429,1,0,0:0:0:0:
244,48,81629,6,0,L|312:192,1,160,4|8,0:0|0:0,0:0:0:0:
344,268,82229,1,0,0:0:0:0:
352,348,82429,2,0,P|396:336|416:308,1,80
344,268,82829,2,0,P|300:280|280:308,1,80,8|0,0:0|0:0,0:0:0:0:
224,364,83229,5,0,0:0:0:0:
144,360,83429,1,0,0:0:0:0:
88,304,83629,1,8,0:0:0:0:
100,224,83829,1,0,0:0:0:0:
168,184,84029,2,0,P|248:184|328:240,1,160,0|8,0:0|0:0,0:0:0:0:
316,304,84629,1,0,0:0:0:0:
256,356,84829,6,0,L|176:356,1,80
176,196,85229,2,0,L|96:196,1,80,4|0,0:0|0:0,0:0:0:0:
96,276,85629,2,0,L|176:276,1,80,4|0,0:0|0:0,0:0:0:0:
176,116,86029,2,0,L|256:116,1,80,4|0,0:0|0:0,0:0:0:0:
336,116,86429,5,0,0:0:0:0:
336,36,86629,2,0,L|380:36,2,40,0|0|8,0:0|0:0|0:0,0:0:0:0:
336,116,87029,1,0,0:0:0:0:
416,116,87229,2,0,B|416:176|416:176|436:208|436:208|436:272,1,160,0|8,0:0|0:0,0:0:0:0:
368,312,87829,1,0,0:0:0:0:
292,340,88029,2,0,L|292:260,1,80
212,184,88429,2,0,L|212:264,1,80,8|0,0:0|0:0,0:0:0:0:
132,184,88829,2,0,L|132:104,1,80
52,28,89229,2,0,L|52:108,1,80,8|0,0:0|0:0,0:0:0:0:
132,28,89629,5,4,0:0:0:0:
212,44,89829,1,0,0:0:0:0:
272,96,90029,1,8,0:0:0:0:
276,176,90229,1,0,0:0:0:0:
231,242,90429,2,0,P|308:248|356:188,2,160,0|8|4,0:0|0:0|0:0,0:0:0:0:
256,192,102429,12,0,103629,0:0:0:0:
256,264,104029,5,4,0:0:0:0:
256,40,105629,5,0,0:0:0:0:
472,192,107229,5,0,0:0:0:0:
392,192,107429,2,0,L|344:192,2,40
392,272,107829,1,0,0:0:0:0:
312,272,108029,2,0,P|236:244|160:256,1,160
159,256,108629,1,0,0:0:0:0:
180,332,108829,5,0,0:0:0:0:
256,352,109029,1,0,0:0:0:0:
256,352,109129,1,0,0:0:0:0:
256,352,109229,1,0,0:0:0:0:
332,332,109429,1,0,0:0:0:0:
256,352,109629,2,0,L|256:184,1,160
256,192,110229,1,0,0:0:0:0:
256,112,110429,5,0,0:0:0:0:
256,112,110629,2,0,L|312:112,2,40
256,32,111029,1,0,0:0:0:0:
176,32,111229,2,0,P|96:32|24:88,1,160
32,236,112029,5,0,0:0:0:0:
32,316,112229,1,0,0:0:0:0:
32,316,112329,1,0,0:0:0:0:
32,316,112429,1,0,0:0:0:0:
100,356,112629,1,0,0:0:0:0:
176,336,112829,2,0,P|236:276|236:200,1,160
128,88,113629,5,0,0:0:0:0:
68,36,113829,2,0,P|52:72|52:112,2,80
128,88,114429,2,0,P|172:88|204:68,1,80
384,88,114829,2,0,P|340:88|308:68,1,80
256,128,115229,2,0,L|256:208,1,80,0|8,0:0|0:0,0:0:0:0:
216,276,115629,2,0,P|256:288|292:276,1,80,8|0,0:0|0:0,0:0:0:0:
332,344,116029,2,0,P|256:368|168:336,1,160,8|0,0:0|0:0,0:0:0:0:
136,192,116829,5,4,0:0:0:0:
136,192,117029,2,0,L|56:192,2,80,0|8|0,0:0|0:0|0:0,0:0:0:0:
204,152,117629,2,0,P|216:192|200:236,1,80
176,304,118029,2,0,P|220:324|256:324,1,80,8|0,0:0|0:0,0:0:0:0:
328,304,118429,5,0,0:0:0:0:
372,240,118629,1,0,0:0:0:0:
340,168,118829,1,8,0:0:0:0:
260,164,119029,1,8,0:0:0:0:
280,240,119229,2,0,L|428:164,1,160,0|8,0:0|0:0,0:0:0:0:
476,16,120029,5,0,0:0:0:0:
396,16,120229,2,0,L|312:16,2,80,0|8|8,0:0|0:0|0:0,0:0:0:0:
476,16,120829,2,0,P|476:60|452:100,1,80
388,128,121229,2,0,P|372:172|376:216,1,80,8|0,0:0|0:0,0:0:0:0:
372,284,121629,5,4,0:0:0:0:
256,316,122029,1,4,0:0:0:0:
140,284,122429,1,4,0:0:0:0:
256,120,123229,6,0,L|256:200,1,80
256,280,123629,1,8,0:0:0:0:
292,352,123829,2,0,P|376:352|436:304,1,160,8|0,0:0|0:0,0:0:0:0:
464,232,124429,1,8,0:0:0:0:
396,192,124629,1,0,0:0:0:0:
316,192,124829,6,0,P|272:192|240:208,1,80
204,280,125229,1,8,0:0:0:0:
228,356,125429,1,8,0:0:0:0:
280,296,125629,2,0,L|124:336,1,160,0|8,0:0|0:0,0:0:0:0:
52,192,126429,5,4,0:0:0:0:
132,192,126629,2,0,P|176:192|216:212,2,80,0|8|8,0:0|0:0|0:0,0:0:0:0:
52,192,127229,2,0,P|52:152|76:112,1,80
132,64,127629,2,0,P|172:64|224:88,1,80,8|0,0:0|0:0,0:0:0:0:
272,128,128029,5,0,0:0:0:0:
284,208,128229,1,0,0:0:0:0:
232,268,128429,1,0,0:0:0:0:
256,344,128629,1,0,0:0:0:0:
336,348,128829,1,4,0:0:0:0:
472,260,129229,6,0,P|472:176|424:116,1,160
352,92,129829,2,0,P|312:92|272:112,1,80,0|4,0:0|0:0,0:0:0:0:
116,124,130629,2,0,P|124:172|148:200,1,80,0|4,0:0|0:0,0:0:0:0:
208,244,131029,1,0,0:0:0:0:
280,212,131229,6,0,P|324:212|372:232,1,80
380,256,131529,1,0,0:0:0:0:
388,296,131629,2,0,P|352:332|320:344,1,80,8|0,0:0|0:0,0:0:0:0:
244,348,132029,2,0,P|164:328|108:272,1,160,0|8,0:0|0:0,0:0:0:0:
108,196,132629,1,0,0:0:0:0:
180,160,132829,6,0,P|260:160|304:96,1,160,0|8,0:0|0:0,0:0:0:0:
224,92,133429,1,0,0:0:0:0:
224,92,133629,2,0,L|300:236,1,160,0|8,0:0|0:0,0:0:0:0:
336,304,134229,1,0,0:0:0:0:
272,348,134429,6,0,P|228:348|192:336,1,80
164,312,134729,1,0,0:0:0:0:
148,276,134829,2,0,P|132:236|104:208,1,80,8|0,0:0|0:0,0:0:0:0:
36,168,135229,1,0,0:0:0:0:
48,88,135429,1,0,0:0:0:0:
120,52,135629,1,8,0:0:0:0:
196,80,135829,1,0,0:0:0:0:
220,156,136029,6,0,P|256:188|296:192,1,80,0|4,0:0|0:0,0:0:0:0:
364,168,136429,1,4,0:0:0:0:
472,284,136829,2,0,P|444:320|404:336,1,80,0|4,0:0|0:0,0:0:0:0:
336,356,137229,1,4,0:0:0:0:
256,340,137429,1,0,0:0:0:0:
208,276,137629,6,0,P|208:232|228:196,1,80
252,172,137929,1,0,0:0:0:0:
264,132,138029,2,0,P|264:92|244:48,1,80,8|0,0:0|0:0,0:0:0:0:
172,32,138429,2,0,P|92:40|40:104,1,160,0|8,0:0|0:0,0:0:0:0:
172,192,139229,6,0,P|172:272|96:304,1,160,0|8,0:0|0:0,0:0:0:0:
96,224,139829,1,0,0:0:0:0:
96,224,140029,2,0,L|240:308,1,160,0|8,0:0|0:0,0:0:0:0:
308,340,140629,1,0,0:0:0:0:
388,340,140829,6,0,P|432:336|468:312,1,80
476,280,141129,1,0,0:0:0:0:
476,240,141229,2,0,P|476:196|460:164,1,80,8|0,0:0|0:0,0:0:0:0:
388,132,141629,2,0,P|300:120|224:168,1,160,0|8,0:0|0:0,0:0:0:0:
200,220,142229,5,0,0:0:0:0:
268,260,142429,2,0,L|220:328,1,80
105,349,142829,2,0,L|152:284,1,80,4|0,0:0|0:0,0:0:0:0:
82,246,143229,2,0,L|36:312,1,80
16,200,143629,2,0,L|62:134,1,80,4|0,0:0|0:0,0:0:0:0:
108,68,144029,5,0,0:0:0:0:
184,44,144229,1,0,0:0:0:0:
252,84,144429,1,8,0:0:0:0:
256,164,144629,1,0,0:0:0:0:
188,208,144829,2,0,P|188:252|216:284,1,80
280,320,145229,2,0,P|324:320|368:296,1,80,8|0,0:0|0:0,0:0:0:0:
412,248,145629,6,0,P|432:168|392:100,1,160,0|8,0:0|0:0,0:0:0:0:
320,76,146229,1,0,0:0:0:0:
244,96,146429,2,0,P|228:132|228:172,1,80
248,208,146729,1,0,0:0:0:0:
276,240,146829,2,0,P|264:288|240:316,1,80,8|0,0:0|0:0,0:0:0:0:
168,336,147229,5,0,0:0:0:0:
88,324,147429,1,0,0:0:0:0:
40,260,147629,2,0,P|36:216|44:172,1,80,8|0,0:0|0:0,0:0:0:0:
112,220,148029,2,0,P|180:172|268:176,1,160,0|8,0:0|0:0,0:0:0:0:
328,204,148629,1,0,0:0:0:0:
328,284,148829,6,0,L|412:284,1,80
408,204,149229,2,0,L|324:204,1,80,4|0,0:0|0:0,0:0:0:0:
248,204,149629,2,0,L|160:204,1,80
168,284,150029,2,0,L|252:284,1,80,4|0,0:0|0:0,0:0:0:0:
328,284,150429,5,4,0:0:0:0:
360,212,150629,1,0,0:0:0:0:
348,132,150829,2,0,P|312:100|280:92,1,80,8|0,0:0|0:0,0:0:0:0:
200,88,151229,2,0,P|164:112|140:156,1,80
152,184,151529,1,0,0:0:0:0:
168,220,151629,2,0,P|136:252|100:264,1,80,8|0,0:0|0:0,0:0:0:0:
116,344,152029,6,0,P|200:308|248:252,1,160,0|8,0:0|0:0,0:0:0:0:
244,176,152629,1,0,0:0:0:0:
284,108,152829,2,0,P|328:108|376:132,1,80
420,176,153229,2,0,P|424:220|416:264,1,80,8|0,0:0|0:0,0:0:0:0:
368,316,153629,5,0,0:0:0:0:
292,336,153829,1,0,0:0:0:0:
216,316,154029,2,0,P|180:284|168:248,1,80,8|0,0:0|0:0,0:0:0:0:
172,176,154429,2,0,P|224:112|300:100,2,160,0|8|4,0:0|0:0|0:0,0:0:0:0:
40,92,166429,5,0,0:0:0:0:
132,172,166629,2,0,L|168:200,1,40,8|0,0:0|0:0,0:0:0:0:
256,120,166929,2,0,L|256:164,1,40,0|8,0:0|0:0,0:0:0:0:
344,224,167229,1,0,0:0:0:0:
396,116,167429,2,0,L|440:116,1,40
468,140,167629,2,0,L|480:180,3,40
324,276,168429,6,0,L|268:332,1,80,4|0,0:0|0:0,0:0:0:0:
192,356,168829,2,0,P|112:356|52:296,1,160,0|8,0:0|0:0,0:0:0:0:
56,224,169429,1,0,0:0:0:0:
128,192,169629,6,0,P|172:192|208:176,1,80
272,136,170029,1,8,0:0:0:0:
332,192,170229,1,0,0:0:0:0:
332,192,170329,1,0,0:0:0:0:
332,192,170429,1,0,0:0:0:0:
264,232,170629,1,0,0:0:0:0:
260,312,170829,2,0,P|304:328|348:328,1,80,8|0,0:0|0:0,0:0:0:0:
452,288,171229,6,0,L|468:248,3,40
472,212,171629,2,0,L|456:160,3,40,8|0|0|0,0:0|0:0|0:0|0:0,0:0:0:0:
428,148,172029,2,0,P|388:124|352:120,1,80
288,164,172429,2,0,P|248:152|212:124,1,80,8|0,0:0|0:0,0:0:0:0:
156,80,172829,2,0,P|76:124|52:200,1,160,0|8,0:0|0:0,0:0:0:0:
56,264,173429,1,0,0:0:0:0:
112,320,173629,2,0,L|152:328,3,40,4|0|0|0,0:0|0:0|0:0|0:0,0:0:0:0:
192,332,174029,2,0,L|240:320,3,40,8|0|0|0,0:0|0:0|0:0|0:0,0:0:0:0:
264,300,174429,6,0,P|308:300|356:320,2,80,0|0|8,0:0|0:0|0:0,0:0:0:0:
196,256,175029,1,0,0:0:0:0:
196,176,175229,2,0,P|208:132|236:104,1,80
280,172,175629,2,0,P|328:160|368:168,1,80,8|0,0:0|0:0,0:0:0:0:
432,196,176029,2,0,P|456:280|420:352,1,160,0|8,0:0|0:0,0:0:0:0:
352,364,176629,1,0,0:0:0:0:
280,328,176829,2,0,P|192:328|128:368,1,160,0|8,0:0|0:0,0:0:0:0:
24,244,177629,6,0,P|112:244|176:204,1,160,0|8,0:0|0:0,0:0:0:0:
232,152,178229,1,0,0:0:0:0:
256,76,178429,2,0,P|292:100|312:136,1,80
288,208,178829,2,0,P|288:248|312:288,1,80,8|0,0:0|0:0,0:0:0:0:
380,312,179229,2,0,L|424:320,3,40,4|0|0|0,0:0|0:0|0:0|0:0,0:0:0:0:
456,304,179629,2,0,L|488:276,3,40,8|0|0|0,0:0|0:0|0:0|0:0,0:0:0:0:
500,240,180029,2,0,P|500:160|432:104,1,160,0|8,0:0|0:0,0:0:0:0:
372,80,180629,2,0,L|372:40,2,40,0|0|0,0:0|0:0|0:0,0:0:0:0:
372,160,181029,5,0,0:0:0:0:
308,208,181229,2,0,P|268:208|232:188,1,80,8|8,0:0|0:0,0:0:0:0:
184,128,181629,2,0,P|156:168|156:212,1,80
168,276,182029,1,8,0:0:0:0:
244,304,182229,1,0,0:0:0:0:
324,308,182429,2,0,P|356:276|372:236,2,80,0|0|8,0:0|0:0|0:0,0:0:0:0:
244,304,183029,1,8,0:0:0:0:
168,276,183229,2,0,P|88:276|44:352,1,160,0|8,0:0|0:0,0:0:0:0:
124,344,183829,5,0,0:0:0:0:
124,344,184029,2,0,L|44:196,1,160,4|8,0:0|0:0,0:0:0:0:
12,132,184629,1,0,0:0:0:0:
56,64,184829,2,0,P|136:64|200:124,1,160,0|8,0:0|0:0,0:0:0:0:
196,192,185429,1,0,0:0:0:0:
160,264,185629,2,0,P|204:272|240:260,2,80,0|0|8,0:0|0:0|0:0,0:0:0:0:
116,196,186229,1,0,0:0:0:0:
152,124,186429,1,4,0:0:0:0:
296,52,187229,6,0,P|336:52|376:72,1,80,4|0,0:0|0:0,0:0:0:0:
424,132,187629,1,8,0:0:0:0:
412,212,187829,2,0,P|332:232|248:216,1,160,8|0,0:0|0:0,0:0:0:0:
184,184,188429,2,0,P|168:224|172:272,1,80,8|0,0:0|0:0,0:0:0:0:
224,320,188829,2,0,P|276:328|320:328,2,80,0|0|8,0:0|0:0|0:0,0:0:0:0:
152,352,189429,1,8,0:0:0:0:
72,336,189629,2,0,P|36:264|52:176,1,160,0|8,0:0|0:0,0:0:0:0:
168,84,190429,5,4,0:0:0:0:
248,84,190629,2,0,P|288:84|328:64,2,80,0|8|8,0:0|0:0|0:0,0:0:0:0:
168,84,191229,2,0,P|168:128|192:168,1,80
244,212,191629,2,0,P|244:256|228:292,1,80,8|0,0:0|0:0,0:0:0:0:
164,336,192029,5,0,0:0:0:0:
84,344,192229,1,0,0:0:0:0:
48,272,192429,1,0,0:0:0:0:
108,220,192629,1,0,0:0:0:0:
176,260,192829,1,4,0:0:0:0:
320,188,193629,5,0,0:0:0:0:
240,196,193829,1,0,0:0:0:0:
204,124,194029,1,0,0:0:0:0:
264,72,194229,1,0,0:0:0:0:
332,112,194429,1,4,0:0:0:0:
472,192,194829,6,0,P|472:272|420:336,1,160
348,352,195429,2,0,P|296:344|256:320,1,80,0|4,0:0|0:0,0:0:0:0:
136,248,196229,2,0,P|148:208|176:180,1,80,0|4,0:0|0:0,0:0:0:0:
248,152,196629,1,0,0:0:0:0:
320,188,196829,6,0,P|368:200|412:200,1,80
436,192,197129,1,0,0:0:0:0:
464,160,197229,2,0,P|472:112|464:72,1,80,8|0,0:0|0:0,0:0:0:0:
396,48,197629,2,0,P|312:40|236:68,1,160,0|8,0:0|0:0,0:0:0:0:
204,136,198229,5,0,0:0:0:0:
208,216,198429,2,0,P|192:304|128:328,1,160,0|8,0:0|0:0,0:0:0:0:
60,300,199029,1,0,0:0:0:0:
28,228,199229,1,0,0:0:0:0:
100,192,199429,1,0,0:0:0:0:
100,192,199529,1,0,0:0:0:0:
100,192,199629,1,8,0:0:0:0:
28,228,199829,1,0,0:0:0:0:
24,148,200029,6,0,P|60:112|96:104,1,80
128,112,200329,1,0,0:0:0:0:
164,132,200429,2,0,P|184:168|184:216,1,80,8|0,0:0|0:0,0:0:0:0:
188,288,200829,2,0,P|260:312|336:280,1,160,0|8,0:0|0:0,0:0:0:0:
408,128,201629,6,0,P|376:100|336:88,1,80,0|4,0:0|0:0,0:0:0:0:
340,88,202029,1,0,0:0:0:0:
180,84,202429,2,0,P|176:124|184:172,1,80,0|4,0:0|0:0,0:0:0:0:
181,163,202829,1,0,0:0:0:0:
248,208,203029,1,0,0:0:0:0:
280,280,203229,6,0,P|252:324|220:340,1,80
192,352,203529,1,0,0:0:0:0:
156,336,203629,2,0,P|132:322|104:278,1,80,8|0,0:0|0:0,0:0:0:0:
76,204,204029,2,0,P|80:120|136:60,1,160,0|8,0:0|0:0,0:0:0:0:
204,92,204629,5,0,0:0:0:0:
280,116,204829,2,0,P|368:120|404:64,1,160,0|8,0:0|0:0,0:0:0:0:
328,52,205429,1,0,0:0:0:0:
328,52,205629,2,0,L|400:200,1,160,0|8,0:0|0:0,0:0:0:0:
432,268,206229,1,0,0:0:0:0:
404,344,206429,2,0,P|360:356|324:356,1,80
300,324,206729,1,0,0:0:0:0:
268,300,206829,2,0,P|228:296|192:312,1,80,8|0,0:0|0:0,0:0:0:0:
116,344,207229,2,0,P|72:264|84:184,1,160,0|8,0:0|0:0,0:0:0:0:
112,128,207829,1,0,0:0:0:0:
192,128,208029,6,0,L|280:128,1,80
272,48,208429,2,0,L|184:48,1,80,4|0,0:0|0:0,0:0:0:0:
192,208,208829,2,0,L|280:208,1,80
424,152,209229,2,0,L|344:152,1,80,4|0,0:0|0:0,0:0:0:0:
192,104,209629,6,0,L|272:104,2,80,0|0|8,0:0|0:0|0:0,0:0:0:0:
112,104,210229,1,0,0:0:0:0:
68,36,210429,2,0,P|36:104|76:176,1,160,0|8,0:0|0:0,0:0:0:0:
140,220,211029,1,0,0:0:0:0:
220,216,211229,6,0,P|296:244|320:332,1,160,0|8,0:0|0:0,0:0:0:0:
260,364,211829,1,0,0:0:0:0:
216,300,212029,2,0,P|292:256|364:256,1,160,0|8,0:0|0:0,0:0:0:0:
436,288,212629,1,0,0:0:0:0:
472,216,212829,2,0,P|472:168|448:128,1,80
428,112,213129,1,0,0:0:0:0:
388,108,213229,2,0,P|348:108|300:88,1,80,8|0,0:0|0:0,0:0:0:0:
232,76,213629,2,0,P|140:108|100:176,1,160,0|8,0:0|0:0,0:0:0:0:
88,236,214229,1,0,0:0:0:0:
132,304,214429,6,0,P|164:332|200:344,1,80
380,304,214829,2,0,P|348:332|312:344,1,80,4|0,0:0|0:0,0:0:0:0:
124,196,215229,2,0,P|156:224|192:236,1,80
388,196,215629,2,0,P|356:224|320:236,1,80,4|0,0:0|0:0,0:0:0:0:
256,136,216029,6,0,L|256:56,2,80,0|0|8,0:0|0:0|0:0,0:0:0:0:
256,216,216629,1,0,0:0:0:0:
188,260,216829,2,0,P|256:296|324:260,1,160,0|8,0:0|0:0,0:0:0:0:
384,208,217429,1,0,0:0:0:0:
404,284,217629,2,0,P|336:352|264:372,1,160,0|8,0:0|0:0,0:0:0:0:
196,364,218229,1,0,0:0:0:0:
120,336,218429,2,0,L|60:280,1,80
120,228,218829,2,0,L|180:284,1,80,8|0,0:0|0:0,0:0:0:0:
333,282,219229,6,0,L|392:228,1,80,4|0,0:0|0:0,0:0:0:0:
340,164,219629,2,0,L|280:220,1,80,8|0,0:0|0:0,0:0:0:0:
224,276,220029,2,0,P|144:276|88:216,1,160,0|8,0:0|0:0,0:0:0:0:
88,144,220629,1,0,0:0:0:0:
168,144,220829,6,0,P|248:144|304:92,1,160,0|8,0:0|0:0,0:0:0:0:
256,28,221429,1,0,0:0:0:0:
176,28,221629,2,0,L|96:28,1,80
336,28,222029,2,0,L|416:28,1,80,8|0,0:0|0:0,0:0:0:0:
256,28,222429,2,0,L|256:116,1,80
216,176,222829,2,0,P|256:184|296:176,1,80
332,248,223229,2,0,P|256:264|172:244,1,160,0|8,0:0|0:0,0:0:0:0:
256,108,224029,5,4,0:0:0:0:
