osu file format v12

[General]
AudioFilename: whii.mp3
AudioLeadIn: 0
PreviewTime: 88142
Countdown: 0
SampleSet: Normal
StackLeniency: 0.7
Mode: 0
LetterboxInBreaks: 0
WidescreenStoryboard: 1

[Editor]
Bookmarks: 47879,57984,68090,88300,108511,130615,150825,160931,171036,181141,198825,219036
DistanceSpacing: 1
BeatDivisor: 2
GridSize: 4

[Metadata]
Title:Seiya Bokumetsu Chousetsu Suishoudan
TitleUnicode:聖夜撲滅超絶推奨団
Artist:ChuuToroP
ArtistUnicode:ちゅうとろP
Creator:Broccoly
Version:Normal
Source:
Tags:vocaloid hatsune miku megpoid gumi
BeatmapID:330727
BeatmapSetID:131246

[Difficulty]
HPDrainRate:4
CircleSize:3
OverallDifficulty:3
ApproachRate:4
SliderMultiplier:0.899999999999999
SliderTickRate:1

[Events]
//Background and Video events
0,0,"destruction.jpg",0,0
//Break Periods
2,58184,66770
2,85974,86980
2,171036,179821
//Storyboard Layer 0 (Background)
//Storyboard Layer 1 (Fail)
//Storyboard Layer 2 (Pass)
//Storyboard Layer 3 (Foreground)
//Storyboard Sound Samples
//Background Colour Transformations
3,100,163,162,255

[TimingPoints]
1234,731.707317073171,3,2,0,40,1,0
27354,315.789473684211,3,1,0,50,1,0
27669,315.789473684211,4,1,1,60,1,0
47879,-100,4,2,0,50,0,0
68090,-100,4,1,1,60,0,0
85774,-100,4,1,1,45,0,0
88300,-90.9090909090909,4,1,1,60,0,1
98326,-90.9090909090909,4,1,1,60,0,0
98405,-90.9090909090909,4,1,1,60,0,1
108511,-90.9090909090909,4,1,1,60,0,0
109774,-100,4,1,1,60,0,0
118616,315.789473684211,6,1,1,60,1,0
120510,315.789473684211,4,1,1,60,1,0
130615,-90.9090909090909,4,1,1,60,0,1
140641,-90.9090909090909,4,1,1,60,0,0
140720,-100,4,1,1,60,0,1
150825,-100,4,1,1,60,0,0
181141,-100,4,2,0,44,0,0
198825,-83.3333333333333,4,1,1,65,0,1
208931,-83.3333333333333,4,1,1,60,0,0
209246,-100,4,1,1,60,0,1
219036,-100,4,1,1,50,0,0

[Colours]
Combo1 : 164,193,165
Combo2 : 255,81,81
Combo3 : 250,116,247
Combo4 : 84,216,231
Combo5 : 80,239,75
Combo6 : 220,175,175
Combo7 : 210,172,201
Combo8 : 170,193,190

[HitObjects]
256,192,23185,12,0,27354,0:0:0:0:
296,276,27669,6,0,P|356:272|396:292,1,89.9999999999999,4|8,0:0|0:0,0:0:0:0:
464,320,28300,2,0,P|480:268|472:216,1,89.9999999999999,0|8,0:0|0:0,0:0:0:0:
400,188,28932,1,0,0:0:0:0:
476,140,29247,1,8,0:0:0:0:
396,96,29563,2,0,L|288:36,1,89.9999999999999,0|8,0:0|0:0,0:0:0:0:
264,124,30195,6,0,L|156:64,1,89.9999999999999,4|8,0:0|0:0,0:0:0:0:
108,32,30826,2,0,P|92:68|112:128,1,89.9999999999999,0|8,0:0|0:0,0:0:0:0:
44,184,31458,1,0,0:0:0:0:
44,184,31774,1,8,0:0:0:0:
0,264,32090,2,0,P|80:268|132:176,1,180,0|4,0:0|0:0,0:0:0:0:
164,108,33037,5,8,0:0:0:0:
224,180,33353,2,0,P|216:240|232:280,1,89.9999999999999,0|8,0:0|0:0,0:0:0:0:
180,348,33984,2,0,P|236:360|276:344,1,89.9999999999999,0|8,0:0|0:0,0:0:0:0:
336,292,34616,1,0,0:0:0:0:
336,292,34932,2,0,L|380:344,2,45,8|0|4,0:0|0:0|0:0,0:0:0:0:
356,204,35563,5,8,0:0:0:0:
424,264,35879,2,0,P|440:236|428:152,1,89.9999999999999,0|8,0:0|0:0,0:0:0:0:
380,112,36511,2,0,L|396:56,2,45,0|0|8,0:0|0:0|0:0,0:0:0:0:
296,144,37142,2,0,L|280:92,2,45,0|0|8,0:0|0:0|0:0,0:0:0:0:
280,232,37774,70,0,L|184:248,1,89.9999999999999,4|8,0:0|0:0,0:0:0:0:
152,328,38405,2,0,L|44:296,1,89.9999999999999,0|8,0:0|0:0,0:0:0:0:
76,212,39037,2,0,P|52:176|52:112,1,89.9999999999999,0|8,0:0|0:0,0:0:0:0:
20,44,39669,2,0,P|44:40|108:64,1,89.9999999999999,0|8,0:0|0:0,0:0:0:0:
136,144,40300,6,0,P|209:102|300:48,1,180,4|0,0:0|0:0,0:0:0:0:
380,68,41247,1,8,0:0:0:0:
468,88,41563,2,0,L|520:100,2,45,0|0|8,0:0|0:0|0:0,0:0:0:0:
404,152,42195,2,0,L|352:172,2,45,0|0|8,0:0|0:0|0:0,0:0:0:0:
472,212,42826,6,0,P|476:264|440:320,1,89.9999999999999,4|8,0:0|0:0,0:0:0:0:
388,352,43458,1,0,0:0:0:0:
304,316,43774,1,8,0:0:0:0:
224,360,44090,2,0,L|124:352,1,89.9999999999999,0|8,0:0|0:0,0:0:0:0:
44,368,44721,2,0,L|60:256,1,89.9999999999999,0|8,0:0|0:0,0:0:0:0:
100,200,45353,6,0,P|56:172|44:128,1,89.9999999999999,0|8,0:0|0:0,0:0:0:0:
24,52,45984,1,0,0:0:0:0:
112,36,46300,1,8,0:0:0:0:
128,124,46616,2,0,P|164:112|180:96,2,45,0|0|8,0:0|0:0|0:0,0:0:0:0:
176,200,47247,2,0,P|216:200|232:196,2,45,0|0|8,0:0|0:0|0:0,0:0:0:0:
88,208,47879,70,0,P|60:264|132:348,1,180,4|0,0:0|0:0,0:0:0:0:
204,304,48826,1,2,0:0:0:0:
280,352,49142,2,0,L|404:304,1,89.9999999999999,0|2,0:0|0:0,0:0:0:0:
448,352,49774,2,0,L|496:268,1,89.9999999999999,0|2,0:0|0:0,0:0:0:0:
408,240,50405,6,0,P|400:200|480:88,1,180,4|0,0:0|0:0,0:0:0:0:
420,16,51353,1,2,0:0:0:0:
352,76,51669,1,0,0:0:0:0:
272,36,51984,2,0,L|200:48,1,45,2|0,0:0|0:0,0:0:0:0:
152,92,52458,2,0,L|80:104,3,45,0|2|0|4,0:0|0:0|0:0|0:0,0:0:0:0:
36,156,53247,5,2,0:0:0:0:
96,224,53563,2,0,L|80:324,1,89.9999999999999,0|2,0:0|0:0,0:0:0:0:
156,364,54195,2,0,L|192:276,1,89.9999999999999,0|2,0:0|0:0,0:0:0:0:
220,248,54669,2,0,P|296:256|340:324,1,135,0|2,0:0|0:0,0:0:0:0:
404,356,55458,6,0,P|452:324|472:204,1,180,4|0,0:0|0:0,0:0:0:0:
408,152,56405,1,2,0:0:0:0:
440,68,56721,2,0,P|384:64|348:84,1,89.9999999999999,0|2,0:0|0:0,0:0:0:0:
288,136,57353,2,0,P|236:136|200:120,1,89.9999999999999,0|2,0:0|0:0,0:0:0:0:
124,72,57984,1,4,0:0:0:0:
52,336,68090,70,0,L|148:352,1,89.9999999999999,4|8,0:0|0:0,0:0:0:0:
228,324,68721,2,0,L|336:316,1,89.9999999999999,0|8,0:0|0:0,0:0:0:0:
404,344,69353,2,0,P|452:316|452:196,1,180,0|0,0:0|0:0,0:0:0:0:
448,112,70300,1,8,0:0:0:0:
404,32,70616,6,0,L|316:80,1,89.9999999999999,4|8,0:0|0:0,0:0:0:0:
240,40,71247,2,0,L|152:88,1,89.9999999999999,0|8,0:0|0:0,0:0:0:0:
76,56,71879,2,0,P|40:96|80:212,1,180
160,192,72826,1,8,0:0:0:0:
124,276,73142,6,0,L|88:336,2,45,4|0|8,0:0|0:0|0:0,0:0:0:0:
212,264,73774,2,0,L|212:364,1,89.9999999999999,0|8,0:0|0:0,0:0:0:0:
300,376,74405,2,0,P|328:336|384:308,1,89.9999999999999,0|8,0:0|0:0,0:0:0:0:
444,280,75037,1,0,0:0:0:0:
460,192,75353,1,8,0:0:0:0:
460,192,75669,6,0,P|384:180|348:88,1,180,4|0,0:0|0:0,0:0:0:0:
404,24,76616,1,8,0:0:0:0:
444,104,76932,2,0,L|304:244,1,180,4|0,0:0|0:0,0:0:0:0:
256,164,77879,1,8,0:0:0:0:
232,252,78195,70,0,P|184:224|168:168,1,89.9999999999999,4|0,0:0|0:0,0:0:0:0:
180,104,78826,2,0,P|180:76|136:20,1,89.9999999999999,0|8,0:0|0:0,0:0:0:0:
92,100,79458,2,0,L|-12:112,1,89.9999999999999,0|8,0:0|0:0,0:0:0:0:
44,192,80090,2,0,L|-12:296,1,89.9999999999999,0|8,0:0|0:0,0:0:0:0:
72,328,80721,6,0,P|120:364|248:348,1,180,4|0,0:0|0:0,0:0:0:0:
296,292,81669,1,8,0:0:0:0:
384,312,81984,2,0,L|456:328,2,45,0|0|8,0:0|0:0|0:0,0:0:0:0:
356,224,82616,2,0,L|456:164,1,89.9999999999999,0|8,0:0|0:0,0:0:0:0:
500,120,83247,6,0,P|412:128|356:48,1,180,4|0,0:0|0:0,0:0:0:0:
272,92,84195,1,8,0:0:0:0:
216,160,84511,2,0,L|128:104,1,89.9999999999999,0|8,0:0|0:0,0:0:0:0:
64,64,85142,1,0,0:0:0:0:
20,144,85458,1,8,0:0:0:0:
24,232,85774,5,2,0:0:0:0:
88,240,88300,70,0,L|208:244,1,99.0000030212402,4|8,0:0|0:0,0:0:0:0:
208,340,88932,2,0,L|336:332,1,99.0000030212402,0|8,0:0|0:0,0:0:0:0:
352,304,89405,2,0,P|420:344|496:312,1,148.50000453186,0|8,0:0|0:0,0:0:0:0:
428,244,90195,2,0,L|444:140,1,99.0000030212402,0|8,0:0|0:0,0:0:0:0:
464,100,90669,6,0,P|396:104|328:48,1,148.50000453186,4|0,0:0|0:0,0:0:0:0:
256,116,91458,1,0,0:0:0:0:
156,124,91774,2,0,L|96:84,2,49.5000015106201,8|0|4,0:0|0:0|0:0,0:0:0:0:
96,204,92405,1,8,0:0:0:0:
60,296,92721,2,0,P|112:304|156:284,1,99.0000030212402,0|8,0:0|0:0,0:0:0:0:
224,356,93353,6,0,P|268:312|388:352,1,198.00000604248,4|0,0:0|0:0,0:0:0:0:
420,256,94300,2,0,L|452:184,2,49.5000015106201,8|0|0,0:0|0:0|0:0,0:0:0:0:
364,176,94932,1,8,0:0:0:0:
440,112,95247,2,0,P|344:128|272:64,1,198.00000604248,0|4,0:0|0:0,0:0:0:0:
180,104,96195,5,8,0:0:0:0:
92,56,96511,2,0,P|65:97|56:152,1,99.0000030212402,0|8,0:0|0:0,0:0:0:0:
20,184,96984,2,0,P|80:224|64:320,1,148.50000453186,0|8,0:0|0:0,0:0:0:0:
156,360,97774,2,0,L|260:320,1,99.0000030212402,0|8,0:0|0:0,0:0:0:0:
340,364,98405,70,0,P|412:360|472:252,1,198.00000604248,4|0,0:0|0:0,0:0:0:0:
420,176,99353,2,0,L|460:136,2,49.5000015106201,8|0|0,0:0|0:0|0:0,0:0:0:0:
340,236,99984,1,8,0:0:0:0:
332,136,100300,2,0,P|340:88|320:44,1,99.0000030212402,0|8,0:0|0:0,0:0:0:0:
272,32,100774,6,0,L|124:48,1,148.50000453186,4|8,0:0|0:0,0:0:0:0:
100,144,101563,2,0,P|64:124|4:124,1,99.0000030212402,0|8,0:0|0:0,0:0:0:0:
12,172,102037,2,0,L|32:324,1,148.50000453186,4|8,0:0|0:0,0:0:0:0:
120,364,102826,2,0,L|136:256,1,99.0000030212402,0|8,0:0|0:0,0:0:0:0:
232,248,103458,6,0,P|284:212|388:288,1,198.00000604248,4|0,0:0|0:0,0:0:0:0:
436,360,104405,2,0,L|504:348,2,49.5000015106201,8|0|0,0:0|0:0|0:0,0:0:0:0:
469,266,105037,1,8,0:0:0:0:
400,194,105353,2,0,P|400:142|440:74,1,99.0000030212402,0|8,0:0|0:0,0:0:0:0:
496,36,105984,6,0,P|448:64|328:-12,1,198.00000604248,4|0,0:0|0:0,0:0:0:0:
248,60,106932,1,8,0:0:0:0:
312,136,107247,2,0,P|251:176|124:204,1,198.00000604248,4|0,0:0|0:0,0:0:0:0:
36,172,108195,2,0,P|32:208|40:240,1,49.5000015106201,8|0,0:0|0:0,0:0:0:0:
264,332,109774,70,0,L|360:316,1,89.9999999999999,4|8,0:0|0:0,0:0:0:0:
440,340,110405,2,0,P|440:296|460:248,1,89.9999999999999,0|8,0:0|0:0,0:0:0:0:
368,232,111037,2,0,P|376:196|368:136,1,89.9999999999999,0|8,0:0|0:0,0:0:0:0:
344,56,111669,1,0,0:0:0:0:
432,76,111984,1,8,0:0:0:0:
336,52,112300,6,0,P|280:72|232:48,1,89.9999999999999,4|8,0:0|0:0,0:0:0:0:
164,88,112932,1,0,0:0:0:0:
84,132,113247,2,0,L|52:72,2,45,8|0|0,0:0|0:0|0:0,0:0:0:0:
100,220,113879,2,0,P|12:256|36:344,1,180,8|0,0:0|0:0,0:0:0:0:
104,360,114826,6,0,L|184:304,1,89.9999999999999,4|8,0:0|0:0,0:0:0:0:
256,352,115458,2,0,L|356:336,1,89.9999999999999,0|8,0:0|0:0,0:0:0:0:
432,376,116090,2,0,P|436:312|344:244,1,180
396,160,117037,1,8,0:0:0:0:
476,204,117353,6,0,L|492:104,1,89.9999999999999,4|8,0:0|0:0,0:0:0:0:
412,72,117984,2,0,P|388:40|340:20,1,89.9999999999999,0|8,0:0|0:0,0:0:0:0:
332,108,118616,2,0,L|224:120,1,89.9999999999999,0|8,0:0|0:0,0:0:0:0:
192,44,119247,2,0,L|56:88,1,135
24,308,120510,70,0,P|64:296|100:256,1,89.9999999999999,4|8,0:0|0:0,0:0:0:0:
160,328,121141,2,0,L|264:344,1,89.9999999999999,0|8,0:0|0:0,0:0:0:0:
336,320,121773,1,0,0:0:0:0:
420,356,122088,2,0,L|476:304,1,45,8|0,0:0|0:0,0:0:0:0:
360,228,122720,1,8,0:0:0:0:
448,236,123036,6,0,P|464:196|464:128,1,89.9999999999999,4|8,0:0|0:0,0:0:0:0:
380,136,123667,2,0,P|340:104|316:56,1,89.9999999999999,0|8,0:0|0:0,0:0:0:0:
232,92,124299,2,0,L|132:84,1,89.9999999999999,0|8,0:0|0:0,0:0:0:0:
64,40,124931,2,0,P|24:88|16:140,1,89.9999999999999,0|8,0:0|0:0,0:0:0:0:
92,164,125562,6,0,P|128:228|52:328,1,180,4|0,0:0|0:0,0:0:0:0:
38,238,126510,1,8,0:0:0:0:
84,316,126825,2,0,P|136:348|184:352,1,89.9999999999999,0|8,0:0|0:0,0:0:0:0:
236,300,127457,2,0,L|428:284,1,180,0|2,0:0|0:0,0:0:0:0:
256,252,129352,5,8,0:0:0:0:
204,180,129667,2,0,L|176:144,1,45,8|0,0:0|0:0,0:0:0:0:
252,96,130141,2,0,L|268:40,2,45,0|8|0,0:0|0:0|0:0,0:0:0:0:
252,96,130615,70,0,P|296:136|364:144,1,99.0000030212402,4|8,0:0|0:0,0:0:0:0:
428,116,131246,2,0,P|456:160|460:216,1,99.0000030212402
488,248,131720,2,0,P|424:264|384:340,1,148.50000453186,0|8,0:0|0:0,0:0:0:0:
292,372,132510,2,0,P|276:320|276:272,1,99.0000030212402,0|8,0:0|0:0,0:0:0:0:
256,228,132983,6,0,P|208:280|124:276,1,148.50000453186,4|8,0:0|0:0,0:0:0:0:
52,340,133773,2,0,P|28:292|24:228,1,99.0000030212402,0|8,0:0|0:0,0:0:0:0:
64,220,134246,2,0,P|60:144|-8:96,1,148.50000453186,4|0,0:0|0:0,0:0:0:0:
96,52,135036,2,0,P|144:44|220:12,1,99.0000030212402
260,96,135667,6,0,P|312:60|412:128,1,198.00000604248,4|0,0:0|0:0,0:0:0:0:
452,216,136615,2,0,L|512:184,2,49.5000015106201,8|0|0,0:0|0:0|0:0,0:0:0:0:
352,208,137246,1,8,0:0:0:0:
392,296,137562,2,0,L|288:312,1,99.0000030212402,0|8,0:0|0:0,0:0:0:0:
224,380,138194,6,0,P|160:376|120:260,1,198.00000604248,4|0,0:0|0:0,0:0:0:0:
192,200,139141,2,0,L|220:160,1,49.5000015106201,8|0,0:0|0:0,0:0:0:0:
164,80,139615,1,0,0:0:0:0:
164,80,139931,1,0,0:0:0:0:
68,96,140246,2,0,L|56:40,2,49.5000015106201,0|8|0,0:0|0:0|0:0,0:0:0:0:
44,132,140720,70,0,L|24:248,1,89.9999999999999,4|8,0:0|0:0,0:0:0:0:
36,312,141352,2,0,P|80:308|136:332,1,89.9999999999999,0|8,0:0|0:0,0:0:0:0:
156,352,141825,2,0,P|216:360|272:288,1,135,0|8,0:0|0:0,0:0:0:0:
356,316,142615,1,0,0:0:0:0:
436,360,142931,2,0,L|512:368,2,45,8|4|0,0:0|0:0|0:0,0:0:0:0:
432,272,143562,5,8,0:0:0:0:
476,196,143878,2,0,P|452:152|468:84,1,89.9999999999999,0|8,0:0|0:0,0:0:0:0:
468,72,144352,2,0,P|400:76|336:24,1,135,4|8,0:0|0:0,0:0:0:0:
296,112,145141,2,0,L|196:104,1,89.9999999999999,0|8,0:0|0:0,0:0:0:0:
144,40,145773,6,0,P|96:40|104:160,1,180,4|0,0:0|0:0,0:0:0:0:
56,236,146720,2,0,L|4:248,2,45,8|0|0,0:0|0:0|0:0,0:0:0:0:
144,220,147352,1,8,0:0:0:0:
112,304,147667,2,0,L|92:360,2,45,0|0|8,0:0|0:0|0:0,0:0:0:0:
188,352,148299,6,0,P|272:320|376:384,1,180,4|0,0:0|0:0,0:0:0:0:
440,348,149246,2,0,L|448:292,1,45,8|0,0:0|0:0,0:0:0:0:
376,244,149720,2,0,L|376:188,2,45,0|8|0,0:0|0:0|0:0,0:0:0:0:
284,236,150352,1,0,0:0:0:0:
284,236,150667,70,0,P|216:240|160:200,1,135,4|8,0:0|0:0,0:0:0:0:
76,236,151457,1,0,0:0:0:0:
92,148,151773,1,8,0:0:0:0:
56,64,152088,2,0,P|112:40|248:72,1,180
316,44,153036,1,8,0:0:0:0:
404,52,153352,6,0,P|408:104|444:168,1,89.9999999999999,4|8,0:0|0:0,0:0:0:0:
420,228,153983,1,0,0:0:0:0:
460,308,154299,1,8,0:0:0:0:
368,308,154615,2,0,P|324:344|272:352,1,89.9999999999999,0|8,0:0|0:0,0:0:0:0:
212,312,155246,1,0,0:0:0:0:
124,296,155562,1,8,0:0:0:0:
36,328,155878,6,0,P|68:284|28:176,1,180,4|0,0:0|0:0,0:0:0:0:
56,92,156825,1,8,0:0:0:0:
56,92,157141,2,0,L|156:56,1,89.9999999999999,0|8,0:0|0:0,0:0:0:0:
220,108,157773,1,0,0:0:0:0:
304,76,158088,1,8,0:0:0:0:
388,48,158404,6,0,L|488:56,2,89.9999999999999,4|8|0,0:0|0:0|0:0,0:0:0:0:
376,136,159352,1,8,0:0:0:0:
424,212,159667,2,0,L|488:196,2,45,4|0|8,0:0|0:0|0:0,0:0:0:0:
352,268,160299,2,0,L|296:256,2,45,0|0|8,0:0|0:0|0:0,0:0:0:0:
400,344,160931,70,0,P|432:334|484:328,2,59.9999999999999,4|0|0,0:0|0:0|0:0,0:0:0:0:
352,380,161562,2,0,P|312:356|244:352,1,89.9999999999999,8|0,0:0|0:0,0:0:0:0:
180,340,162194,1,0,0:0:0:0:
96,368,162510,2,0,P|80:320|36:284,1,89.9999999999999,0|8,0:0|0:0,0:0:0:0:
8,216,163141,1,0,0:0:0:0:
64,144,163457,6,0,P|56:108|72:64,2,59.9999999999999,4|0|0,0:0|0:0|0:0,0:0:0:0:
104,188,164088,2,0,P|136:168|208:172,1,89.9999999999999,8|0,0:0|0:0,0:0:0:0:
268,204,164720,2,0,P|316:184|340:152,1,89.9999999999999
372,72,165352,1,8,0:0:0:0:
372,72,165983,6,0,P|341:61|308:32,2,59.9999999999999,4|0|0,0:0|0:0|0:0,0:0:0:0:
432,64,166615,2,0,P|468:84|496:136,1,89.9999999999999,8|0,0:0|0:0,0:0:0:0:
456,208,167246,1,0,0:0:0:0:
476,296,167562,2,0,L|412:376,2,89.9999999999999,8|0|0,0:0|0:0|0:0,0:0:0:0:
388,272,168510,6,0,L|320:300,2,59.9999999999999,4|0|0,0:0|0:0|0:0,0:0:0:0:
380,212,169141,2,0,L|280:180,1,89.9999999999999,8|0,0:0|0:0,0:0:0:0:
212,152,169773,1,0,0:0:0:0:
128,184,170088,2,0,L|80:148,4,45,8|0|0|0|0,0:0|0:0|0:0|0:0|0:0,0:0:0:0:
24,60,181141,6,0,B|108:68|108:68|216:48,1,180,4|2,0:0|0:0,0:0:0:0:
344,172,182404,2,0,P|267:131|188:167,1,180,0|2,0:0|0:0,0:0:0:0:
336,272,183667,6,0,P|400:256|436:140,1,180,0|2,0:0|0:0,0:0:0:0:
384,88,184615,1,2,0:0:0:0:
345,171,184931,2,0,L|165:167,1,180,0|2,0:0|0:0,0:0:0:0:
60,252,186036,6,0,P|128:284|224:252,1,135,4|0,0:0|0:0,0:0:0:0:
260,324,186825,2,0,P|312:320|376:336,1,89.9999999999999,2|0,0:0|0:0,0:0:0:0:
424,380,187457,2,0,P|405:323|432:200,1,180,0|2,0:0|0:0,0:0:0:0:
248,228,188720,5,4,0:0:0:0:
248,228,189036,2,0,L|96:200,1,135
40,156,189825,2,0,L|244:136,1,180,2|0,0:0|0:0,0:0:0:0:
240,52,190773,2,0,L|304:48,1,45,0|2,0:0|0:0,0:0:0:0:
336,124,191246,70,0,P|388:92|484:164,1,180,4|2,0:0|0:0,0:0:0:0:
316,224,192510,2,0,L|120:236,1,180,0|2,0:0|0:0,0:0:0:0:
52,204,193457,1,2,0:0:0:0:
52,204,193773,6,0,P|60:148|40:88,1,89.9999999999999
144,128,194404,2,0,P|208:125|260:68,2,135,2|0|0,0:0|0:0|0:0,0:0:0:0:
156,216,195667,2,0,P|153:282|196:344,1,135,2|0,0:0|0:0,0:0:0:0:
312,296,196615,6,0,L|420:300,1,89.9999999999999,4|2,0:0|0:0,0:0:0:0:
296,212,197404,2,0,L|492:220,1,180
204,356,198825,22,0,L|152:240,1,107.999996704102,4|8,0:0|0:0,0:0:0:0:
76,324,199457,2,0,P|48:272|64:200,1,107.999996704102,0|8,0:0|0:0,0:0:0:0:
92,192,199931,2,0,P|48:156|72:48,1,161.999995056152,4|8,0:0|0:0,0:0:0:0:
164,92,200720,1,0,0:0:0:0:
264,48,201036,2,0,L|324:32,2,53.9999983520508,8|0|4,0:0|0:0|0:0,0:0:0:0:
252,156,201667,37,8,0:0:0:0:
356,132,201983,2,0,P|419:127|464:100,1,107.999996704102,0|8,0:0|0:0,0:0:0:0:
512,120,202457,2,0,P|492:216|428:268,1,161.999995056152,4|8,0:0|0:0,0:0:0:0:
348,296,203246,2,0,L|384:344,2,53.9999983520508
256,352,203878,70,0,P|224:308|144:288,1,107.999996704102,4|0,0:0|0:0,0:0:0:0:
88,348,204510,2,0,B|73:289|73:289|84:188,1,161.999995056152
28,96,205299,1,0,0:0:0:0:
136,92,205615,2,0,P|212:104|296:48,1,161.999995056152,0|8,0:0|0:0,0:0:0:0:
384,24,206404,38,0,L|400:172,1,107.999996704102,4|8,0:0|0:0,0:0:0:0:
488,76,207036,2,0,L|504:224,1,107.999996704102,0|8,0:0|0:0,0:0:0:0:
504,236,207510,2,0,P|440:216|344:264,1,161.999995056152,4|8,0:0|0:0,0:0:0:0:
288,336,208299,1,0,0:0:0:0:
180,320,208615,1,8,0:0:0:0:
4,352,209246,69,12,0:0:0:0:
4,352,209562,2,0,P|76:316|96:272,1,89.9999999999999,4|8,0:0|0:0,0:0:0:0:
80,220,210194,2,0,L|112:128,1,89.9999999999999,4|8,0:0|0:0,0:0:0:0:
116,44,210825,1,0,0:0:0:0:
36,88,211141,2,0,L|16:44,2,45,8|0|4,0:0|0:0|0:0,0:0:0:0:
112,136,211773,37,8,0:0:0:0:
192,96,212088,2,0,P|244:80|296:48,1,89.9999999999999,0|8,0:0|0:0,0:0:0:0:
308,28,212562,2,0,P|356:56|464:40,1,135,4|8,0:0|0:0,0:0:0:0:
488,128,213352,2,0,L|404:160,1,89.9999999999999,0|8,0:0|0:0,0:0:0:0:
412,248,213983,70,0,P|352:268|268:184,1,180,4|0,0:0|0:0,0:0:0:0:
188,240,214931,1,8,0:0:0:0:
108,280,215246,2,0,L|64:160,1,89.9999999999999,4|8,0:0|0:0,0:0:0:0:
156,152,215878,2,0,L|112:32,1,89.9999999999999,0|8,0:0|0:0,0:0:0:0:
212,52,216510,38,0,P|288:72|280:196,1,180,4|0,0:0|0:0,0:0:0:0:
248,232,217457,2,0,L|248:296,2,45,8|0|4,0:0|0:0|0:0,0:0:0:0:
192,160,218088,1,8,0:0:0:0:
192,160,218404,2,0,L|234:129,4,45,0|0|8|0|4,0:0|0:0|0:0|0:0|0:0,0:0:0:0:
