osu file format v12

[General]
AudioFilename: whii.mp3
AudioLeadIn: 0
PreviewTime: 88142
Countdown: 0
SampleSet: Normal
StackLeniency: 0.7
Mode: 0
LetterboxInBreaks: 0
WidescreenStoryboard: 1

[Editor]
Bookmarks: 47879,57984,68090,88300,108511,130615,150825,160931,171036,181141,198825,219036
DistanceSpacing: 1
BeatDivisor: 2
GridSize: 4

[Metadata]
Title:Seiya Bokumetsu Chousetsu Suishoudan
TitleUnicode:聖夜撲滅超絶推奨団
Artist:ChuuToroP
ArtistUnicode:ちゅうとろP
Creator:Broccoly
Version:Easy
Source:
Tags:vocaloid hatsune miku megpoid gumi
BeatmapID:331695
BeatmapSetID:131246

[Difficulty]
HPDrainRate:2
CircleSize:3
OverallDifficulty:2
ApproachRate:3
SliderMultiplier:0.799999999999999
SliderTickRate:1

[Events]
//Background and Video events
0,0,"destruction.jpg",0,0
//Break Periods
2,58184,66650
2,85974,86860
2,171036,179701
//Storyboard Layer 0 (Background)
//Storyboard Layer 1 (Fail)
//Storyboard Layer 2 (Pass)
//Storyboard Layer 3 (Foreground)
//Storyboard Sound Samples
//Background Colour Transformations
3,100,163,162,255

[TimingPoints]
1234,731.707317073171,3,2,0,40,1,0
27354,315.789473684211,3,1,0,50,1,0
27669,315.789473684211,4,1,1,50,1,0
47879,-100,4,2,0,50,0,0
68090,-100,4,1,1,50,0,0
88300,-83.3333333333333,4,1,1,50,0,1
98326,-83.3333333333333,4,1,1,50,0,0
98405,-83.3333333333333,4,1,1,50,0,1
108511,-90.9090909090909,4,1,1,50,0,0
118616,315.789473684211,6,1,1,50,1,0
120510,315.789473684211,4,1,1,50,1,0
130615,-83.3333333333333,4,1,1,50,0,1
131957,-83.3333333333333,4,1,1,20,0,1
132036,-83.3333333333333,4,1,1,50,0,1
140641,-83.3333333333333,4,1,1,50,0,0
140720,-83.3333333333333,4,1,1,50,0,1
150825,-90.9090909090909,4,1,1,50,0,0
181141,-100,4,2,0,44,0,0
198825,-83.3333333333333,4,1,1,50,0,1
208931,-83.3333333333333,4,1,0,35,0,1
209246,-83.3333333333333,4,1,1,50,0,1
219036,-100,4,1,1,50,0,0

[Colours]
Combo1 : 164,193,165
Combo2 : 255,81,81
Combo3 : 250,116,247
Combo4 : 84,216,231
Combo5 : 80,239,75
Combo6 : 220,175,175
Combo7 : 210,172,201
Combo8 : 170,193,190

[HitObjects]
256,192,23185,12,0,27354,0:0:0:0:
256,192,27669,5,4,0:0:0:0:
108,252,28300,1,8,0:0:0:0:
228,360,28932,2,0,P|292:364|376:296,1,160,0|8,0:0|0:0,0:0:0:0:
412,156,30195,5,4,0:0:0:0:
296,44,30826,1,8,0:0:0:0:
244,196,31458,2,0,P|184:168|152:92,2,120,0|0|8,0:0|0:0|0:0,0:0:0:0:
324,208,32721,5,4,0:0:0:0:
184,288,33353,1,8,0:0:0:0:
52,372,33984,2,0,P|20:312|60:204,1,160,0|8,0:0|0:0,0:0:0:0:
20,68,35247,5,4,0:0:0:0:
168,132,35879,1,8,0:0:0:0:
300,44,36511,2,0,P|328:92|320:180,2,120,0|0|8,0:0|0:0|0:0,0:0:0:0:
220,32,37774,69,4,0:0:0:0:
256,188,38405,1,8,0:0:0:0:
404,124,39037,2,0,P|443:178|406:268,1,160,0|8,0:0|0:0,0:0:0:0:
264,324,40300,5,4,0:0:0:0:
363,198,40932,1,8,0:0:0:0:
212,248,41563,2,0,P|177:297|184:364,2,120,0|0|8,0:0|0:0|0:0,0:0:0:0:
256,180,42826,5,4,0:0:0:0:
108,244,43458,1,8,0:0:0:0:
28,108,44090,2,0,P|64:144|176:124,1,160,0|8,0:0|0:0,0:0:0:0:
260,4,45353,5,4,0:0:0:0:
108,60,45984,1,8,0:0:0:0:
228,168,46616,2,0,P|268:176|352:140,2,120,0|0|8,0:0|0:0|0:0,0:0:0:0:
152,144,47879,70,0,P|108:148|40:244,1,160,4|2,0:0|0:0,0:0:0:0:
156,344,49142,2,0,B|208:312|208:312|328:328,1,160,0|2,0:0|0:0,0:0:0:0:
384,344,50090,1,2,0:0:0:0:
464,360,50405,6,0,L|472:176,1,160,4|2,0:0|0:0,0:0:0:0:
472,40,51669,2,0,P|448:80|332:80,1,160,0|2,0:0|0:0,0:0:0:0:
268,60,52616,1,2,0:0:0:0:
196,28,52932,6,0,B|152:56|152:56|112:52|112:52|48:88,1,160,4|2,0:0|0:0,0:0:0:0:
32,244,54195,2,0,P|60:192|164:200,1,160,0|2,0:0|0:0,0:0:0:0:
184,264,55142,1,2,0:0:0:0:
116,308,55458,6,0,P|176:344|264:272,1,160,4|2,0:0|0:0,0:0:0:0:
404,356,56721,2,0,B|356:328|356:328|312:220,1,160,0|2,0:0|0:0,0:0:0:0:
256,84,57984,69,4,0:0:0:0:
392,160,68090,6,0,P|420:132|428:84,2,79.9999999999999,4|8|0,0:0|0:0|0:0,0:0:0:0:
320,124,69037,1,8,0:0:0:0:
244,144,69353,2,0,P|196:152|96:84,1,160,0|2,0:0|0:0,0:0:0:0:
32,240,70616,6,0,P|88:240|128:212,2,79.9999999999999,4|8|0,0:0|0:0|0:0,0:0:0:0:
20,320,71563,1,8,0:0:0:0:
88,360,71879,2,0,P|172:352|216:272,1,160,0|2,0:0|0:0,0:0:0:0:
364,344,73142,6,0,L|468:360,2,79.9999999999999,4|8|0,0:0|0:0|0:0,0:0:0:0:
284,328,74090,1,8,0:0:0:0:
332,264,74405,2,0,P|380:252|412:148,1,160,0|2,0:0|0:0,0:0:0:0:
396,30,75669,70,0,P|340:70|252:50,1,160,4|8,0:0|0:0,0:0:0:0:
115,30,76932,2,0,P|171:70|259:50,1,160,0|8,0:0|0:0,0:0:0:0:
304,116,77879,1,2,0:0:0:0:
356,176,78195,6,0,L|296:360,1,160,4|0,0:0|0:0,0:0:0:0:
236,292,79142,1,8,0:0:0:0:
168,332,79458,2,0,L|88:344,2,79.9999999999999,0|0|2,0:0|0:0|0:0,0:0:0:0:
20,268,80721,6,0,P|68:260|112:144,1,160,4|8,0:0|0:0,0:0:0:0:
12,48,81984,2,0,B|72:72|72:72|92:64|92:64|176:96,1,160,0|8,0:0|0:0,0:0:0:0:
200,160,82932,1,2,0:0:0:0:
180,236,83247,6,0,P|224:256|344:224,1,160,4|8,0:0|0:0,0:0:0:0:
408,96,84511,2,0,P|364:76|244:108,1,160,0|8,0:0|0:0,0:0:0:0:
256,192,85774,69,4,0:0:0:0:
172,328,88300,6,0,P|126:340|44:288,2,143.999995605469,4|0|8,0:0|0:0|0:0,0:0:0:0:
268,344,89563,2,0,P|304:276|440:308,1,191.999994140625,0|8,0:0|0:0,0:0:0:0:
480,148,90669,6,0,L|324:184,1,143.999995605469,4|0,0:0|0:0,0:0:0:0:
256,136,91458,1,8,0:0:0:0:
124,192,91932,2,0,L|288:236,1,143.999995605469,4|0,0:0|0:0,0:0:0:0:
340,180,92721,1,8,0:0:0:0:
204,44,93353,6,0,P|136:44|64:140,1,191.999994140625,4|8,0:0|0:0,0:0:0:0:
68,280,94458,2,0,P|36:224|-4:208,2,95.9999970703125,4|0|0,0:0|0:0|0:0,0:0:0:0:
196,216,95563,1,8,0:0:0:0:
196,216,95879,70,0,P|176:296|296:312,1,191.999994140625,4|8,0:0|0:0,0:0:0:0:
404,356,96984,2,0,B|428:320|428:320|500:300,2,95.9999970703125,4|0|0,0:0|0:0|0:0,0:0:0:0:
344,280,97932,2,0,L|352:228,1,47.9999985351562,0|8,0:0|0:0,0:0:0:0:
444,216,98405,6,0,L|468:48,2,143.999995605469,4|0|8,0:0|0:0|0:0,0:0:0:0:
372,152,99669,2,0,P|348:88|216:92,1,191.999994140625,4|8,0:0|0:0,0:0:0:0:
92,56,100774,6,0,L|36:216,1,143.999995605469,4|0,0:0|0:0,0:0:0:0:
12,280,101563,1,8,0:0:0:0:
124,368,102037,2,0,L|171:232,1,143.999995605469,4|0,0:0|0:0,0:0:0:0:
200,140,102826,1,8,0:0:0:0:
264,320,103458,6,0,P|280:248|404:264,1,191.999994140625,4|8,0:0|0:0,0:0:0:0:
456,364,104563,2,0,P|400:384|360:376,2,95.9999970703125,4|0|0,0:0|0:0|0:0,0:0:0:0:
472,220,105669,1,8,0:0:0:0:
472,220,105984,70,0,B|433:155|433:155|424:112|424:112|380:36,1,191.999994140625,4|8,0:0|0:0,0:0:0:0:
320,176,107090,2,0,P|292:104|160:136,1,239.999992675781,4|0,0:0|0:0,0:0:0:0:
120,224,108195,2,0,B|74:242|74:242|24:240,1,95.9999970703125,8|0,0:0|0:0,0:0:0:0:
132,344,109774,6,0,P|192:356|288:280,1,176.000005371094,4|8,0:0|0:0,0:0:0:0:
448,356,111037,2,0,B|400:308|400:308|380:164,1,176.000005371094,0|8,0:0|0:0,0:0:0:0:
376,112,111984,1,2,0:0:0:0:
364,24,112300,6,0,P|296:76|308:168,1,176.000005371094,4|8,0:0|0:0,0:0:0:0:
372,320,113563,2,0,L|204:256,1,176.000005371094,0|8,0:0|0:0,0:0:0:0:
140,316,114511,1,2,0:0:0:0:
68,364,114826,6,0,P|52:304|128:228,1,176.000005371094,4|8,0:0|0:0,0:0:0:0:
64,64,116090,2,0,B|124:96|124:96|236:76,1,176.000005371094,0|8,0:0|0:0,0:0:0:0:
316,56,117037,1,2,0:0:0:0:
288,140,117353,70,0,P|328:144|404:48,1,176.000005371094,4|8,0:0|0:0,0:0:0:0:
480,188,118616,2,0,B|432:212|432:212|392:212|392:212|312:256,1,160,0|8,0:0|0:0,0:0:0:0:
384,308,119563,2,0,L|316:344,1,40,2|0,0:0|0:0,0:0:0:0:
152,356,120510,6,0,P|104:336|96:224,1,160,4|8,0:0|0:0,0:0:0:0:
120,80,121773,2,0,B|80:124|80:124|16:152,2,120,0|0|2,0:0|0:0|0:0,0:0:0:0:
200,96,123036,6,0,P|236:52|352:92,1,160,4|8,0:0|0:0,0:0:0:0:
428,192,124299,2,0,B|472:164|472:164|500:100,2,120,0|0|2,0:0|0:0|0:0,0:0:0:0:
352,168,125562,6,0,P|356:228|460:264,1,160,4|8,0:0|0:0,0:0:0:0:
444,352,126510,1,2,0:0:0:0:
364,344,126825,2,0,L|192:324,1,160,4|8,0:0|0:0,0:0:0:0:
124,340,127773,2,0,P|124:308|136:288,1,40,2|0,0:0|0:0,0:0:0:0:
256,188,129352,70,0,L|264:144,1,40,8|0,0:0|0:0,0:0:0:0:
216,80,129825,2,0,L|248:48,3,40,0|8|0|8,0:0|0:0|0:0|0:0,0:0:0:0:
332,92,130615,6,0,B|404:80|404:80|464:24,2,143.999995605469,4|0|8,0:0|0:0|0:0,0:0:0:0:
392,168,131878,2,0,B|412:228|412:228|456:264|456:264|488:344,1,191.999994140625,4|8,0:0|0:0,0:0:0:0:
344,288,132983,6,0,L|296:140,1,143.999995605469,4|0,0:0|0:0,0:0:0:0:
268,60,133773,1,8,0:0:0:0:
124,44,134246,2,0,L|172:192,1,143.999995605469,4|0,0:0|0:0,0:0:0:0:
200,272,135036,1,8,0:0:0:0:
52,152,135667,6,0,P|4:224|76:328,1,191.999994140625,4|8,0:0|0:0,0:0:0:0:
184,336,136773,2,0,B|136:344|136:344|84:392,2,95.9999970703125,4|0|0,0:0|0:0|0:0,0:0:0:0:
328,356,137878,69,8,0:0:0:0:
328,356,138194,2,0,B|272:296|272:296|260:176,1,191.999994140625,4|8,0:0|0:0,0:0:0:0:
376,276,139299,2,0,P|424:252|432:180,2,95.9999970703125,4|0|0,0:0|0:0|0:0,0:0:0:0:
344,184,140246,2,0,P|340:160|340:136,1,47.9999985351562,0|8,0:0|0:0,0:0:0:0:
396,56,140720,6,0,P|456:112|536:100,2,143.999995605469,4|0|8,0:0|0:0|0:0,0:0:0:0:
304,88,141983,2,0,P|247:74|180:180,1,191.999994140625,4|8,0:0|0:0,0:0:0:0:
72,72,143088,6,0,L|32:252,1,143.999995605469,4|0,0:0|0:0,0:0:0:0:
20,308,143878,1,8,0:0:0:0:
152,364,144352,2,0,P|116:304|168:228,1,143.999995605469,4|0,0:0|0:0,0:0:0:0:
220,184,145141,1,8,0:0:0:0:
412,184,145773,6,0,B|358:220|358:220|308:236|308:236|244:288,1,191.999994140625,4|8,0:0|0:0,0:0:0:0:
392,316,146878,2,0,B|352:316|352:316|296:360,2,95.9999970703125,4|0|0,0:0|0:0|0:0,0:0:0:0:
500,220,147983,1,8,0:0:0:0:
500,220,148299,70,0,P|488:128|380:112,1,191.999994140625,4|8,0:0|0:0,0:0:0:0:
356,240,149404,2,0,B|300:236|264:196|264:196|296:164|296:104|264:64,1,239.999992675781,4|0,0:0|0:0,0:0:0:0:
196,132,150510,2,0,L|144:96,2,47.9999985351562,8|0|4,0:0|0:0|0:0,0:0:0:0:
56,236,151457,5,8,0:0:0:0:
212,316,152088,1,0,0:0:0:0:
352,212,152720,1,8,0:0:0:0:
352,212,153036,1,2,0:0:0:0:
352,212,153352,5,4,0:0:0:0:
436,56,153983,1,8,0:0:0:0:
260,68,154615,1,0,0:0:0:0:
76,56,155246,1,8,0:0:0:0:
76,56,155562,1,2,0:0:0:0:
76,56,155878,5,4,0:0:0:0:
204,176,156510,1,8,0:0:0:0:
32,220,157141,1,0,0:0:0:0:
152,348,157773,1,8,0:0:0:0:
152,348,158088,1,2,0:0:0:0:
152,348,158404,69,4,0:0:0:0:
320,300,159036,1,8,0:0:0:0:
492,344,159667,2,0,L|472:232,1,88.0000026855468,4|8,0:0|0:0,0:0:0:0:
396,224,160299,2,0,L|376:112,1,88.0000026855468,4|8,0:0|0:0,0:0:0:0:
360,48,160931,6,0,L|440:20,2,58.6666684570312,4|0|0,0:0|0:0|0:0,0:0:0:0:
304,68,161562,1,8,0:0:0:0:
244,232,162194,1,0,0:0:0:0:
128,100,162825,1,8,0:0:0:0:
56,260,163457,6,0,L|8:204,2,58.6666684570312,4|0|0,0:0|0:0|0:0,0:0:0:0:
92,304,164088,1,8,0:0:0:0:
256,236,164720,1,0,0:0:0:0:
420,304,165352,1,8,0:0:0:0:
396,128,165983,6,0,L|384:56,2,58.6666684570312,4|0|0,0:0|0:0|0:0,0:0:0:0:
404,188,166615,1,8,0:0:0:0:
256,92,167246,1,0,0:0:0:0:
108,188,167878,1,8,0:0:0:0:
256,280,168510,70,0,L|256:348,2,58.6666684570312,4|0|0,0:0|0:0|0:0,0:0:0:0:
256,220,169141,1,8,0:0:0:0:
214,48,169773,2,0,B|256:34|256:34|300:49,2,88.0000026855468
72,344,181141,54,0,P|64:296|0:260,2,120,4|0|2,0:0|0:0|0:0,0:0:0:0:
152,340,182404,2,0,P|224:340|252:200,1,240,4|0,0:0|0:0,0:0:0:0:
272,124,183667,1,2,0:0:0:0:
188,260,184299,1,2,0:0:0:0:
348,264,184931,2,0,L|440:264,2,79.9999999999999,4|0|2,0:0|0:0|0:0,0:0:0:0:
464,152,186194,6,0,L|292:156,1,160,4|2,0:0|0:0,0:0:0:0:
164,80,187457,2,0,L|248:56,2,79.9999999999999,2|0|2,0:0|0:0|0:0,0:0:0:0:
8,120,188720,2,0,P|76:136|92:224,1,160,4|2,0:0|0:0,0:0:0:0:
8,348,189983,1,2,0:0:0:0:
164,312,190615,1,2,0:0:0:0:
316,360,191246,6,0,L|444:336,2,120,4|0|2,0:0|0:0|0:0,0:0:0:0:
256,308,192510,2,0,P|204:284|112:304,2,120,4|0|0,0:0|0:0|0:0,0:0:0:0:
332,276,193773,1,2,0:0:0:0:
464,188,194404,1,2,0:0:0:0:
324,112,195036,2,0,L|316:32,2,79.9999999999999,4|0|2,0:0|0:0|0:0,0:0:0:0:
172,64,196299,6,0,P|112:56|44:128,1,160,4|2,0:0|0:0,0:0:0:0:
176,228,197562,1,2,0:0:0:0:
328,112,198825,6,0,P|348:76|448:56,2,143.999995605469,4|0|8,0:0|0:0|0:0,0:0:0:0:
244,64,200088,2,0,L|48:48,1,191.999994140625,4|8,0:0|0:0,0:0:0:0:
28,192,201194,38,0,L|168:156,1,143.999995605469,4|0,0:0|0:0,0:0:0:0:
260,132,201983,1,8,0:0:0:0:
360,236,202457,2,0,P|364:176|428:124,1,143.999995605469,4|0,0:0|0:0,0:0:0:0:
456,216,203246,1,8,0:0:0:0:
332,360,203878,70,0,P|292:304|164:328,1,191.999994140625,4|8,0:0|0:0,0:0:0:0:
40,352,204983,2,0,L|24:244,2,95.9999970703125,4|0|0,0:0|0:0|0:0,0:0:0:0:
124,236,206088,1,8,0:0:0:0:
124,236,206404,38,0,L|48:48,1,191.999994140625,4|8,0:0|0:0,0:0:0:0:
192,92,207509,2,0,B|244:80|244:80|288:36,2,95.9999970703125,4|0|0,0:0|0:0|0:0,0:0:0:0:
204,188,208457,2,0,L|256:176,1,47.9999985351562,0|8,0:0|0:0,0:0:0:0:
344,156,208931,1,8,0:0:0:0:
344,156,209246,70,0,P|352:96|488:72,1,191.999994140625,4|8,0:0|0:0,0:0:0:0:
440,148,210194,2,0,L|464:348,1,191.999994140625,4|8,0:0|0:0,0:0:0:0:
320,368,211299,38,0,B|368:320|368:320|356:224,1,143.999995605469,4|0,0:0|0:0,0:0:0:0:
348,148,212088,1,8,0:0:0:0:
256,36,212562,2,0,B|208:84|208:84|220:180,1,143.999995605469,4|0,0:0|0:0,0:0:0:0:
228,256,213351,1,8,0:0:0:0:
52,336,213983,70,0,P|132:320|232:372,1,191.999994140625,4|8,0:0|0:0,0:0:0:0:
172,236,215088,2,0,L|164:104,2,95.9999970703125,4|0|0,0:0|0:0|0:0,0:0:0:0:
72,132,216194,1,8,0:0:0:0:
72,132,216510,38,0,P|100:68|220:64,1,191.999994140625,4|0,0:0|0:0,0:0:0:0:
256,196,217615,2,0,L|112:264,1,143.999995605469,4|0,0:0|0:0,0:0:0:0:
40,304,218404,1,2,0:0:0:0:
40,304,218720,2,0,L|96:200,1,95.9999970703125,8|4,0:0|0:0,0:0:0:0:
