osu file format v7

[General]
AudioFilename: Shy Girls (TV Size).mp3
AudioLeadIn: 2685
PreviewTime: 49180
Countdown: 0
SampleSet: Normal
StackLeniency: 0.7
Mode: 0
LetterboxInBreaks: 0

[Editor]
DistanceSpacing: 1.20000004768372
BeatDivisor: 4
GridSize: 8

[Metadata]
Title:Shy Girls (TV Size)
Artist:Chu-Bra!! Cast
Creator:Vicho-kun
Version:Shy tieff
Source:Chu-Bra!!
Tags:hayama nayu jinguuji yako shiraishi haruka amahara kiyono djpop tieff nerv_mario

[Difficulty]
HPDrainRate:6
CircleSize:3
OverallDifficulty:7
SliderMultiplier:1.4
SliderTickRate:1

[Events]
//Background and Video events
Video,-560,"Chuu-Bra!! ED.avi"
0,0,"chu-bra 01.jpg"
//Break Periods
//Storyboard Layer 0 (Background)
//Storyboard Layer 1 (Fail)
//Storyboard Layer 2 (Pass)
//Storyboard Layer 3 (Foreground)
//Storyboard Sound Samples
//Background Colour Transformations
3,100,163,162,255

[TimingPoints]
315,315.789473684211,4,1,0,100,1,0
378,-100,4,2,0,80,0,0
4957,-100,4,1,0,80,0,0
5114,-100,4,2,0,80,0,0
6536,-100,4,1,0,80,0,0
6693,-100,4,2,0,80,0,0
10010,-100,4,1,0,80,0,0
10167,-100,4,2,0,80,0,0
10563,-100,4,1,0,80,0,0
13957,-100,4,2,0,80,0,0
14114,-100,4,1,0,80,0,0
18063,-100,4,2,0,80,0,0
18220,-100,4,1,0,80,0,0
18378,-100,4,2,0,80,0,0
18535,-100,4,1,0,80,0,0
18694,-100,4,2,0,80,0,0
18851,-100,4,1,0,80,0,0
22957,-100,4,1,0,60,0,0
24378,-100,4,2,0,81,0,0
25326,-100,4,1,0,81,0,0
25957,-100,4,2,0,81,0,0
26431,-100,4,1,0,81,0,0
26588,-100,4,2,0,81,0,0
27063,-100,4,1,0,81,0,0
27221,-100,4,2,0,81,0,0
28010,-100,4,1,0,50,0,0
28247,-100,4,1,0,60,0,0
28562,-100,4,1,0,70,0,0
28877,-100,4,1,0,81,0,0
29115,-100,4,2,0,81,0,0
29272,-100,4,1,0,81,0,0
29510,-100,4,1,0,70,0,0
29825,-100,4,1,0,60,0,0
30140,-100,4,1,0,50,0,0
33300,-100,4,1,0,60,0,0
33615,-100,4,1,0,70,0,0
33930,-100,4,1,0,80,0,0
34166,-100,4,2,0,79,0,0
34323,-100,4,1,0,80,0,0
34559,-100,4,1,0,70,0,0
34874,-100,4,1,0,60,0,0
35189,-100,4,1,0,50,0,0
46957,-100,4,2,0,50,0,0
48221,-100,4,1,0,50,0,0
49563,-100,4,1,0,50,0,1

[Colours]
Combo1 : 226,138,255
Combo2 : 255,85,170
Combo3 : 255,94,94
Combo4 : 2,188,242
Combo5 : 64,255,146

[HitObjects]
392,80,315,1,4
336,144,472,1,2
416,160,630,2,0,B|408:232|288:280,1,140,8|0
376,328,1104,1,2
328,261,1262,1,8
248,232,1420,2,0,B|192:296|240:384,2,140,0|2|0
176,192,2209,1,0
224,120,2367,1,0
304,96,2525,1,8
392,96,2683,1,0
424,200,2841,6,0,B|400:296,1,70
311,166,3157,2,0,B|303:86,1,70,0|0
208,208,3472,2,0,B|224:280,1,70
96,168,3788,2,0,B|112:96,1,70
111,99,4104,5,0
272,48,4420,1,8
232,120,4578,2,0,B|192:200,1,70
200,182,4893,1,0
264,232,5051,1,0
312,296,5209,1,0
328,288,5288,1,0
344,280,5367,6,0,B|376:200|320:136,1,140,0|8
408,112,5841,1,0
408,112,5999,2,0,B|432:160|440:224|432:272,1,140,0|8
434,247,6472,1,0
434,247,6630,1,4
392,336,6946,5,2
288,208,7262,1,2
120,216,7578,1,2
64,56,7893,5,4
64,56,8051,1,2
144,64,8209,1,0
144,64,8367,1,2
224,56,8525,1,0
224,56,8683,1,2
304,64,8841,1,0
304,64,8999,1,2
384,56,9157,1,0
384,56,9315,1,2
352,136,9472,6,0,B|360:208,1,70,0|2
248,272,9788,2,0,B|208:176,1,70,0|2
104,144,10104,2,0,B|56:200|64:296,1,140
62,274,10736,5,0
208,192,11051,1,0
296,48,11367,1,0
376,192,11683,5,0
376,192,11762,1,0
376,192,11841,1,0
376,192,11920,1,0
376,192,11999,1,0
376,192,12078,1,0
376,192,12157,1,0
376,192,12236,1,0
376,192,12315,1,0
376,192,12393,1,0
376,192,12472,1,0
376,192,12551,1,0
376,192,12630,1,0
392,96,12946,6,0,B|352:184|328:240,1,140,0|8
334,223,13736,1,0
334,223,13893,1,8
288,296,14051,1,0
376,296,14209,6,0,B|328:352|224:360,1,140,0|8
96,296,14841,1,0
168,256,14999,1,0
96,216,15157,2,0,B|136:168|176:160|240:208,2,140,8|4|8
88,72,16420,5,8
256,104,16736,1,0
424,72,17051,1,8
336,216,17367,1,0
176,216,17683,1,8
256,248,17841,1,8
336,216,17999,6,0,B|368:136,2,70,0|2|0
336,304,18472,2,0,B|384:360,2,70,2|0|2
408,264,18946,6,0,B|472:120,1,140,0|0
256,192,19420,1,0
104,264,19578,2,0,B|40:120,1,140,4|0
256,192,20051,1,0
408,264,20209,6,0,B|472:120,1,140,4|0
464,136,20841,1,4
320,56,21157,1,0
152,64,21472,1,0
104,224,21788,6,0,B|64:160,2,70
184,192,22262,1,0
184,192,22341,1,0
184,192,22420,2,0,B|232:256,2,70
264,160,22893,1,0
264,160,23051,6,0,B|232:128,16,35
400,64,24472,5,2
376,232,24788,1,2
216,288,25104,1,2
216,288,25262,2,0,B|160:272|120:168,1,140,0|4
216,48,25893,5,0
296,80,26051,2,0,B|336:112|320:184|288:192|248:200,1,140
272,193,26525,1,0
216,48,26841,5,0
136,56,26999,1,0
56,64,27157,1,0
104,136,27315,1,0
104,136,27472,6,0,B|80:232,1,70,2|0
208,256,27788,2,0,B|216:176,1,70,2|0
214,186,28104,5,0
214,186,28420,1,0
214,186,28736,1,0
214,186,29051,1,0
288,144,29209,1,0
352,88,29367,5,0
352,88,29683,1,0
352,88,29999,1,0
352,88,30315,1,0
360,168,30472,2,0,B|392:216,1,35
400,232,30630,5,4
344,296,30788,1,0
264,304,30946,1,0
200,248,31104,1,0
280,216,31262,2,0,B|264:176|176:152|136:176,1,140
156,168,31736,1,0
64,80,32051,1,0
144,56,32209,1,0
224,40,32367,1,0
304,48,32525,2,0,B|384:80,1,70
336,152,32841,2,0,B|480:200,1,140,0|4
468,196,33472,5,0
468,196,33788,1,0
468,196,34104,1,0
408,256,34262,1,4
328,272,34420,5,0
328,272,34736,1,0
328,272,35051,1,0
328,272,35367,1,0
320,184,35683,6,0,B|240:200|120:320,1,210
64,272,36315,1,8
200,64,36788,1,0
368,88,37104,1,0
368,88,37183,1,0
368,88,37262,1,0
312,152,37420,1,0
240,200,37578,1,8
160,216,37736,1,0
80,216,37893,2,0,B|152:256|240:264,1,140,0|4
320,296,38525,5,0
320,296,38683,1,0
320,296,38841,2,0,B|408:216|424:96,1,210,8|0
256,128,39630,1,0
256,128,39788,2,0,B|208:80|104:88,2,140,0|8|0
168,192,40736,5,4
416,184,41209,1,0
408,104,41367,1,8
408,272,41841,5,0
248,320,42157,1,0
248,320,42315,2,0,B|192:328|96:296,1,140,0|8
200,160,42946,1,0
152,88,43104,6,0,B|128:48,2,35
240,80,43420,1,0
288,152,43578,2,0,B|312:192,4,35
328,80,44051,1,0
384,144,44209,2,0,B|384:192,8,35,0|0|0|0|0|0|0|0|0
408,64,44999,5,0
328,80,45157,1,0
240,80,45315,1,0
160,88,45472,1,0
80,80,45630,1,0
80,80,45788,6,0,B|96:144|72:240,1,140
237,218,46262,2,0,B|221:154|245:58,1,140
240,80,46893,1,0
456,192,47051,5,2
320,168,47367,1,2
168,216,47683,1,2
24,192,47999,1,2
104,72,48315,6,2,B|136:136,1,70,2|0
200,280,48630,2,2,B|168:216,1,70,2|0
408,72,48946,6,2,B|376:136,1,70,2|0
312,280,49262,2,2,B|344:216,1,70,2|0
256,168,49578,5,4
184,48,49893,1,8
128,112,50051,1,0
96,32,50209,2,0,B|48:72|40:112|40:160,2,140,0|8|0
128,112,50999,1,0
184,48,51157,2,0,B|216:88|224:136|184:192,2,140,8|0|8
184,48,52104,5,0
264,56,52262,1,0
336,104,52420,1,8
368,184,52578,1,0
376,264,52736,2,0,B|296:256|240:208,1,140,0|8
200,144,53209,2,0,B|128:168|80:264,2,140
136,88,53999,5,0
136,88,54078,1,0
136,88,54157,2,2,B|216:48|216:48,1,70
376,88,54472,2,2,B|296:48|296:48,1,70
320,224,54946,5,8
256,280,55104,1,0
232,200,55262,2,0,B|80:256,2,140,0|8|0
320,224,56051,1,0
256,280,56209,2,0,B|392:336,2,140,8|0|8
256,280,57157,5,0
176,304,57315,1,0
96,312,57472,1,8
24,272,57630,1,0
96,224,57788,2,2,B|240:192,1,140,2|10
232,193,58262,1,0
104,72,58420,6,2,B|136:136,1,70,2|0
200,280,58736,2,2,B|168:216,1,70,2|0
408,72,59051,6,2,B|376:136,1,70,2|0
312,280,59367,2,2,B|344:216,1,70,2|0
256,160,59683,5,0
112,72,59999,2,2,B|56:160,1,70
80,216,60315,2,0,B|152:208|184:128,1,140
216,56,60788,2,2,B|296:88|304:160,1,140
264,232,61262,2,2,B|344:264|408:192,2,140
264,232,62051,1,0
200,288,62209,6,0,B|152:320|104:304,1,70,0|2
160,224,62525,2,0,B|200:216|216:184,1,70,0|2
144,136,62841,2,0,B|112:152|72:144,1,70,0|2
96,64,63157,2,0,B|160:64|168:48,1,70,0|2
248,40,63472,5,2
328,64,63630,1,0
392,120,63788,1,2
384,200,63946,1,0
384,200,64025,1,0
384,200,64104,2,0,B|320:248,1,70,2|0
360,320,64420,2,0,B|424:272,1,70,2|0
272,312,64736,5,0
224,152,65051,2,2,B|144:184,1,70,0|2
96,232,65367,2,0,B|72:144|128:96,1,140,0|2
192,72,65841,2,0,B|224:160|184:224,1,140,0|2
160,288,66315,2,0,B|240:320|312:240,1,140,0|2
312,184,66788,1,0
296,104,66946,1,2
376,128,67104,1,0
376,128,67183,1,0
376,128,67262,6,0,B|408:280,2,140,0|2|0
344,48,68051,2,0,B|168:40,1,140,2|0
120,56,68525,5,0
120,56,68604,1,0
120,56,68683,1,0
64,120,68841,1,0
144,136,68999,1,0
88,200,69157,1,0
168,216,69315,1,0
200,184,69393,1,0
224,152,69472,1,0
216,112,69551,1,0
200,72,69630,1,0
160,56,69709,1,0
120,56,69788,5,0
288,32,70104,2,0,B|344:64|344:128|336:168,2,140,2|0|2
368,64,70893,2,0,B|336:120|272:120|232:112,2,140,0|2|0
432,120,71683,1,2
456,200,71841,1,0
432,280,71999,2,2,B|272:240,1,140
296,246,72472,5,0
280,328,72630,2,2,B|128:288,1,140
160,208,73104,1,0
144,292,73262,2,2,B|64:280|40:192,1,140
96,136,73736,1,0
136,64,73893,1,0
184,136,74051,2,0,B|256:192|336:144,2,140,2|2|2
184,136,74841,5,2
248,80,74999,2,0,B|352:64,1,70,0|2
400,80,75315,2,0,B|456:168,1,70,0|2
376,200,75630,1,0
432,264,75788,1,2
352,280,75946,2,0,B|264:256,1,70,0|2
224,200,76262,2,0,B|152:264,1,70,0|2
128,320,76578,1,0
64,264,76736,1,2
112,192,76893,2,0,B|72:104,1,70,0|2
128,56,77209,1,0
216,56,77367,5,2
288,96,77525,1,0
328,168,77683,2,0,B|352:216|344:256,2,70,2|0|2
192,272,78315,1,0
128,320,78472,2,0,B|80:320|72:256,1,70,2|0
128,216,78788,2,2,B|104:184|40:192,2,70,0|2|0
136,128,79262,1,2
184,56,79420,1,0
224,128,79578,5,2
272,64,79736,1,0
304,136,79893,2,2,B|240:272,1,140
244,262,80367,1,0
264,344,80525,2,2,B|104:312,1,140
40,304,80999,1,0
88,232,81157,2,2,B|144:120,2,105
88,232,81788,2,2,B|208:256|288:176|368:208,1,280
304,144,82578,5,0
362,206,82736,1,0
400,128,82893,1,0
362,206,83051,1,0
448,208,83209,1,0
362,206,83367,1,0
400,280,83525,1,0
362,206,83683,1,0
312,272,83841,1,0
362,206,83999,1,0
280,200,84157,1,0
362,206,84315,1,0
362,206,84472,1,0
256,208,84788,12,0,87315
