osu file format v7

[General]
AudioFilename: Shy Girls (TV Size).mp3
AudioLeadIn: 2685
PreviewTime: 49180
Countdown: 0
SampleSet: Normal
StackLeniency: 0.7
Mode: 0
LetterboxInBreaks: 0

[Editor]
DistanceSpacing: 0.800000011920929
BeatDivisor: 6
GridSize: 8

[Metadata]
Title:Shy Girls (TV Size)
Artist:Chu-Bra!! Cast
Creator:Vicho-kun
Version:Normal
Source:Chu-Bra!!
Tags:hayama nayu jinguuji yako shiraishi haruka amahara kiyono djpop tieff nerv_mario

[Difficulty]
HPDrainRate:5
CircleSize:3
OverallDifficulty:5
SliderMultiplier:1.4
SliderTickRate:1

[Events]
//Background and Video events
Video,-560,"Chuu-Bra!! ED.avi"
0,0,"chu-bra 01.jpg"
//Break Periods
2,13462,24378
//Storyboard Layer 0 (Background)
//Storyboard Layer 1 (Fail)
//Storyboard Layer 2 (Pass)
//Storyboard Layer 3 (Foreground)
//Storyboard Sound Samples
//Background Colour Transformations
3,100,163,162,255

[TimingPoints]
315,315.789473684211,4,1,0,70,1,0
316,-200,4,1,0,70,0,0
35091,-200,4,2,0,70,0,0
45013,-100,4,1,0,70,0,0
49563,-200,4,1,0,70,0,1

[Colours]
Combo1 : 226,138,255
Combo2 : 255,74,165
Combo3 : 255,100,100
Combo4 : 2,188,242
Combo5 : 64,255,146

[HitObjects]
64,64,315,5,0
120,64,630,1,0
176,64,946,1,2
288,64,1578,5,0
344,64,1893,1,0
400,64,2209,1,2
448,176,2841,5,0
448,232,3157,1,0
448,280,3472,1,2
336,288,4104,6,0,B|208:288,1,70
208,288,4736,1,2
80,256,5367,6,0,B|80:128,1,70
80,128,5999,1,2
176,72,6630,2,0,B|304:72,1,70
304,72,7262,1,2
256,208,7578,12,0,9157
64,64,10420,5,2
64,192,11051,1,2
64,320,11683,1,2
192,320,12315,1,0
320,320,12946,1,0
384,320,13262,1,4
64,64,25578,5,0
144,64,26051,1,2
200,64,26367,1,0
256,64,26683,1,2
296,104,26999,1,0
352,104,27315,1,2
368,232,28104,5,0
312,264,28420,1,0
256,264,28736,1,0
144,232,29367,1,8
88,208,29683,1,0
64,152,29999,1,8
128,64,30630,5,2
216,64,31104,1,2
216,176,31736,1,0
327,176,32367,1,4
256,208,33157,12,6,35367
256,192,35683,6,0,B|208:192|216:72|248:80,1,140,0|8
328,80,36788,1,2
392,128,37262,1,8
392,232,37893,5,2
392,288,38209,1,8
280,288,38841,1,8
168,288,39472,1,0
80,216,40104,1,8
80,104,40736,6,2,B|200:104,1,70,2|10
264,104,41683,1,2
376,104,42315,1,8
256,208,42946,12,4,44525
64,64,45157,5,0
176,64,45788,1,0
288,64,46420,1,0
288,176,47051,1,2
400,176,47683,1,2
408,296,48315,5,0
360,320,48630,1,2
304,320,48946,1,2
248,304,49262,1,0
200,272,49578,6,2,B|143:166,1,70
144,160,50209,2,2,B|234:69,1,70
248,96,50841,1,8
304,96,51157,1,0
352,96,51472,1,8
352,208,52104,6,0,B|424:208,2,70
296,304,53367,1,8
240,304,53683,1,0
184,304,53999,1,8
80,272,54630,6,2,B|80:168,1,70,2|8
80,144,55262,1,0
176,96,55893,1,2
272,152,56525,1,8
272,264,57157,5,2
232,296,57472,1,0
184,320,57788,1,2
184,208,58420,1,0
296,208,59051,1,2
392,152,59683,6,2,B|336:80,1,70
296,80,60315,2,2,B|200:80,1,70
168,80,60946,1,0
112,80,61262,1,8
56,80,61578,1,2
56,192,62209,5,8
112,192,62525,1,2
168,192,62841,1,0
176,248,63157,1,2
288,248,63788,1,2
456,248,64736,6,0,B|440:176,1,70,0|0
392,144,65367,1,0
280,144,65999,1,8
224,144,66315,1,0
168,144,66630,1,2
128,256,67262,5,0
80,224,67578,1,0
64,168,67893,1,8
256,208,68367,12,0,69788
64,64,70420,5,2
176,64,71051,1,8
232,96,71367,1,0
288,64,71683,1,2
400,64,72315,1,8
440,104,72630,1,2
448,160,72946,1,2
448,272,73578,1,8
344,304,74209,1,2
320,192,74841,5,0
320,192,75157,1,2
264,192,75472,1,0
128,192,76104,1,2
120,136,76420,1,0
168,104,76736,1,8
256,208,77051,12,0,78630
64,64,79893,5,0
64,176,80525,1,2
64,288,81157,1,0
176,288,81788,1,2
288,288,82420,1,4
256,208,82736,12,4,84788
