osu file format v7

[General]
AudioFilename: Shy Girls (TV Size).mp3
AudioLeadIn: 2685
PreviewTime: 49180
Countdown: 0
SampleSet: Normal
StackLeniency: 0.7
Mode: 0
LetterboxInBreaks: 0

[Editor]
DistanceSpacing: 0.800000011920929
BeatDivisor: 4
GridSize: 8

[Metadata]
Title:Shy Girls (TV Size)
Artist:Chu-Bra!! Cast
Creator:Vicho-kun
Version:Easy
Source:Chu-Bra!!
Tags:hayama nayu jinguuji yako shiraishi haruka amahara kiyono djpop tieff nerv_mario

[Difficulty]
HPDrainRate:2
CircleSize:3
OverallDifficulty:2
SliderMultiplier:1.4
SliderTickRate:1

[Events]
//Background and Video events
Video,-560,"Chuu-Bra!! ED.avi"
0,0,"chu-bra 01.jpg"
//Break Periods
2,13146,24018
//Storyboard Layer 0 (Background)
//Storyboard Layer 1 (Fail)
//Storyboard Layer 2 (Pass)
//Storyboard Layer 3 (Foreground)
//Storyboard Sound Samples
//Background Colour Transformations
3,100,163,162,255

[TimingPoints]
315,315.789473684211,4,1,0,70,1,0
320,-200,4,1,0,70,0,0
35679,-200,4,2,0,70,0,0
45123,-200,4,1,0,70,0,0
49563,-200,4,1,0,70,0,1

[Colours]
Combo1 : 226,138,255
Combo2 : 255,102,179
Combo3 : 255,121,121
Combo4 : 2,188,242
Combo5 : 64,255,146

[HitObjects]
64,64,315,1,0
288,64,1578,1,0
288,288,2841,1,2
64,288,4104,1,2
64,176,4736,1,8
64,64,5367,5,4
288,64,6630,1,0
288,288,7893,1,2
256,208,8209,12,0,9157
64,64,10420,5,2
176,64,11051,1,2
288,64,11683,1,0
400,64,12315,1,2
400,176,12946,1,4
80,64,25578,5,2
192,64,26209,1,0
304,64,26841,1,0
304,176,27472,1,0
304,288,28104,6,0,B|192:288,3,70,0|8|0|8
128,288,29683,1,0
88,184,30315,1,8
88,80,30946,5,0
184,136,31578,1,0
272,208,32209,1,8
368,280,32841,1,0
408,240,33157,6,2,B|408:120,1,70,0|0
384,120,33788,2,2,B|280:120,1,70,0|0
232,56,34736,1,8
112,56,35367,1,8
112,112,35683,5,6
200,184,36315,1,0
200,296,36946,1,8
88,296,37578,1,0
112,248,37893,6,2,B|55:132,1,70,2|10
40,80,38841,1,0
144,48,39472,1,8
248,80,40104,1,0
360,80,40736,5,8
360,192,41367,1,0
272,296,41999,1,8
160,296,42630,1,4
256,208,43104,12,4,44525
64,64,45788,5,0
288,64,47051,1,2
400,64,47683,1,2
400,176,48315,1,0
296,176,48946,1,2
184,176,49578,6,0,B|48:176,1,70,2|8
112,288,50525,1,8
224,288,51157,1,8
336,288,51788,1,0
392,288,52104,5,2
392,176,52736,1,8
312,96,53367,1,8
200,96,53999,1,8
96,96,54630,6,0,B|96:208,1,70,2|8
96,280,55578,1,8
208,280,56209,1,8
320,280,56841,1,2
368,256,57157,6,0,B|488:256,2,70,0|0|0
360,208,58104,2,0,B|360:104,1,70,0|0
360,88,58736,1,2
240,72,59367,1,2
136,72,59999,5,0
136,184,60630,1,8
136,296,61262,1,0
248,296,61893,1,8
312,200,62525,5,0
376,112,63157,1,8
264,112,63788,1,0
152,112,64420,1,8
152,224,65051,5,0
40,224,65683,1,8
40,120,66315,1,0
152,120,66946,1,8
264,120,67578,5,0
264,232,68209,1,0
376,232,68841,1,0
376,176,69157,2,2,B|376:40,1,70,2|0
328,104,69788,5,2
208,104,70420,1,8
112,160,71051,1,2
80,208,71367,1,0
72,264,71683,1,8
192,272,72315,6,2,B|320:272,1,70,2|8
320,264,72946,2,2,B|320:144,1,70,2|8
288,152,73578,2,2,B|184:152,1,70,2|8
48,152,74841,5,2
48,264,75472,1,0
160,264,76104,1,2
272,264,76736,1,2
256,208,77367,12,0,78630
96,88,79893,5,2
184,152,80525,1,2
280,208,81157,1,0
376,264,81788,1,0
256,208,82262,12,4,84788
