osu file format v9

[General]
AudioFilename: Chromeo ft. La Roux - Hot Mess.mp3
AudioLeadIn: 0
PreviewTime: 45609
Countdown: 0
SampleSet: Normal
StackLeniency: 0.7
Mode: 0
LetterboxInBreaks: 0

[Editor]
Bookmarks: 15609,37566,45845,72302,98286,105373,113404,147893
DistanceSpacing: 0.8
BeatDivisor: 4
GridSize: 8

[Metadata]
Title:Hot Mess
Artist:Chromeo ft. Elly Jackson
Creator:Mashley
Version:Insane
Source:
Tags:La Roux randomjibberish jarby

[Difficulty]
HPDrainRate:8
CircleSize:4
OverallDifficulty:7
ApproachRate:8
SliderMultiplier:2.5
SliderTickRate:2

[Events]
//Background and Video events
0,0,"chromeo.png"
//Break Periods
2,75797,82170
2,155167,158942
2,162727,166501
//Storyboard Layer 0 (Background)
//Storyboard Layer 1 (Fail)
//Storyboard Layer 2 (Pass)
//Storyboard Layer 3 (Foreground)
//Storyboard Sound Samples
//Background Colour Transformations
3,100,0,0,0

[TimingPoints]
479.428571428571,472.44094488189,4,1,0,100,1,0
45845,-100,4,1,0,100,0,1
72302,-100,4,1,0,100,0,0
82447,-100,4,2,0,100,0,0
83629,-100,4,1,0,100,0,0
91069,-100,4,2,0,100,0,0
95440,-100,4,1,0,100,0,0
97684,-100,4,2,0,100,0,0
102999,-100,4,1,0,100,0,0
104888,-100,4,2,0,100,0,0
110440,-100,4,1,0,100,0,0
112920,-100,4,2,0,100,0,0
117936,-100,4,1,0,100,0,0
121436,-100,4,1,0,100,0,1
147893,-100,4,1,0,100,0,0
181908,-100,4,1,0,100,0,1
208365,-100,4,1,0,100,0,0

[Colours]
Combo1 : 167,158,3
Combo2 : 6,249,200
Combo3 : 238,254,35
Combo4 : 228,75,1
Combo5 : 222,194,1

[HitObjects]
256,32,15125,5,2
256,32,15597,1,0
48,72,15951,5,0
48,72,16069,2,0,B|112:40|168:72,1,125,8|0
200,168,16542,2,0,B|136:200|80:168,2,125,4|0|8
288,120,17251,1,0
288,120,17487,2,2,B|360:64|472:72|520:128,1,250
464,208,18195,2,0,B|400:176|344:208,1,125,0|4
408,288,18668,1,8
408,288,18786,1,8
408,288,18904,1,8
328,344,19140,1,0
248,288,19377,1,8
168,344,19613,6,0,B|112:312|112:376|48:344,1,125,0|4
16,248,20085,1,0
104,208,20321,1,2
24,144,20558,1,0
40,48,20794,1,8
40,48,21030,2,0,B|136:128|264:64|272:16,1,250,4|8
456,96,21975,1,0
448,192,22211,1,0
432,288,22447,1,8
432,288,22566,1,8
432,288,22684,1,8
168,344,23392,37,0
104,280,23629,2,0,B|160:240|224:280,1,125
296,336,24101,2,0,B|357:374|413:334,2,125,8|0|0
352,256,24810,1,0
408,176,25046,2,6,B|464:120|456:40|368:8|304:64,1,250,6|0
256,136,25755,1,0
256,232,25991,1,0
256,328,26227,1,8
256,328,26345,1,8
256,328,26463,1,8
88,360,27172,6,0,B|16:344|0:272,2,125,0|2|0
120,264,27881,1,8
216,264,28117,1,0
296,200,28353,1,0
392,200,28589,1,4
392,200,29062,1,8
256,128,29534,1,0
208,40,29770,1,0
304,40,30006,1,8
304,40,30125,1,8
304,40,30243,1,8
66,375,30715,6,0,B|184:240|-16:288|88:152,3,250,0|8|0|8
168,216,32369,1,0
256,264,32605,1,4
344,216,32841,1,0
424,160,33077,2,2,B|523:289|323:241|441:376,2,250,2|8|2
425,161,34258,1,0
256,24,34495,37,4
256,192,34849,1,0
256,192,34967,1,2
256,192,35203,1,0
256,192,35440,1,8
256,192,35676,1,0
256,360,36384,5,6
256,192,36738,1,0
256,192,36856,1,2
256,192,37092,1,0
256,192,37329,1,8
446,9,38274,6,0,B|328:144|528:96|424:232,3,250,0|8|0|8
344,168,39928,1,0
256,120,40164,1,4
168,168,40400,1,0
88,224,40636,2,2,B|-11:94|188:142|70:7,2,250,2|8|2
87,223,41817,1,0
256,360,42054,37,4
256,192,42408,1,0
256,192,42526,1,2
256,192,42762,1,0
256,192,42999,1,8
256,192,43235,1,0
256,24,43943,5,6
256,192,44297,1,0
256,192,44415,1,2
256,192,44651,1,0
256,192,44888,1,8
88,344,45361,5,2
424,344,45833,1,4
456,16,46542,5,0
456,104,46778,1,2
384,144,47014,1,0
384,56,47251,1,8
304,24,47487,2,0,B|184:48|336:192|200:232,1,250,4|0
128,224,48195,6,2,B|80:280|128:352,1,125,2|0
200,368,48668,1,0
256,304,48904,1,8
256,304,49022,1,8
256,304,49140,1,8
312,368,49377,1,0
368,304,49613,1,4
376,40,50085,53,0
376,40,50321,2,2,B|368:96|368:96|384:88|384:88|376:152,2,125
136,40,51266,2,2,B|144:96|144:96|128:88|128:88|136:152,2,125
144,24,51857,1,0
256,96,52211,2,2,B|248:152|248:152|264:152|264:152|256:208,1,125
256,288,52684,1,8
256,288,52802,1,8
256,288,52920,1,8
296,360,53156,1,0
216,360,53392,1,4
56,16,54101,5,0
56,104,54337,1,2
128,144,54573,1,0
128,56,54810,1,8
208,24,55046,2,0,B|328:48|176:192|312:232,1,250,4|0
384,224,55754,54,2,B|432:280|384:352,1,125,2|0
312,368,56227,1,0
256,304,56463,1,8
256,304,56581,1,8
256,304,56699,1,8
200,368,56936,1,0
144,304,57172,1,4
120,48,57644,5,0
120,48,57881,2,2,B|176:96|232:48,2,125
392,112,58825,2,2,B|336:160|280:112,2,125
408,104,59416,1,0
128,192,59770,2,2,B|184:240|240:192,1,125
256,280,60243,53,8
256,280,60361,1,8
256,280,60479,1,8
416,352,60951,1,2
480,296,61188,1,0
416,240,61424,1,8
480,184,61660,1,4
256,32,62369,1,0
256,32,62605,1,8
336,16,62841,5,0
256,112,63195,1,0
176,16,63550,1,0
96,32,63786,1,2
32,88,64023,1,0
96,144,64259,1,8
32,200,64495,1,4
136,344,65203,53,0
136,344,65439,2,2,B|144:288|144:288|128:296|128:296|136:232,2,125
376,344,66384,2,2,B|368:288|368:288|384:296|384:296|376:232,2,125
368,360,66975,1,0
256,288,67329,2,2,B|264:232|264:232|248:232|248:232|256:176,1,125
256,16,68038,5,2
256,368,68510,1,4
40,192,69928,53,4
472,192,70400,1,2
256,368,71818,5,2
256,16,72290,1,4
256,192,72408,12,6,75597
256,72,82920,5,0
256,72,83038,1,2
256,72,83156,1,8
256,72,83274,1,0
256,72,83392,1,4
16,360,83865,5,0
72,296,84101,1,2
136,360,84337,1,0
200,296,84573,2,8,B|256:248|312:296,1,125,8|0
376,360,85046,1,2
440,296,85282,1,0
496,360,85518,1,12
344,128,85991,1,2
256,176,86227,1,0
256,80,86463,1,4
168,128,86699,1,8
168,128,86818,1,8
168,128,86936,1,8
368,320,87644,5,0
440,256,87881,1,2
448,160,88117,1,0
392,72,88353,2,0,B|440:24|512:32,2,125,8|0|0
336,160,89062,2,0,B|288:208|352:216|304:280,1,125,2|0
216,232,89534,2,0,B|168:280|232:288|184:352,1,125,12|0
256,32,90479,37,8
256,32,90597,1,8
256,32,90715,1,8
176,96,90951,1,0
96,32,91188,2,0,B|40:72|24:152,1,125,2|0
24,232,91660,2,0,B|24:296|80:360,1,125,8|0
168,360,92132,2,0,B|296:304|136:232|280:160,1,250,4|0
256,32,93077,5,8
336,96,93313,1,0
416,32,93550,2,0,B|472:72|488:152,1,125,2|0
488,232,94022,2,0,B|488:296|432:360,1,125,8|0
344,368,94495,1,0
376,272,94731,1,2
256,32,95203,1,4
80,96,95676,5,2
112,192,95912,1,0
208,168,96148,1,2
304,168,96384,1,8
400,192,96620,1,0
432,96,96856,1,4
256,352,98274,5,8
176,288,98510,1,0
96,352,98747,2,0,B|40:312|24:232,1,125,2|0
24,152,99219,2,0,B|24:88|80:24,1,125,8|0
168,24,99691,2,0,B|296:80|136:152|280:224,1,250,4|0
256,352,100636,5,2
416,352,101109,2,0,B|472:312|488:232,1,125,2|0
488,152,101581,2,0,B|488:88|432:24,1,125,8|0
344,16,102054,1,0
376,112,102290,1,4
80,288,103235,5,2
112,192,103471,1,0
208,216,103707,1,2
304,216,103943,1,8
400,192,104179,1,0
432,288,104415,1,4
336,96,105597,5,0
416,32,105834,2,0,B|472:72|488:152,1,125,8|0
488,232,106306,2,0,B|488:296|432:360,1,125,2|0
344,368,106778,1,8
304,272,107014,1,0
208,272,107251,1,4
168,368,107487,1,0
176,96,107959,5,0
96,32,108196,2,0,B|40:72|24:152,1,125,2|0
24,232,108668,2,0,B|24:296|80:360,1,125,8|0
168,368,109141,1,2
136,272,109377,1,0
232,240,109613,1,8
264,336,109849,1,4
264,336,110321,1,0
432,96,110794,37,2
400,192,111030,1,0
304,168,111266,1,2
208,168,111502,1,8
112,192,111738,1,0
80,96,111974,1,4
336,288,113156,37,0
416,352,113393,2,0,B|472:312|488:232,1,125,8|0
488,152,113865,2,0,B|488:88|432:24,1,125,2|0
344,16,114337,1,8
304,112,114573,1,0
208,112,114810,1,4
168,16,115046,1,0
176,288,115518,5,0
96,352,115755,2,0,B|40:312|24:232,1,125,2|0
24,152,116227,2,0,B|24:88|80:24,1,125,8|0
168,16,116700,1,2
136,112,116936,1,0
232,144,117172,1,8
264,48,117408,1,0
336,112,117644,1,4
432,288,118353,53,2
400,192,118589,1,0
304,216,118825,1,2
208,216,119061,1,8
112,192,119297,1,0
80,288,119533,1,4
256,192,119652,12,4,121424
56,16,122132,5,0
56,104,122368,1,2
128,144,122604,1,0
128,56,122841,1,8
208,24,123077,2,0,B|328:48|176:192|312:232,1,250,4|0
384,224,123785,54,2,B|432:280|384:352,1,125,2|0
312,368,124258,1,0
256,304,124494,1,8
256,304,124612,1,8
256,304,124730,1,8
200,368,124967,1,0
144,304,125203,1,4
136,40,125675,5,0
136,40,125911,2,2,B|144:96|144:96|128:88|128:88|136:152,2,125
376,40,126856,2,2,B|368:96|368:96|384:88|384:88|376:152,2,125
368,24,127447,1,0
256,96,127801,2,2,B|264:152|264:152|248:152|248:152|256:208,1,125
256,288,128274,1,8
256,288,128392,1,8
256,288,128510,1,8
216,360,128746,1,0
296,360,128982,1,4
456,16,129691,53,0
456,104,129927,1,2
384,144,130163,1,0
384,56,130400,1,8
304,24,130636,2,0,B|184:48|336:192|200:232,1,250,4|0
128,224,131344,6,2,B|80:280|128:352,1,125,2|0
200,368,131817,1,0
256,304,132053,1,8
256,304,132171,1,8
256,304,132289,1,8
312,368,132526,1,0
368,304,132762,1,4
392,48,133234,53,0
392,48,133471,2,2,B|336:96|280:48,2,125
120,112,134415,2,2,B|176:160|232:112,2,125
104,104,135006,1,0
384,192,135360,2,2,B|328:240|272:192,1,125
256,280,135833,5,8
256,280,135951,1,8
256,280,136069,1,8
96,352,136541,1,2
32,296,136778,1,0
96,240,137014,1,8
32,184,137250,1,4
256,32,137959,1,0
256,32,138195,1,8
176,16,138431,53,0
256,112,138785,1,0
336,16,139140,1,0
416,32,139376,1,2
480,88,139613,1,0
416,144,139849,1,8
480,200,140085,1,4
376,344,140793,5,0
376,344,141029,2,2,B|368:288|368:288|384:296|384:296|376:232,2,125
136,344,141974,2,2,B|144:288|144:288|128:296|128:296|136:232,2,125
144,360,142565,1,0
256,288,142919,2,2,B|248:232|248:232|264:232|264:232|256:176,1,125
256,16,143628,53,2
256,368,144100,1,4
472,192,145518,5,4
40,192,145990,1,2
256,368,147408,53,2
256,16,147880,1,4
256,192,147998,12,6,151187
176,32,152132,21,0
16,192,152369,1,0
176,352,152605,1,2
384,192,152959,1,2
336,32,153431,5,2
496,104,153668,1,0
496,104,153786,1,0
496,280,154022,1,0
336,352,154258,1,0
384,192,154495,1,2
256,192,154731,5,8
256,192,154849,1,8
256,192,154967,1,8
336,352,159692,37,0
496,192,159929,1,0
336,32,160165,1,2
128,192,160519,1,2
176,352,160991,5,2
16,280,161228,1,0
16,280,161346,1,0
16,104,161582,1,0
176,32,161818,1,0
128,192,162055,1,2
256,192,162291,5,8
256,192,162409,1,8
256,192,162527,1,8
256,40,167251,37,2
256,344,167723,1,4
360,320,168432,5,0
360,224,168668,1,8
448,272,168904,1,0
448,176,169140,2,2,B|488:48|344:16|312:120,1,250,2|4
256,192,169849,1,0
196,109,170085,2,0,B|168:16|24:48|64:176,1,250,8|4
40,280,170912,5,0
40,280,171030,1,2
176,368,171266,1,0
336,368,171503,1,12
472,280,171739,1,0
256,192,172447,37,6
40,104,172802,1,0
40,104,172920,1,2
256,8,173156,1,0
472,104,173392,1,12
24,216,173865,5,8
72,304,174101,1,0
160,352,174338,1,4
256,360,174573,2,0,B|312:328|320:256,1,125,0|2
256,184,175046,2,0,B|200:152|192:80,2,125,0|8|0
488,168,175991,5,0
440,80,176227,1,8
352,32,176464,1,4
256,24,176699,2,0,B|200:56|192:128,1,125,2|0
296,120,177172,2,0,B|384:128|424:232|392:328,1,250,0|8
256,360,177999,1,8
40,104,178471,37,0
40,104,178589,1,2
176,16,178825,1,0
336,16,179062,1,12
472,104,179298,1,0
256,192,180006,5,6
40,280,180361,1,0
40,280,180479,1,2
256,376,180715,1,0
472,280,180951,1,12
256,64,181896,21,4
56,368,182605,5,0
56,280,182841,1,2
128,240,183077,1,0
128,328,183314,1,8
208,360,183550,2,0,B|328:336|176:192|312:152,1,250,4|0
384,160,184258,54,2,B|432:104|384:32,1,125,2|0
312,16,184731,1,0
256,80,184967,1,8
256,80,185085,1,8
256,80,185203,1,8
200,16,185440,1,0
144,80,185676,1,4
136,344,186148,5,0
136,344,186266,1,0
136,344,186384,2,2,B|144:288|144:288|128:296|128:296|136:232,2,125
376,344,187329,2,2,B|368:288|368:288|384:296|384:296|376:232,2,125
368,360,187920,1,0
360,376,188038,1,0
256,288,188274,2,2,B|264:232|264:232|248:232|248:232|256:176,1,125
256,96,188747,1,8
256,96,188865,1,8
256,96,188983,1,8
216,24,189219,1,0
296,24,189455,1,4
456,368,190164,53,0
456,280,190400,1,2
384,240,190636,1,0
384,328,190873,1,8
304,360,191109,2,0,B|184:336|336:192|200:152,1,250,4|0
128,160,191817,6,2,B|80:104|128:32,1,125,2|0
200,16,192290,1,0
256,80,192526,1,8
256,80,192644,1,8
256,80,192762,1,8
312,16,192999,1,0
368,80,193235,1,4
392,336,193707,53,0
392,336,193825,1,0
392,336,193944,2,2,B|336:288|280:336,2,125
120,272,194888,2,2,B|176:224|232:272,2,125
104,280,195479,1,0
96,296,195597,1,0
384,192,195833,2,2,B|328:144|272:192,1,125
256,104,196306,5,8
256,104,196424,1,8
256,104,196542,1,8
200,24,196778,1,0
96,32,197014,1,2
32,88,197251,1,0
96,144,197487,1,8
32,200,197723,1,4
256,352,198195,1,0
256,352,198432,1,0
256,352,198668,1,8
176,368,198904,53,0
256,272,199258,1,0
336,368,199613,1,0
416,352,199849,1,2
480,296,200086,1,0
416,240,200322,1,8
480,184,200558,1,4
480,88,200794,1,0
376,40,201266,5,0
376,40,201384,1,0
376,40,201502,2,2,B|368:96|368:96|384:88|384:88|376:152,2,125
136,40,202447,2,2,B|144:96|144:96|128:88|128:88|136:152,2,125
144,24,203038,1,0
152,8,203156,1,0
256,96,203392,2,2,B|248:152|248:152|264:152|264:152|256:208,1,125
256,368,204101,53,2
256,192,204337,1,0
256,16,204573,1,4
472,192,205991,5,4
256,192,206227,1,0
40,192,206463,1,2
256,16,207881,53,6
256,192,208117,1,0
256,368,208353,1,6
256,192,208471,12,6,211660
