osu file format v9

[General]
AudioFilename: Chromeo ft. La Roux - Hot Mess.mp3
AudioLeadIn: 0
PreviewTime: 45609
Countdown: 0
SampleSet: Normal
StackLeniency: 0.7
Mode: 0
LetterboxInBreaks: 0

[Editor]
Bookmarks: 15609,37566,45845,72302,98286,105373,113404,147893
DistanceSpacing: 0.8
BeatDivisor: 4
GridSize: 8

[Metadata]
Title:Hot Mess
Artist:Chromeo ft. Elly Jackson
Creator:Mashley
Version:Easy
Source:
Tags:La Roux randomjibberish jarby

[Difficulty]
HPDrainRate:2
CircleSize:3
OverallDifficulty:2
ApproachRate:3
SliderMultiplier:1.2
SliderTickRate:2

[Events]
//Background and Video events
0,0,"chromeo.png"
//Break Periods
2,75797,81480
2,154695,158252
2,162255,165338
//Storyboard Layer 0 (Background)
//Storyboard Layer 1 (Fail)
//Storyboard Layer 2 (Pass)
//Storyboard Layer 3 (Foreground)
//Storyboard Sound Samples
//Background Colour Transformations
3,100,0,0,0

[TimingPoints]
479.428571428571,472.44094488189,4,1,0,100,1,0
45845,-100,4,1,0,100,0,1
72302,-100,4,1,0,100,0,0
82447,-100,4,2,0,100,0,0
83629,-100,4,1,0,100,0,0
91069,-100,4,2,0,100,0,0
95440,-71.4285714285714,4,1,0,100,0,0
97684,-100,4,2,0,100,0,0
102999,-100,4,1,0,100,0,0
104888,-100,4,2,0,100,0,0
110440,-100,4,1,0,100,0,0
112920,-100,4,2,0,100,0,0
117936,-100,4,1,0,100,0,0
121436,-100,4,1,0,100,0,1
147893,-100,4,1,0,100,0,0
181908,-100,4,1,0,100,0,1
208365,-100,4,1,0,100,0,0

[Colours]
Combo1 : 167,158,3
Combo2 : 6,249,200
Combo3 : 238,254,35
Combo4 : 228,75,1
Combo5 : 222,194,1

[HitObjects]
160,40,16069,5,0
72,32,16542,1,8
40,120,17014,1,0
8,208,17487,2,2,B|16:296|80:352|208:328,1,240,2|4
256,280,18904,1,8
416,176,19849,5,0
344,120,20321,2,2,B|296:80|216:80|168:120,1,180,2|4
96,176,21503,1,0
416,176,22684,1,8
352,40,23629,5,0
440,32,24102,1,8
472,120,24574,1,0
504,208,25047,2,2,B|496:296|432:352|304:328,1,240,2|4
256,280,26464,1,8
96,176,27409,37,0
168,120,27881,2,2,B|216:80|296:80|344:120,1,180,2|4
416,176,29063,1,0
96,176,30244,1,8
96,288,30715,6,0,B|152:320|216:288,3,120,4|8|0|8
304,288,32605,2,0,B|360:320|424:288,4,120,4|8|0|8|0
256,192,34967,5,8
256,192,35440,1,0
256,192,35676,1,0
256,32,36384,37,6
256,32,36857,1,0
256,32,37329,1,8
416,96,38274,6,0,B|360:64|296:96,3,120,4|8|0|8
208,96,40164,2,0,B|152:64|88:96,4,120,4|8|0|8|0
256,192,42526,5,8
256,192,42999,1,0
256,192,43235,1,0
256,352,43943,37,6
256,352,44416,1,0
256,352,44888,1,8
256,352,45361,1,2
480,152,46542,37,0
480,152,46778,2,0,B|520:48|400:8,1,180,8|4
256,40,48195,2,2,B|192:96|320:136|256:200,1,180
176,152,49377,1,4
208,344,50321,6,8,B|144:344,2,60
304,344,51266,2,8,B|368:344,2,60
256,264,52211,2,8,B|256:192,1,60
256,104,52920,1,0
256,8,53392,1,4
32,152,54101,53,0
32,152,54337,2,0,B|-8:48|112:8,1,180,8|4
256,40,55754,2,2,B|320:96|192:136|256:200,1,180
336,152,56936,1,4
352,344,57881,6,8,B|352:280,2,60
256,344,58825,2,8,B|256:280,2,60,8|8|8
160,344,59770,2,8,B|160:272,1,60
64,168,60479,53,0
96,80,60951,2,2,B|160:8|256:-16|352:8|416:80,1,360
448,168,62841,1,8
336,328,63786,2,0,B|296:376|216:376|176:328,1,180,0|4
208,152,65440,6,8,B|152:104,2,60
304,152,66384,2,8,B|360:104,2,60
256,232,67329,2,8,B|256:296,1,60
304,376,68038,53,2
208,376,68510,1,4
304,8,69928,5,4
208,8,70400,1,2
304,192,71818,53,2
208,192,72290,1,4
256,192,72408,12,6,75597
192,32,82920,6,2,B|320:32,1,120,2|4
256,168,84101,5,0
192,240,84573,1,2
256,312,85046,1,8
320,240,85518,2,2,B|416:184|392:56|336:16,1,240,2|6
256,48,86936,1,8
256,48,87881,5,0
192,120,88353,2,2,B|96:176|112:288,1,180,2|6
168,344,89534,1,8
336,352,90479,5,0
336,352,90715,1,8
432,328,91188,2,2,B|496:224|384:168|456:96,1,240,2|6
256,16,93077,1,2
216,88,93550,1,0
296,88,94022,1,8
256,208,94731,1,2
216,360,95676,38,0,B|304:360,5,83.999997997284,2|0|2|8|2|4
176,352,98274,37,8
80,328,98747,2,2,B|16:224|128:168|56:96,1,240,2|6
256,16,100636,1,2
296,88,101109,1,0
216,88,101581,1,8
256,208,102290,1,4
288,368,103235,22,0,B|224:368,5,60,2|0|2|8|2|4
440,352,105597,5,0
440,352,105833,1,8
488,280,106306,2,2,B|392:272|344:192|368:96,1,240,2|6
256,16,108195,1,2
216,88,108668,1,0
296,88,109140,1,8
256,208,109849,1,2
288,368,110794,6,0,B|224:368,5,60,2|0|2|8|2|4
72,352,113156,5,0
72,352,113392,1,8
24,280,113865,2,2,B|120:272|168:192|144:96,1,240,2|10
256,16,115754,1,2
296,88,116227,1,0
216,88,116699,1,8
256,248,117644,1,6
224,368,118353,22,0,B|288:368,5,60,2|0|2|8|2|4
256,288,120006,5,8
256,120,120951,1,8
480,232,122132,21,0
480,232,122368,2,0,B|520:336|400:376,1,180,8|4
256,344,123785,2,2,B|192:288|320:248|256:184,1,180
176,232,124967,1,4
208,40,125911,6,8,B|144:40,2,60
304,40,126856,2,8,B|368:40,2,60
256,120,127801,2,8,B|256:192,1,60
256,280,128510,1,0
256,376,128982,1,4
32,232,129691,53,0
32,232,129927,2,0,B|-8:336|112:376,1,180,8|4
256,344,131344,2,2,B|320:288|192:248|256:184,1,180
336,232,132526,1,4
352,40,133471,6,8,B|352:104,2,60
256,40,134415,2,8,B|256:104,2,60,8|8|8
160,40,135360,2,8,B|160:112,1,60
64,216,136069,53,0
96,304,136541,2,2,B|160:376|256:400|352:376|416:304,1,360
448,216,138431,1,8
336,56,139376,2,0,B|296:8|216:8|176:56,1,180,0|4
208,232,141030,6,8,B|152:280,2,60
304,232,141974,2,8,B|360:280,2,60
256,152,142919,2,8,B|256:88,1,60
304,8,143628,53,2
208,8,144100,1,4
304,376,145518,5,4
208,376,145990,1,2
304,192,147408,53,2
208,192,147880,1,4
256,192,147998,12,6,151187
112,56,152132,6,0,B|40:56,2,60,8|0|2
208,56,152959,1,2
336,48,153432,2,2,B|424:48|424:152,1,150,2|0
288,144,154495,1,2
400,328,159692,6,0,B|472:328,2,60,8|0|2
304,328,160519,1,2
176,336,160992,2,2,B|88:336|88:232,1,150,2|0
224,240,162055,1,2
416,96,166778,6,0,B|360:64|296:96,3,120,4|8|0|8
208,96,168668,2,0,B|152:64|88:96,4,120,4|8|0|8|0
256,192,171030,5,8
256,192,171503,1,0
256,192,171739,1,0
256,352,172447,37,6
256,352,172920,1,0
256,352,173392,1,8
96,288,174337,6,0,B|152:320|216:288,3,120,4|8|0|8
304,288,176227,2,0,B|360:320|424:288,4,120,4|8|0|8|0
256,192,178589,5,8
256,192,179062,1,0
256,192,179298,1,0
256,32,180006,37,6
256,32,180479,1,0
256,32,180951,1,8
256,32,181424,1,2
32,232,182605,37,0
32,232,182841,2,0,B|-8:336|112:376,1,180,8|4
256,344,184258,2,2,B|320:288|192:248|256:184,1,180
336,232,185440,1,4
336,232,185676,1,2
304,40,186384,6,8,B|368:40,2,60
208,40,187329,2,8,B|144:40,2,60
256,120,188274,2,8,B|256:192,1,60
256,280,188983,1,0
256,376,189455,1,4
480,232,190164,53,0
480,232,190400,2,0,B|520:336|400:376,1,180,8|4
256,344,191817,2,2,B|192:288|320:248|256:184,1,180
176,232,192999,1,4
176,232,193235,1,2
160,40,193944,6,8,B|160:104,2,60
256,40,194888,2,8,B|256:104,2,60,8|8|8
352,40,195833,2,8,B|352:112,1,60
448,216,196542,53,0
416,304,197014,2,2,B|352:376|256:400|160:376|96:304,1,360
64,216,198904,1,8
120,136,199377,1,8
176,56,199849,2,0,B|216:8|296:8|336:56,1,180,0|4
304,232,201503,6,8,B|360:280,2,60
208,232,202447,2,8,B|152:280,2,60
256,152,203392,2,8,B|256:88,1,60
208,8,204101,53,2
304,8,204573,1,4
208,376,205991,5,4
304,376,206463,1,2
176,192,207881,53,6
336,192,208353,1,6
256,192,208471,12,6,211660
