osu file format v14

[General]
AudioFilename: 13. sink to the deep sea world(1).mp3
AudioLeadIn: 0
PreviewTime: 76265
Countdown: 0
SampleSet: Normal
StackLeniency: 0.7
Mode: 3
LetterboxInBreaks: 0
SpecialStyle: 0
WidescreenStoryboard: 0

[Editor]
Bookmarks: 111778
DistanceSpacing: 0.8
BeatDivisor: 6
GridSize: 8
TimelineZoom: 1.2

[Metadata]
Title:sink to the deep sea world
TitleUnicode:sink to the deep sea world
Artist:Chroma
ArtistUnicode:黒魔
Creator:LeiN-
Version:abyss
Source:
Tags:
BeatmapID:781930
BeatmapSetID:355103

[Difficulty]
HPDrainRate:8
CircleSize:4
OverallDifficulty:8
ApproachRate:5
SliderMultiplier:1.4
SliderTickRate:1

[Events]
//Background and Video events
0,0,"bg2.png",0,0
//Break Periods
//Storyboard Layer 0 (Background)
//Storyboard Layer 1 (Fail)
//Storyboard Layer 2 (Pass)
//Storyboard Layer 3 (Foreground)
//Storyboard Sound Samples

[TimingPoints]
1022,324.324324324324,4,1,0,0,1,0

[HitObjects]
192,192,1022,5,0,0:0:0:0:
320,192,1184,1,0,0:0:0:0:
448,192,1346,1,0,0:0:0:0:
320,192,1508,1,0,0:0:0:0:
448,192,1670,128,0,1832:0:0:0:0:
320,192,1832,1,0,0:0:0:0:
64,192,1994,1,0,0:0:0:0:
192,192,2157,1,0,0:0:0:0:
320,192,2319,1,0,0:0:0:0:
192,192,2481,1,0,0:0:0:0:
320,192,2643,128,0,2805:0:0:0:0:
192,192,2805,1,0,0:0:0:0:
64,192,2967,1,0,0:0:0:0:
192,192,3130,1,0,0:0:0:0:
320,192,3292,1,0,0:0:0:0:
448,192,3454,128,0,3616:0:0:0:0:
192,192,3616,1,0,0:0:0:0:
64,192,3616,128,0,3657:0:0:0:0:
320,192,3778,1,0,0:0:0:0:
192,192,3940,1,0,0:0:0:0:
64,192,4103,1,0,0:0:0:0:
320,192,4265,1,0,0:0:0:0:
64,192,4427,1,0,0:0:0:0:
192,192,4589,1,0,0:0:0:0:
320,192,4751,1,0,0:0:0:0:
192,192,4913,1,0,0:0:0:0:
320,192,5076,128,0,5238:0:0:0:0:
448,192,5238,128,0,5400:0:0:0:0:
192,192,5400,128,0,5562:0:0:0:0:
64,192,5562,1,0,0:0:0:0:
448,192,5724,1,0,0:0:0:0:
320,192,5886,128,0,6049:0:0:0:0:
192,192,6049,1,0,0:0:0:0:
64,192,6049,1,0,0:0:0:0:
448,192,6130,1,0,0:0:0:0:
320,192,6130,1,0,0:0:0:0:
192,192,6211,1,0,0:0:0:0:
64,192,6211,1,0,0:0:0:0:
192,192,6373,1,0,0:0:0:0:
320,192,6535,1,0,0:0:0:0:
64,192,6535,1,0,0:0:0:0:
192,192,6697,1,0,0:0:0:0:
448,192,6697,1,0,0:0:0:0:
320,192,6778,1,0,0:0:0:0:
448,192,6859,1,0,0:0:0:0:
64,192,6859,1,0,0:0:0:0:
192,192,6940,1,0,0:0:0:0:
320,192,7021,1,0,0:0:0:0:
64,192,7021,1,0,0:0:0:0:
448,192,7184,1,0,0:0:0:0:
64,192,7346,1,0,0:0:0:0:
192,192,7386,1,0,0:0:0:0:
320,192,7427,1,0,0:0:0:0:
448,192,7467,1,0,0:0:0:0:
64,192,7508,1,0,0:0:0:0:
192,192,7508,1,0,0:0:0:0:
448,192,7670,1,0,0:0:0:0:
320,192,7670,1,0,0:0:0:0:
192,192,7832,1,0,0:0:0:0:
448,192,7832,1,0,0:0:0:0:
320,192,7913,1,0,0:0:0:0:
192,192,7994,1,0,0:0:0:0:
64,192,7994,1,0,0:0:0:0:
448,192,8157,1,0,0:0:0:0:
64,192,8319,1,0,0:0:0:0:
192,192,8319,1,0,0:0:0:0:
320,192,8400,1,0,0:0:0:0:
64,192,8481,1,0,0:0:0:0:
448,192,8481,1,0,0:0:0:0:
448,192,8643,1,0,0:0:0:0:
320,192,8643,1,0,0:0:0:0:
192,192,8724,1,0,0:0:0:0:
64,192,8805,1,0,0:0:0:0:
448,192,8805,1,0,0:0:0:0:
320,192,8805,1,0,0:0:0:0:
192,192,8967,1,0,0:0:0:0:
64,192,9130,1,0,0:0:0:0:
320,192,9130,1,0,0:0:0:0:
192,192,9292,1,0,0:0:0:0:
448,192,9292,1,0,0:0:0:0:
64,192,9373,1,0,0:0:0:0:
320,192,9454,1,0,0:0:0:0:
448,192,9454,1,0,0:0:0:0:
192,192,9535,1,0,0:0:0:0:
64,192,9616,1,0,0:0:0:0:
320,192,9616,1,0,0:0:0:0:
448,192,9778,1,0,0:0:0:0:
192,192,9778,1,0,0:0:0:0:
64,192,9940,1,0,0:0:0:0:
192,192,9981,1,0,0:0:0:0:
320,192,10021,1,0,0:0:0:0:
448,192,10062,1,0,0:0:0:0:
64,192,10103,1,0,0:0:0:0:
192,192,10103,1,0,0:0:0:0:
320,192,10265,1,0,0:0:0:0:
448,192,10265,1,0,0:0:0:0:
64,192,10427,1,0,0:0:0:0:
192,192,10427,1,0,0:0:0:0:
320,192,10508,1,0,0:0:0:0:
192,192,10589,1,0,0:0:0:0:
448,192,10589,1,0,0:0:0:0:
320,192,10751,1,0,0:0:0:0:
64,192,10751,1,0,0:0:0:0:
192,192,10913,1,0,0:0:0:0:
448,192,10913,1,0,0:0:0:0:
320,192,10994,1,0,0:0:0:0:
64,192,11076,1,0,0:0:0:0:
192,192,11076,1,0,0:0:0:0:
320,192,11238,1,0,0:0:0:0:
448,192,11238,1,0,0:0:0:0:
192,192,11319,1,0,0:0:0:0:
64,192,11400,1,0,0:0:0:0:
320,192,11400,1,0,0:0:0:0:
448,192,11400,1,0,0:0:0:0:
192,192,11562,128,0,11603:0:0:0:0:
64,192,11724,1,0,0:0:0:0:
448,192,11724,128,0,11765:0:0:0:0:
192,192,11886,128,0,11927:0:0:0:0:
320,192,11886,1,0,0:0:0:0:
64,192,11967,1,0,0:0:0:0:
448,192,12049,128,0,12089:0:0:0:0:
192,192,12049,1,0,0:0:0:0:
320,192,12130,1,0,0:0:0:0:
64,192,12211,1,0,0:0:0:0:
192,192,12211,128,0,12251:0:0:0:0:
320,192,12373,128,0,12413:0:0:0:0:
192,192,12373,1,0,0:0:0:0:
64,192,12535,1,0,0:0:0:0:
448,192,12535,128,0,12576:0:0:0:0:
192,192,12576,1,0,0:0:0:0:
320,192,12616,1,0,0:0:0:0:
448,192,12657,1,0,0:0:0:0:
64,192,12697,1,0,0:0:0:0:
192,192,12697,1,0,0:0:0:0:
320,192,12859,128,0,12900:0:0:0:0:
448,192,12859,1,0,0:0:0:0:
64,192,13021,128,0,13062:0:0:0:0:
448,192,13021,1,0,0:0:0:0:
192,192,13103,1,0,0:0:0:0:
320,192,13184,128,0,13224:0:0:0:0:
64,192,13184,1,0,0:0:0:0:
192,192,13346,128,0,13386:0:0:0:0:
448,192,13346,1,0,0:0:0:0:
448,192,13508,128,0,13549:0:0:0:0:
320,192,13508,1,0,0:0:0:0:
192,192,13589,1,0,0:0:0:0:
320,192,13670,128,0,13711:0:0:0:0:
64,192,13670,1,0,0:0:0:0:
192,192,13832,128,0,13873:0:0:0:0:
448,192,13832,1,0,0:0:0:0:
320,192,13913,1,0,0:0:0:0:
64,192,13994,1,0,0:0:0:0:
448,192,13994,1,0,0:0:0:0:
192,192,14157,128,0,14197:0:0:0:0:
448,192,14319,128,0,14359:0:0:0:0:
320,192,14319,1,0,0:0:0:0:
192,192,14481,128,0,14521:0:0:0:0:
64,192,14481,1,0,0:0:0:0:
320,192,14562,1,0,0:0:0:0:
448,192,14643,128,0,14684:0:0:0:0:
64,192,14643,1,0,0:0:0:0:
320,192,14724,1,0,0:0:0:0:
192,192,14805,128,0,14846:0:0:0:0:
448,192,14805,1,0,0:0:0:0:
320,192,14967,128,0,15008:0:0:0:0:
192,192,14967,1,0,0:0:0:0:
448,192,15130,128,0,15170:0:0:0:0:
64,192,15130,1,0,0:0:0:0:
192,192,15170,1,0,0:0:0:0:
320,192,15211,1,0,0:0:0:0:
448,192,15251,1,0,0:0:0:0:
64,192,15292,1,0,0:0:0:0:
192,192,15292,1,0,0:0:0:0:
320,192,15454,128,0,15494:0:0:0:0:
448,192,15454,1,0,0:0:0:0:
64,192,15616,128,0,15657:0:0:0:0:
448,192,15616,1,0,0:0:0:0:
320,192,15697,1,0,0:0:0:0:
192,192,15778,128,0,15819:0:0:0:0:
448,192,15778,1,0,0:0:0:0:
448,192,15940,128,0,15981:0:0:0:0:
320,192,15940,1,0,0:0:0:0:
320,192,16103,128,0,16143:0:0:0:0:
64,192,16103,1,0,0:0:0:0:
448,192,16184,1,0,0:0:0:0:
192,192,16265,128,0,16305:0:0:0:0:
64,192,16265,1,0,0:0:0:0:
64,192,16427,128,0,16467:0:0:0:0:
320,192,16427,1,0,0:0:0:0:
192,192,16508,1,0,0:0:0:0:
64,192,16589,1,0,0:0:0:0:
448,192,16589,1,0,0:0:0:0:
192,192,16751,128,0,16792:0:0:0:0:
448,192,16913,128,0,16954:0:0:0:0:
64,192,16913,1,0,0:0:0:0:
192,192,17076,128,0,17116:0:0:0:0:
320,192,17076,1,0,0:0:0:0:
64,192,17157,1,0,0:0:0:0:
448,192,17238,128,0,17278:0:0:0:0:
320,192,17238,1,0,0:0:0:0:
64,192,17319,1,0,0:0:0:0:
192,192,17400,128,0,17440:0:0:0:0:
320,192,17400,1,0,0:0:0:0:
320,192,17562,128,0,17603:0:0:0:0:
64,192,17562,1,0,0:0:0:0:
448,192,17724,128,0,17765:0:0:0:0:
64,192,17724,1,0,0:0:0:0:
192,192,17765,1,0,0:0:0:0:
320,192,17805,1,0,0:0:0:0:
448,192,17846,1,0,0:0:0:0:
64,192,17886,1,0,0:0:0:0:
192,192,17886,1,0,0:0:0:0:
320,192,18049,128,0,18089:0:0:0:0:
192,192,18049,1,0,0:0:0:0:
64,192,18211,128,0,18251:0:0:0:0:
448,192,18211,1,0,0:0:0:0:
192,192,18292,1,0,0:0:0:0:
320,192,18373,128,0,18413:0:0:0:0:
64,192,18373,1,0,0:0:0:0:
192,192,18535,128,0,18576:0:0:0:0:
448,192,18535,1,0,0:0:0:0:
448,192,18697,128,0,18738:0:0:0:0:
64,192,18697,1,0,0:0:0:0:
192,192,18778,1,0,0:0:0:0:
320,192,18859,128,0,18900:0:0:0:0:
64,192,18859,1,0,0:0:0:0:
192,192,19021,128,0,19062:0:0:0:0:
448,192,19021,1,0,0:0:0:0:
320,192,19103,1,0,0:0:0:0:
64,192,19184,1,0,0:0:0:0:
448,192,19184,1,0,0:0:0:0:
192,192,19346,128,0,19386:0:0:0:0:
448,192,19508,128,0,19549:0:0:0:0:
320,192,19508,1,0,0:0:0:0:
192,192,19670,128,0,19711:0:0:0:0:
64,192,19670,1,0,0:0:0:0:
320,192,19751,1,0,0:0:0:0:
448,192,19832,128,0,19873:0:0:0:0:
64,192,19832,1,0,0:0:0:0:
320,192,19913,1,0,0:0:0:0:
192,192,19994,128,0,20035:0:0:0:0:
448,192,19994,1,0,0:0:0:0:
320,192,20157,128,0,20197:0:0:0:0:
64,192,20157,1,0,0:0:0:0:
448,192,20319,128,0,20359:0:0:0:0:
64,192,20319,1,0,0:0:0:0:
192,192,20359,1,0,0:0:0:0:
320,192,20400,1,0,0:0:0:0:
448,192,20440,1,0,0:0:0:0:
64,192,20481,1,0,0:0:0:0:
192,192,20481,1,0,0:0:0:0:
320,192,20643,128,0,20684:0:0:0:0:
448,192,20643,1,0,0:0:0:0:
64,192,20805,128,0,20846:0:0:0:0:
448,192,20805,1,0,0:0:0:0:
320,192,20886,1,0,0:0:0:0:
192,192,20967,128,0,21008:0:0:0:0:
448,192,20967,1,0,0:0:0:0:
448,192,21130,128,0,21170:0:0:0:0:
64,192,21130,1,0,0:0:0:0:
320,192,21292,128,0,21332:0:0:0:0:
192,192,21292,1,0,0:0:0:0:
448,192,21373,1,0,0:0:0:0:
64,192,21454,1,0,0:0:0:0:
192,192,21535,1,0,0:0:0:0:
64,192,21616,1,0,0:0:0:0:
192,192,21697,1,0,0:0:0:0:
448,192,21778,128,0,23076:0:0:0:0:
64,192,21778,1,0,0:0:0:0:
320,192,21778,1,0,0:0:0:0:
192,192,21940,1,0,0:0:0:0:
320,192,21940,1,0,0:0:0:0:
64,192,22103,1,0,0:0:0:0:
320,192,22103,1,0,0:0:0:0:
64,192,22265,1,0,0:0:0:0:
192,192,22265,1,0,0:0:0:0:
64,192,22427,1,0,0:0:0:0:
320,192,22427,1,0,0:0:0:0:
192,192,22589,1,0,0:0:0:0:
320,192,22589,1,0,0:0:0:0:
64,192,22751,1,0,0:0:0:0:
320,192,22751,1,0,0:0:0:0:
192,192,22913,1,0,0:0:0:0:
64,192,22913,1,0,0:0:0:0:
64,192,23076,1,0,0:0:0:0:
320,192,23076,1,0,0:0:0:0:
192,192,23238,1,0,0:0:0:0:
320,192,23238,1,0,0:0:0:0:
64,192,23400,1,0,0:0:0:0:
448,192,23400,1,0,0:0:0:0:
64,192,23562,1,0,0:0:0:0:
320,192,23562,1,0,0:0:0:0:
192,192,23724,1,0,0:0:0:0:
448,192,23724,1,0,0:0:0:0:
320,192,23886,1,0,0:0:0:0:
448,192,23886,1,0,0:0:0:0:
64,192,24049,1,0,0:0:0:0:
192,192,24049,1,0,0:0:0:0:
192,192,24211,1,0,0:0:0:0:
448,192,24211,1,0,0:0:0:0:
320,192,24373,1,0,0:0:0:0:
448,192,24373,1,0,0:0:0:0:
320,192,24535,1,0,0:0:0:0:
64,192,24535,1,0,0:0:0:0:
64,192,24697,1,0,0:0:0:0:
448,192,24697,1,0,0:0:0:0:
192,192,24859,1,0,0:0:0:0:
448,192,24859,1,0,0:0:0:0:
192,192,25021,1,0,0:0:0:0:
320,192,25021,1,0,0:0:0:0:
64,192,25184,1,0,0:0:0:0:
320,192,25184,1,0,0:0:0:0:
64,192,25346,1,0,0:0:0:0:
448,192,25346,1,0,0:0:0:0:
192,192,25508,1,0,0:0:0:0:
448,192,25508,1,0,0:0:0:0:
64,192,25670,1,0,0:0:0:0:
192,192,25670,1,0,0:0:0:0:
448,192,25670,128,0,25711:0:0:0:0:
64,192,25832,1,0,0:0:0:0:
320,192,25832,1,0,0:0:0:0:
320,192,25994,1,0,0:0:0:0:
448,192,25994,1,0,0:0:0:0:
192,192,26157,128,0,26197:0:0:0:0:
448,192,26157,1,0,0:0:0:0:
64,192,26157,1,0,0:0:0:0:
64,192,26319,1,0,0:0:0:0:
320,192,26319,1,0,0:0:0:0:
64,192,26481,1,0,0:0:0:0:
192,192,26481,1,0,0:0:0:0:
448,192,26481,1,0,0:0:0:0:
192,192,26643,1,0,0:0:0:0:
320,192,26643,1,0,0:0:0:0:
448,192,26643,1,0,0:0:0:0:
64,192,26805,1,0,0:0:0:0:
192,192,26805,1,0,0:0:0:0:
320,192,26805,1,0,0:0:0:0:
64,192,26967,1,0,0:0:0:0:
320,192,26967,1,0,0:0:0:0:
448,192,26967,128,0,28184:0:0:0:0:
64,192,27130,1,0,0:0:0:0:
192,192,27130,1,0,0:0:0:0:
64,192,27292,1,0,0:0:0:0:
320,192,27292,1,0,0:0:0:0:
192,192,27454,1,0,0:0:0:0:
320,192,27454,1,0,0:0:0:0:
64,192,27616,1,0,0:0:0:0:
320,192,27616,1,0,0:0:0:0:
64,192,27778,1,0,0:0:0:0:
192,192,27778,1,0,0:0:0:0:
64,192,27940,1,0,0:0:0:0:
320,192,27940,1,0,0:0:0:0:
192,192,28103,1,0,0:0:0:0:
320,192,28103,1,0,0:0:0:0:
64,192,28265,1,0,0:0:0:0:
320,192,28265,1,0,0:0:0:0:
448,192,28265,128,0,28305:0:0:0:0:
64,192,28427,1,0,0:0:0:0:
192,192,28427,1,0,0:0:0:0:
320,192,28589,1,0,0:0:0:0:
448,192,28589,1,0,0:0:0:0:
448,192,28751,1,0,0:0:0:0:
64,192,28751,1,0,0:0:0:0:
192,192,28751,128,0,28792:0:0:0:0:
192,192,28913,1,0,0:0:0:0:
320,192,28913,1,0,0:0:0:0:
64,192,29076,1,0,0:0:0:0:
192,192,29076,1,0,0:0:0:0:
64,192,29238,1,0,0:0:0:0:
448,192,29238,1,0,0:0:0:0:
320,192,29238,128,0,29278:0:0:0:0:
192,192,29400,1,0,0:0:0:0:
448,192,29400,1,0,0:0:0:0:
64,192,29562,128,0,29603:0:0:0:0:
192,192,29562,1,0,0:0:0:0:
320,192,29562,1,0,0:0:0:0:
320,192,29724,1,0,0:0:0:0:
448,192,29724,1,0,0:0:0:0:
64,192,29886,1,0,0:0:0:0:
448,192,29886,1,0,0:0:0:0:
64,192,30049,1,0,0:0:0:0:
320,192,30049,1,0,0:0:0:0:
192,192,30211,1,0,0:0:0:0:
320,192,30211,1,0,0:0:0:0:
192,192,30373,1,0,0:0:0:0:
448,192,30373,1,0,0:0:0:0:
64,192,30535,1,0,0:0:0:0:
448,192,30535,1,0,0:0:0:0:
64,192,30697,1,0,0:0:0:0:
320,192,30697,1,0,0:0:0:0:
192,192,30778,1,0,0:0:0:0:
64,192,30859,1,0,0:0:0:0:
448,192,30859,1,0,0:0:0:0:
320,192,30940,1,0,0:0:0:0:
192,192,31021,1,0,0:0:0:0:
64,192,31021,1,0,0:0:0:0:
448,192,31103,1,0,0:0:0:0:
320,192,31184,1,0,0:0:0:0:
192,192,31184,1,0,0:0:0:0:
64,192,31265,1,0,0:0:0:0:
448,192,31346,1,0,0:0:0:0:
320,192,31346,1,0,0:0:0:0:
64,192,31427,1,0,0:0:0:0:
320,192,31508,1,0,0:0:0:0:
192,192,31508,1,0,0:0:0:0:
448,192,31589,1,0,0:0:0:0:
64,192,31670,1,0,0:0:0:0:
192,192,31670,1,0,0:0:0:0:
320,192,31751,1,0,0:0:0:0:
448,192,31751,1,0,0:0:0:0:
64,192,31832,1,0,0:0:0:0:
192,192,31832,1,0,0:0:0:0:
320,192,31913,1,0,0:0:0:0:
448,192,31913,1,0,0:0:0:0:
64,192,31994,1,0,0:0:0:0:
192,192,31994,1,0,0:0:0:0:
320,192,32076,1,0,0:0:0:0:
448,192,32076,1,0,0:0:0:0:
64,192,32157,1,0,0:0:0:0:
192,192,32157,1,0,0:0:0:0:
192,192,32319,128,0,32359:0:0:0:0:
448,192,32481,128,0,32521:0:0:0:0:
64,192,32481,1,0,0:0:0:0:
192,192,32643,128,0,32684:0:0:0:0:
320,192,32643,1,0,0:0:0:0:
64,192,32724,1,0,0:0:0:0:
448,192,32805,128,0,32846:0:0:0:0:
192,192,32805,1,0,0:0:0:0:
320,192,32886,1,0,0:0:0:0:
192,192,32967,128,0,33008:0:0:0:0:
64,192,32967,1,0,0:0:0:0:
320,192,33130,128,0,33170:0:0:0:0:
192,192,33130,1,0,0:0:0:0:
448,192,33292,128,0,33332:0:0:0:0:
64,192,33292,1,0,0:0:0:0:
192,192,33332,1,0,0:0:0:0:
320,192,33373,1,0,0:0:0:0:
448,192,33413,1,0,0:0:0:0:
64,192,33454,1,0,0:0:0:0:
192,192,33454,1,0,0:0:0:0:
448,192,33616,1,0,0:0:0:0:
320,192,33616,128,0,33657:0:0:0:0:
64,192,33778,128,0,33819:0:0:0:0:
448,192,33778,1,0,0:0:0:0:
192,192,33859,1,0,0:0:0:0:
64,192,33940,1,0,0:0:0:0:
320,192,33940,128,0,33981:0:0:0:0:
192,192,34103,128,0,34143:0:0:0:0:
448,192,34103,1,0,0:0:0:0:
448,192,34265,128,0,34305:0:0:0:0:
320,192,34265,1,0,0:0:0:0:
192,192,34346,1,0,0:0:0:0:
320,192,34427,128,0,34467:0:0:0:0:
64,192,34427,1,0,0:0:0:0:
448,192,34589,1,0,0:0:0:0:
192,192,34589,128,0,34630:0:0:0:0:
320,192,34670,1,0,0:0:0:0:
64,192,34751,1,0,0:0:0:0:
448,192,34751,1,0,0:0:0:0:
192,192,34913,128,0,34954:0:0:0:0:
320,192,35076,1,0,0:0:0:0:
448,192,35076,128,0,35116:0:0:0:0:
64,192,35238,1,0,0:0:0:0:
192,192,35238,128,0,35278:0:0:0:0:
320,192,35319,1,0,0:0:0:0:
64,192,35400,1,0,0:0:0:0:
448,192,35400,128,0,35440:0:0:0:0:
320,192,35481,1,0,0:0:0:0:
448,192,35562,1,0,0:0:0:0:
192,192,35562,128,0,35603:0:0:0:0:
192,192,35724,1,0,0:0:0:0:
320,192,35724,128,0,35765:0:0:0:0:
64,192,35886,1,0,0:0:0:0:
448,192,35886,128,0,35927:0:0:0:0:
192,192,35927,1,0,0:0:0:0:
320,192,35967,1,0,0:0:0:0:
448,192,36008,1,0,0:0:0:0:
64,192,36049,1,0,0:0:0:0:
192,192,36049,1,0,0:0:0:0:
448,192,36211,1,0,0:0:0:0:
320,192,36211,128,0,36251:0:0:0:0:
64,192,36373,128,0,36413:0:0:0:0:
448,192,36373,1,0,0:0:0:0:
320,192,36454,1,0,0:0:0:0:
448,192,36535,1,0,0:0:0:0:
192,192,36535,128,0,36576:0:0:0:0:
320,192,36697,1,0,0:0:0:0:
448,192,36697,128,0,36738:0:0:0:0:
320,192,36859,128,0,36900:0:0:0:0:
64,192,36859,1,0,0:0:0:0:
448,192,36940,1,0,0:0:0:0:
192,192,37021,128,0,37062:0:0:0:0:
64,192,37021,1,0,0:0:0:0:
320,192,37184,1,0,0:0:0:0:
64,192,37184,128,0,37224:0:0:0:0:
192,192,37265,1,0,0:0:0:0:
448,192,37346,1,0,0:0:0:0:
64,192,37346,1,0,0:0:0:0:
192,192,37508,128,0,37549:0:0:0:0:
448,192,37670,128,0,37711:0:0:0:0:
64,192,37670,1,0,0:0:0:0:
192,192,37832,128,0,37873:0:0:0:0:
320,192,37832,1,0,0:0:0:0:
64,192,37913,1,0,0:0:0:0:
448,192,37994,128,0,38035:0:0:0:0:
320,192,37994,1,0,0:0:0:0:
64,192,38076,1,0,0:0:0:0:
192,192,38157,128,0,38197:0:0:0:0:
320,192,38157,1,0,0:0:0:0:
320,192,38319,128,0,38359:0:0:0:0:
64,192,38319,1,0,0:0:0:0:
448,192,38481,128,0,38521:0:0:0:0:
64,192,38481,1,0,0:0:0:0:
192,192,38521,1,0,0:0:0:0:
320,192,38562,1,0,0:0:0:0:
448,192,38603,1,0,0:0:0:0:
192,192,38643,1,0,0:0:0:0:
64,192,38643,1,0,0:0:0:0:
320,192,38805,128,0,38846:0:0:0:0:
192,192,38805,1,0,0:0:0:0:
448,192,38967,1,0,0:0:0:0:
64,192,38967,128,0,39008:0:0:0:0:
192,192,39049,1,0,0:0:0:0:
320,192,39130,128,0,39170:0:0:0:0:
64,192,39130,1,0,0:0:0:0:
192,192,39292,128,0,39332:0:0:0:0:
448,192,39292,1,0,0:0:0:0:
64,192,39454,1,0,0:0:0:0:
448,192,39454,128,0,39494:0:0:0:0:
192,192,39535,1,0,0:0:0:0:
64,192,39616,1,0,0:0:0:0:
320,192,39616,128,0,39657:0:0:0:0:
192,192,39778,128,0,39819:0:0:0:0:
448,192,39778,1,0,0:0:0:0:
320,192,39859,1,0,0:0:0:0:
448,192,39940,1,0,0:0:0:0:
64,192,39940,1,0,0:0:0:0:
192,192,40103,128,0,40143:0:0:0:0:
448,192,40265,128,0,40305:0:0:0:0:
320,192,40265,1,0,0:0:0:0:
64,192,40427,1,0,0:0:0:0:
192,192,40427,128,0,40467:0:0:0:0:
320,192,40508,1,0,0:0:0:0:
448,192,40589,128,0,40630:0:0:0:0:
64,192,40589,1,0,0:0:0:0:
320,192,40670,1,0,0:0:0:0:
448,192,40751,1,0,0:0:0:0:
192,192,40751,128,0,40792:0:0:0:0:
320,192,40913,128,0,40954:0:0:0:0:
64,192,40913,1,0,0:0:0:0:
64,192,41076,1,0,0:0:0:0:
448,192,41076,128,0,41116:0:0:0:0:
192,192,41116,1,0,0:0:0:0:
320,192,41157,1,0,0:0:0:0:
448,192,41197,1,0,0:0:0:0:
192,192,41238,1,0,0:0:0:0:
64,192,41238,1,0,0:0:0:0:
320,192,41400,128,0,41440:0:0:0:0:
448,192,41400,1,0,0:0:0:0:
448,192,41562,1,0,0:0:0:0:
64,192,41562,128,0,41603:0:0:0:0:
320,192,41643,1,0,0:0:0:0:
192,192,41724,128,0,41765:0:0:0:0:
448,192,41724,1,0,0:0:0:0:
448,192,41886,128,0,41927:0:0:0:0:
64,192,41886,1,0,0:0:0:0:
192,192,42049,1,0,0:0:0:0:
320,192,42049,128,0,42089:0:0:0:0:
448,192,42130,1,0,0:0:0:0:
64,192,42211,1,0,0:0:0:0:
192,192,42292,1,0,0:0:0:0:
64,192,42373,1,0,0:0:0:0:
192,192,42454,1,0,0:0:0:0:
64,192,42535,1,0,0:0:0:0:
448,192,42535,128,0,43832:0:0:0:0:
320,192,42535,1,0,0:0:0:0:
192,192,42616,1,0,0:0:0:0:
64,192,42697,1,0,0:0:0:0:
320,192,42778,1,0,0:0:0:0:
192,192,42859,1,0,0:0:0:0:
64,192,42859,1,0,0:0:0:0:
320,192,42940,1,0,0:0:0:0:
192,192,43021,1,0,0:0:0:0:
64,192,43103,1,0,0:0:0:0:
192,192,43184,1,0,0:0:0:0:
320,192,43184,1,0,0:0:0:0:
64,192,43265,1,0,0:0:0:0:
192,192,43346,1,0,0:0:0:0:
320,192,43427,1,0,0:0:0:0:
64,192,43508,1,0,0:0:0:0:
192,192,43508,1,0,0:0:0:0:
320,192,43589,1,0,0:0:0:0:
64,192,43670,1,0,0:0:0:0:
192,192,43751,1,0,0:0:0:0:
64,192,43832,1,0,0:0:0:0:
320,192,43832,1,0,0:0:0:0:
192,192,43913,1,0,0:0:0:0:
320,192,43994,1,0,0:0:0:0:
64,192,43994,1,0,0:0:0:0:
448,192,44076,1,0,0:0:0:0:
64,192,44157,1,0,0:0:0:0:
192,192,44157,1,0,0:0:0:0:
448,192,44238,1,0,0:0:0:0:
192,192,44319,1,0,0:0:0:0:
64,192,44319,1,0,0:0:0:0:
320,192,44400,1,0,0:0:0:0:
64,192,44481,1,0,0:0:0:0:
448,192,44481,1,0,0:0:0:0:
320,192,44562,1,0,0:0:0:0:
448,192,44643,1,0,0:0:0:0:
192,192,44643,1,0,0:0:0:0:
64,192,44724,1,0,0:0:0:0:
448,192,44805,1,0,0:0:0:0:
320,192,44805,1,0,0:0:0:0:
192,192,44886,1,0,0:0:0:0:
64,192,44967,1,0,0:0:0:0:
448,192,44967,1,0,0:0:0:0:
320,192,45049,1,0,0:0:0:0:
64,192,45130,1,0,0:0:0:0:
448,192,45130,1,0,0:0:0:0:
192,192,45211,1,0,0:0:0:0:
320,192,45292,1,0,0:0:0:0:
64,192,45292,1,0,0:0:0:0:
448,192,45373,1,0,0:0:0:0:
192,192,45454,1,0,0:0:0:0:
64,192,45454,1,0,0:0:0:0:
320,192,45535,1,0,0:0:0:0:
64,192,45616,1,0,0:0:0:0:
448,192,45616,1,0,0:0:0:0:
192,192,45697,1,0,0:0:0:0:
64,192,45778,1,0,0:0:0:0:
448,192,45778,1,0,0:0:0:0:
320,192,45859,1,0,0:0:0:0:
64,192,45940,1,0,0:0:0:0:
192,192,45940,1,0,0:0:0:0:
448,192,46021,1,0,0:0:0:0:
64,192,46103,1,0,0:0:0:0:
320,192,46103,1,0,0:0:0:0:
192,192,46184,1,0,0:0:0:0:
448,192,46265,1,0,0:0:0:0:
64,192,46265,1,0,0:0:0:0:
320,192,46346,1,0,0:0:0:0:
64,192,46427,1,0,0:0:0:0:
192,192,46427,1,0,0:0:0:0:
448,192,46427,128,0,46467:0:0:0:0:
320,192,46508,1,0,0:0:0:0:
64,192,46589,1,0,0:0:0:0:
448,192,46589,1,0,0:0:0:0:
192,192,46670,1,0,0:0:0:0:
64,192,46751,1,0,0:0:0:0:
320,192,46751,1,0,0:0:0:0:
448,192,46832,1,0,0:0:0:0:
320,192,46913,128,0,46954:0:0:0:0:
64,192,46913,1,0,0:0:0:0:
192,192,46913,1,0,0:0:0:0:
448,192,46994,1,0,0:0:0:0:
64,192,47076,1,0,0:0:0:0:
320,192,47076,1,0,0:0:0:0:
192,192,47157,1,0,0:0:0:0:
320,192,47238,1,0,0:0:0:0:
448,192,47238,1,0,0:0:0:0:
64,192,47238,1,0,0:0:0:0:
192,192,47319,1,0,0:0:0:0:
320,192,47400,1,0,0:0:0:0:
448,192,47400,1,0,0:0:0:0:
192,192,47481,1,0,0:0:0:0:
64,192,47562,1,0,0:0:0:0:
320,192,47562,1,0,0:0:0:0:
448,192,47562,1,0,0:0:0:0:
192,192,47643,1,0,0:0:0:0:
64,192,47724,1,0,0:0:0:0:
320,192,47724,1,0,0:0:0:0:
448,192,47724,1,0,0:0:0:0:
192,192,47805,1,0,0:0:0:0:
64,192,47886,1,0,0:0:0:0:
320,192,47886,1,0,0:0:0:0:
448,192,47967,1,0,0:0:0:0:
64,192,48049,1,0,0:0:0:0:
192,192,48049,1,0,0:0:0:0:
320,192,48130,1,0,0:0:0:0:
64,192,48211,1,0,0:0:0:0:
448,192,48211,1,0,0:0:0:0:
192,192,48292,1,0,0:0:0:0:
64,192,48373,1,0,0:0:0:0:
448,192,48373,1,0,0:0:0:0:
320,192,48454,1,0,0:0:0:0:
192,192,48535,1,0,0:0:0:0:
448,192,48535,1,0,0:0:0:0:
64,192,48616,1,0,0:0:0:0:
448,192,48697,1,0,0:0:0:0:
320,192,48697,1,0,0:0:0:0:
64,192,48778,1,0,0:0:0:0:
448,192,48859,1,0,0:0:0:0:
320,192,48859,1,0,0:0:0:0:
192,192,48940,1,0,0:0:0:0:
320,192,49021,1,0,0:0:0:0:
64,192,49021,1,0,0:0:0:0:
448,192,49021,128,0,49062:0:0:0:0:
192,192,49103,1,0,0:0:0:0:
320,192,49184,1,0,0:0:0:0:
64,192,49184,1,0,0:0:0:0:
448,192,49265,1,0,0:0:0:0:
192,192,49346,1,0,0:0:0:0:
64,192,49346,1,0,0:0:0:0:
320,192,49427,1,0,0:0:0:0:
64,192,49508,1,0,0:0:0:0:
448,192,49508,1,0,0:0:0:0:
192,192,49508,128,0,49549:0:0:0:0:
320,192,49589,1,0,0:0:0:0:
64,192,49670,1,0,0:0:0:0:
448,192,49670,1,0,0:0:0:0:
320,192,49751,1,0,0:0:0:0:
64,192,49832,1,0,0:0:0:0:
192,192,49832,1,0,0:0:0:0:
448,192,49913,1,0,0:0:0:0:
64,192,49994,1,0,0:0:0:0:
192,192,49994,1,0,0:0:0:0:
320,192,49994,128,0,50035:0:0:0:0:
448,192,50076,1,0,0:0:0:0:
64,192,50157,1,0,0:0:0:0:
320,192,50157,1,0,0:0:0:0:
192,192,50238,1,0,0:0:0:0:
320,192,50319,1,0,0:0:0:0:
448,192,50319,1,0,0:0:0:0:
64,192,50319,128,0,50359:0:0:0:0:
192,192,50400,1,0,0:0:0:0:
320,192,50481,1,0,0:0:0:0:
64,192,50481,1,0,0:0:0:0:
448,192,50562,1,0,0:0:0:0:
192,192,50643,1,0,0:0:0:0:
64,192,50643,1,0,0:0:0:0:
320,192,50724,1,0,0:0:0:0:
64,192,50805,1,0,0:0:0:0:
448,192,50805,1,0,0:0:0:0:
192,192,50886,1,0,0:0:0:0:
64,192,50967,1,0,0:0:0:0:
448,192,50967,1,0,0:0:0:0:
320,192,51049,1,0,0:0:0:0:
192,192,51130,1,0,0:0:0:0:
448,192,51130,1,0,0:0:0:0:
64,192,51211,1,0,0:0:0:0:
448,192,51292,1,0,0:0:0:0:
320,192,51292,1,0,0:0:0:0:
192,192,51373,1,0,0:0:0:0:
448,192,51454,1,0,0:0:0:0:
64,192,51454,1,0,0:0:0:0:
320,192,51535,1,0,0:0:0:0:
64,192,51616,1,0,0:0:0:0:
192,192,51616,1,0,0:0:0:0:
320,192,51697,1,0,0:0:0:0:
64,192,51778,1,0,0:0:0:0:
448,192,51778,1,0,0:0:0:0:
192,192,51859,1,0,0:0:0:0:
64,192,51940,5,0,0:0:0:0:
320,192,51940,1,0,0:0:0:0:
448,192,52021,1,0,0:0:0:0:
64,192,52103,1,0,0:0:0:0:
192,192,52103,1,0,0:0:0:0:
320,192,52184,1,0,0:0:0:0:
64,192,52265,1,0,0:0:0:0:
448,192,52265,1,0,0:0:0:0:
192,192,52346,1,0,0:0:0:0:
320,192,52427,1,0,0:0:0:0:
64,192,52427,1,0,0:0:0:0:
448,192,52508,1,0,0:0:0:0:
64,192,52589,1,0,0:0:0:0:
320,192,52670,1,0,0:0:0:0:
192,192,52751,1,0,0:0:0:0:
448,192,52832,1,0,0:0:0:0:
64,192,53076,5,0,0:0:0:0:
192,192,53238,1,0,0:0:0:0:
320,192,53400,1,0,0:0:0:0:
448,192,53440,1,0,0:0:0:0:
192,192,53481,1,0,0:0:0:0:
320,192,53562,1,0,0:0:0:0:
192,192,53724,1,0,0:0:0:0:
64,192,53765,1,0,0:0:0:0:
320,192,53805,1,0,0:0:0:0:
448,192,53886,1,0,0:0:0:0:
320,192,54049,1,0,0:0:0:0:
192,192,54089,1,0,0:0:0:0:
448,192,54130,1,0,0:0:0:0:
64,192,54211,1,0,0:0:0:0:
320,192,54373,1,0,0:0:0:0:
448,192,54535,1,0,0:0:0:0:
192,192,54576,1,0,0:0:0:0:
320,192,54616,1,0,0:0:0:0:
64,192,54697,1,0,0:0:0:0:
320,192,54859,1,0,0:0:0:0:
192,192,54900,1,0,0:0:0:0:
448,192,54940,1,0,0:0:0:0:
320,192,55021,1,0,0:0:0:0:
192,192,55184,1,0,0:0:0:0:
320,192,55265,1,0,0:0:0:0:
64,192,55305,1,0,0:0:0:0:
192,192,55346,1,0,0:0:0:0:
320,192,55670,1,0,0:0:0:0:
448,192,55751,1,0,0:0:0:0:
64,192,55792,1,0,0:0:0:0:
192,192,55832,1,0,0:0:0:0:
320,192,55994,1,0,0:0:0:0:
192,192,56157,1,0,0:0:0:0:
320,192,56197,1,0,0:0:0:0:
64,192,56238,1,0,0:0:0:0:
192,192,56319,1,0,0:0:0:0:
320,192,56481,1,0,0:0:0:0:
448,192,56521,1,0,0:0:0:0:
192,192,56562,1,0,0:0:0:0:
320,192,56643,1,0,0:0:0:0:
448,192,56805,1,0,0:0:0:0:
192,192,56886,1,0,0:0:0:0:
320,192,56927,1,0,0:0:0:0:
64,192,56967,1,0,0:0:0:0:
192,192,57008,1,0,0:0:0:0:
320,192,57049,1,0,0:0:0:0:
192,192,57130,1,0,0:0:0:0:
320,192,57292,1,0,0:0:0:0:
192,192,57332,1,0,0:0:0:0:
448,192,57373,1,0,0:0:0:0:
320,192,57454,1,0,0:0:0:0:
64,192,57616,1,0,0:0:0:0:
320,192,57778,1,0,0:0:0:0:
192,192,57819,1,0,0:0:0:0:
448,192,57940,1,0,0:0:0:0:
192,192,57981,1,0,0:0:0:0:
320,192,58021,1,0,0:0:0:0:
192,192,58265,1,0,0:0:0:0:
320,192,58305,1,0,0:0:0:0:
64,192,58346,1,0,0:0:0:0:
192,192,58427,1,0,0:0:0:0:
64,192,58589,1,0,0:0:0:0:
320,192,58751,1,0,0:0:0:0:
192,192,58792,1,0,0:0:0:0:
448,192,58832,1,0,0:0:0:0:
320,192,58913,1,0,0:0:0:0:
192,192,59076,1,0,0:0:0:0:
320,192,59157,1,0,0:0:0:0:
64,192,59197,1,0,0:0:0:0:
192,192,59238,1,0,0:0:0:0:
64,192,59400,1,0,0:0:0:0:
448,192,59440,1,0,0:0:0:0:
192,192,59481,1,0,0:0:0:0:
320,192,59562,1,0,0:0:0:0:
448,192,59724,1,0,0:0:0:0:
320,192,59886,1,0,0:0:0:0:
448,192,59967,1,0,0:0:0:0:
192,192,60049,1,0,0:0:0:0:
320,192,60089,1,0,0:0:0:0:
64,192,60130,1,0,0:0:0:0:
320,192,60211,1,0,0:0:0:0:
448,192,60373,1,0,0:0:0:0:
192,192,60413,1,0,0:0:0:0:
320,192,60454,1,0,0:0:0:0:
448,192,60535,1,0,0:0:0:0:
192,192,60697,1,0,0:0:0:0:
320,192,60751,1,0,0:0:0:0:
64,192,60805,1,0,0:0:0:0:
192,192,60859,1,0,0:0:0:0:
320,192,61021,1,0,0:0:0:0:
192,192,61103,1,0,0:0:0:0:
448,192,61143,1,0,0:0:0:0:
320,192,61184,1,0,0:0:0:0:
192,192,61346,1,0,0:0:0:0:
320,192,61400,1,0,0:0:0:0:
64,192,61454,1,0,0:0:0:0:
192,192,61508,1,0,0:0:0:0:
320,192,61670,1,0,0:0:0:0:
448,192,61751,1,0,0:0:0:0:
192,192,61792,1,0,0:0:0:0:
320,192,61832,1,0,0:0:0:0:
192,192,61994,1,0,0:0:0:0:
320,192,62035,1,0,0:0:0:0:
64,192,62076,1,0,0:0:0:0:
448,192,62157,1,0,0:0:0:0:
192,192,62319,1,0,0:0:0:0:
320,192,62481,1,0,0:0:0:0:
192,192,62521,1,0,0:0:0:0:
448,192,62562,1,0,0:0:0:0:
320,192,62643,1,0,0:0:0:0:
64,192,62724,1,0,0:0:0:0:
192,192,62805,1,0,0:0:0:0:
320,192,62967,1,0,0:0:0:0:
448,192,63049,1,0,0:0:0:0:
192,192,63130,1,0,0:0:0:0:
320,192,63130,1,0,0:0:0:0:
64,192,63211,1,0,0:0:0:0:
448,192,63211,1,0,0:0:0:0:
192,192,63292,1,0,0:0:0:0:
320,192,63292,1,0,0:0:0:0:
64,192,63373,1,0,0:0:0:0:
192,192,63454,1,0,0:0:0:0:
320,192,63535,1,0,0:0:0:0:
448,192,63616,1,0,0:0:0:0:
320,192,63697,1,0,0:0:0:0:
448,192,63778,1,0,0:0:0:0:
64,192,63778,1,0,0:0:0:0:
192,192,63819,1,0,0:0:0:0:
320,192,63859,1,0,0:0:0:0:
64,192,63940,1,0,0:0:0:0:
448,192,63940,1,0,0:0:0:0:
192,192,64021,1,0,0:0:0:0:
64,192,64103,1,0,0:0:0:0:
320,192,64103,1,0,0:0:0:0:
448,192,64184,1,0,0:0:0:0:
320,192,64265,1,0,0:0:0:0:
192,192,64346,1,0,0:0:0:0:
448,192,64427,1,0,0:0:0:0:
64,192,64427,1,0,0:0:0:0:
320,192,64467,1,0,0:0:0:0:
192,192,64508,1,0,0:0:0:0:
448,192,64589,1,0,0:0:0:0:
320,192,64589,1,0,0:0:0:0:
64,192,64670,1,0,0:0:0:0:
192,192,64751,1,0,0:0:0:0:
320,192,64832,1,0,0:0:0:0:
448,192,64832,1,0,0:0:0:0:
192,192,64913,1,0,0:0:0:0:
64,192,64913,1,0,0:0:0:0:
448,192,64954,1,0,0:0:0:0:
320,192,64994,1,0,0:0:0:0:
64,192,65076,1,0,0:0:0:0:
192,192,65076,1,0,0:0:0:0:
448,192,65157,1,0,0:0:0:0:
192,192,65238,1,0,0:0:0:0:
320,192,65278,1,0,0:0:0:0:
64,192,65319,1,0,0:0:0:0:
448,192,65400,1,0,0:0:0:0:
320,192,65400,1,0,0:0:0:0:
192,192,65481,1,0,0:0:0:0:
320,192,65562,1,0,0:0:0:0:
448,192,65562,1,0,0:0:0:0:
64,192,65643,1,0,0:0:0:0:
320,192,65684,1,0,0:0:0:0:
192,192,65724,1,0,0:0:0:0:
64,192,65805,1,0,0:0:0:0:
320,192,65886,1,0,0:0:0:0:
448,192,65886,1,0,0:0:0:0:
64,192,65967,1,0,0:0:0:0:
192,192,66049,1,0,0:0:0:0:
448,192,66130,1,0,0:0:0:0:
192,192,66170,1,0,0:0:0:0:
320,192,66211,1,0,0:0:0:0:
448,192,66292,1,0,0:0:0:0:
192,192,66373,1,0,0:0:0:0:
64,192,66373,1,0,0:0:0:0:
448,192,66454,1,0,0:0:0:0:
320,192,66535,1,0,0:0:0:0:
192,192,66535,1,0,0:0:0:0:
64,192,66576,1,0,0:0:0:0:
448,192,66616,1,0,0:0:0:0:
64,192,66697,1,0,0:0:0:0:
192,192,66697,1,0,0:0:0:0:
448,192,66778,1,0,0:0:0:0:
320,192,66859,1,0,0:0:0:0:
64,192,66900,1,0,0:0:0:0:
192,192,66940,1,0,0:0:0:0:
320,192,67021,1,0,0:0:0:0:
448,192,67021,1,0,0:0:0:0:
192,192,67103,1,0,0:0:0:0:
64,192,67103,1,0,0:0:0:0:
448,192,67184,1,0,0:0:0:0:
320,192,67184,1,0,0:0:0:0:
64,192,67265,1,0,0:0:0:0:
192,192,67305,1,0,0:0:0:0:
448,192,67346,1,0,0:0:0:0:
320,192,67386,1,0,0:0:0:0:
64,192,67427,1,0,0:0:0:0:
448,192,67508,1,0,0:0:0:0:
320,192,67508,1,0,0:0:0:0:
192,192,67589,1,0,0:0:0:0:
320,192,67670,1,0,0:0:0:0:
448,192,67670,1,0,0:0:0:0:
64,192,67711,1,0,0:0:0:0:
192,192,67751,1,0,0:0:0:0:
448,192,67832,1,0,0:0:0:0:
64,192,67913,1,0,0:0:0:0:
192,192,67994,1,0,0:0:0:0:
448,192,67994,1,0,0:0:0:0:
320,192,68076,1,0,0:0:0:0:
64,192,68157,1,0,0:0:0:0:
448,192,68157,1,0,0:0:0:0:
320,192,68197,1,0,0:0:0:0:
192,192,68238,1,0,0:0:0:0:
448,192,68319,1,0,0:0:0:0:
192,192,68359,1,0,0:0:0:0:
320,192,68400,1,0,0:0:0:0:
64,192,68481,1,0,0:0:0:0:
448,192,68481,1,0,0:0:0:0:
320,192,68562,1,0,0:0:0:0:
64,192,68643,1,0,0:0:0:0:
192,192,68684,1,0,0:0:0:0:
320,192,68724,1,0,0:0:0:0:
448,192,68805,1,0,0:0:0:0:
192,192,68886,1,0,0:0:0:0:
320,192,68967,1,0,0:0:0:0:
448,192,68967,1,0,0:0:0:0:
64,192,69049,1,0,0:0:0:0:
320,192,69130,1,0,0:0:0:0:
448,192,69130,1,0,0:0:0:0:
192,192,69170,1,0,0:0:0:0:
64,192,69211,1,0,0:0:0:0:
320,192,69292,1,0,0:0:0:0:
448,192,69292,1,0,0:0:0:0:
64,192,69373,1,0,0:0:0:0:
192,192,69454,1,0,0:0:0:0:
448,192,69535,1,0,0:0:0:0:
320,192,69576,1,0,0:0:0:0:
64,192,69616,1,0,0:0:0:0:
192,192,69616,1,0,0:0:0:0:
320,192,69697,1,0,0:0:0:0:
448,192,69697,1,0,0:0:0:0:
64,192,69778,1,0,0:0:0:0:
192,192,69778,1,0,0:0:0:0:
448,192,69819,1,0,0:0:0:0:
320,192,69859,1,0,0:0:0:0:
64,192,69940,1,0,0:0:0:0:
192,192,70021,1,0,0:0:0:0:
448,192,70021,1,0,0:0:0:0:
64,192,70103,1,0,0:0:0:0:
320,192,70103,1,0,0:0:0:0:
448,192,70184,1,0,0:0:0:0:
64,192,70265,1,0,0:0:0:0:
192,192,70265,1,0,0:0:0:0:
320,192,70346,1,0,0:0:0:0:
448,192,70427,1,0,0:0:0:0:
192,192,70467,1,0,0:0:0:0:
320,192,70508,1,0,0:0:0:0:
64,192,70589,1,0,0:0:0:0:
448,192,70589,1,0,0:0:0:0:
192,192,70670,1,0,0:0:0:0:
320,192,70751,1,0,0:0:0:0:
448,192,70751,1,0,0:0:0:0:
64,192,70792,1,0,0:0:0:0:
192,192,70832,1,0,0:0:0:0:
448,192,70913,1,0,0:0:0:0:
320,192,70994,1,0,0:0:0:0:
64,192,71076,1,0,0:0:0:0:
192,192,71076,1,0,0:0:0:0:
320,192,71130,1,0,0:0:0:0:
448,192,71184,1,0,0:0:0:0:
192,192,71238,1,0,0:0:0:0:
64,192,71319,1,0,0:0:0:0:
320,192,71400,1,0,0:0:0:0:
192,192,71481,1,0,0:0:0:0:
320,192,71521,1,0,0:0:0:0:
64,192,71562,1,0,0:0:0:0:
448,192,71562,1,0,0:0:0:0:
192,192,71643,1,0,0:0:0:0:
64,192,71724,1,0,0:0:0:0:
320,192,71724,1,0,0:0:0:0:
448,192,71778,1,0,0:0:0:0:
192,192,71832,1,0,0:0:0:0:
64,192,71886,1,0,0:0:0:0:
320,192,71886,1,0,0:0:0:0:
448,192,71967,1,0,0:0:0:0:
192,192,72049,1,0,0:0:0:0:
64,192,72130,1,0,0:0:0:0:
320,192,72170,1,0,0:0:0:0:
192,192,72211,1,0,0:0:0:0:
320,192,72292,1,0,0:0:0:0:
64,192,72373,1,0,0:0:0:0:
448,192,72373,1,0,0:0:0:0:
192,192,72413,1,0,0:0:0:0:
320,192,72454,1,0,0:0:0:0:
64,192,72535,1,0,0:0:0:0:
192,192,72616,1,0,0:0:0:0:
320,192,72697,1,0,0:0:0:0:
448,192,72697,1,0,0:0:0:0:
192,192,72778,1,0,0:0:0:0:
320,192,72859,1,0,0:0:0:0:
448,192,72859,1,0,0:0:0:0:
64,192,72900,1,0,0:0:0:0:
192,192,72940,1,0,0:0:0:0:
448,192,73021,1,0,0:0:0:0:
320,192,73103,1,0,0:0:0:0:
64,192,73184,1,0,0:0:0:0:
192,192,73184,1,0,0:0:0:0:
320,192,73265,1,0,0:0:0:0:
64,192,73346,1,0,0:0:0:0:
192,192,73346,1,0,0:0:0:0:
448,192,73427,1,0,0:0:0:0:
192,192,73508,1,0,0:0:0:0:
320,192,73562,1,0,0:0:0:0:
448,192,73616,1,0,0:0:0:0:
64,192,73670,1,0,0:0:0:0:
192,192,73670,1,0,0:0:0:0:
320,192,73751,1,0,0:0:0:0:
64,192,73832,1,0,0:0:0:0:
192,192,73832,1,0,0:0:0:0:
448,192,73913,1,0,0:0:0:0:
320,192,73954,1,0,0:0:0:0:
64,192,73994,1,0,0:0:0:0:
192,192,74076,1,0,0:0:0:0:
320,192,74157,1,0,0:0:0:0:
448,192,74157,1,0,0:0:0:0:
192,192,74211,1,0,0:0:0:0:
64,192,74265,1,0,0:0:0:0:
320,192,74319,1,0,0:0:0:0:
448,192,74319,1,0,0:0:0:0:
192,192,74400,1,0,0:0:0:0:
448,192,74481,1,0,0:0:0:0:
192,192,74562,1,0,0:0:0:0:
320,192,74603,1,0,0:0:0:0:
64,192,74643,1,0,0:0:0:0:
448,192,74643,1,0,0:0:0:0:
192,192,74724,1,0,0:0:0:0:
320,192,74805,1,0,0:0:0:0:
448,192,74805,1,0,0:0:0:0:
64,192,74846,1,0,0:0:0:0:
192,192,74886,1,0,0:0:0:0:
448,192,74967,1,0,0:0:0:0:
320,192,74967,128,0,75859:0:0:0:0:
320,192,75940,1,0,0:0:0:0:
320,192,77562,5,0,0:0:0:0:
448,192,77562,1,0,0:0:0:0:
64,192,77643,1,0,0:0:0:0:
320,192,77724,1,0,0:0:0:0:
192,192,77805,1,0,0:0:0:0:
64,192,77886,1,0,0:0:0:0:
448,192,77886,1,0,0:0:0:0:
320,192,77967,1,0,0:0:0:0:
64,192,78049,1,0,0:0:0:0:
192,192,78130,1,0,0:0:0:0:
320,192,78211,1,0,0:0:0:0:
448,192,78211,1,0,0:0:0:0:
64,192,78292,1,0,0:0:0:0:
320,192,78373,1,0,0:0:0:0:
192,192,78454,1,0,0:0:0:0:
64,192,78535,1,0,0:0:0:0:
448,192,78535,1,0,0:0:0:0:
320,192,78616,1,0,0:0:0:0:
64,192,78697,1,0,0:0:0:0:
192,192,78778,1,0,0:0:0:0:
320,192,78859,1,0,0:0:0:0:
448,192,78859,1,0,0:0:0:0:
64,192,78940,1,0,0:0:0:0:
320,192,79021,1,0,0:0:0:0:
192,192,79103,1,0,0:0:0:0:
64,192,79184,1,0,0:0:0:0:
448,192,79184,1,0,0:0:0:0:
320,192,79265,1,0,0:0:0:0:
64,192,79346,1,0,0:0:0:0:
192,192,79427,1,0,0:0:0:0:
320,192,79508,1,0,0:0:0:0:
448,192,79508,1,0,0:0:0:0:
64,192,79589,1,0,0:0:0:0:
320,192,79670,1,0,0:0:0:0:
192,192,79751,1,0,0:0:0:0:
64,192,79832,1,0,0:0:0:0:
448,192,79832,1,0,0:0:0:0:
320,192,79913,1,0,0:0:0:0:
64,192,79994,1,0,0:0:0:0:
192,192,80076,1,0,0:0:0:0:
320,192,80157,1,0,0:0:0:0:
448,192,80157,1,0,0:0:0:0:
64,192,80238,1,0,0:0:0:0:
448,192,80319,1,0,0:0:0:0:
320,192,80400,1,0,0:0:0:0:
64,192,80481,1,0,0:0:0:0:
192,192,80481,1,0,0:0:0:0:
448,192,80562,1,0,0:0:0:0:
192,192,80643,1,0,0:0:0:0:
320,192,80724,1,0,0:0:0:0:
64,192,80805,1,0,0:0:0:0:
448,192,80805,1,0,0:0:0:0:
192,192,80886,1,0,0:0:0:0:
448,192,80967,1,0,0:0:0:0:
320,192,81049,1,0,0:0:0:0:
64,192,81130,1,0,0:0:0:0:
192,192,81130,1,0,0:0:0:0:
448,192,81211,1,0,0:0:0:0:
192,192,81292,1,0,0:0:0:0:
320,192,81373,1,0,0:0:0:0:
448,192,81454,1,0,0:0:0:0:
64,192,81454,1,0,0:0:0:0:
192,192,81535,1,0,0:0:0:0:
448,192,81616,1,0,0:0:0:0:
320,192,81697,1,0,0:0:0:0:
64,192,81778,1,0,0:0:0:0:
192,192,81778,1,0,0:0:0:0:
448,192,81859,1,0,0:0:0:0:
192,192,81940,1,0,0:0:0:0:
320,192,82021,1,0,0:0:0:0:
448,192,82103,1,0,0:0:0:0:
64,192,82103,1,0,0:0:0:0:
192,192,82184,1,0,0:0:0:0:
448,192,82265,1,0,0:0:0:0:
320,192,82346,1,0,0:0:0:0:
64,192,82427,1,0,0:0:0:0:
192,192,82427,1,0,0:0:0:0:
448,192,82508,1,0,0:0:0:0:
192,192,82589,1,0,0:0:0:0:
320,192,82670,1,0,0:0:0:0:
64,192,82751,1,0,0:0:0:0:
448,192,82751,1,0,0:0:0:0:
192,192,82805,1,0,0:0:0:0:
320,192,82859,1,0,0:0:0:0:
448,192,82913,1,0,0:0:0:0:
192,192,82994,1,0,0:0:0:0:
448,192,83076,1,0,0:0:0:0:
64,192,83076,1,0,0:0:0:0:
320,192,83130,1,0,0:0:0:0:
192,192,83184,1,0,0:0:0:0:
64,192,83238,1,0,0:0:0:0:
320,192,83319,1,0,0:0:0:0:
64,192,83400,1,0,0:0:0:0:
448,192,83400,1,0,0:0:0:0:
192,192,83454,1,0,0:0:0:0:
320,192,83508,1,0,0:0:0:0:
448,192,83562,1,0,0:0:0:0:
192,192,83643,1,0,0:0:0:0:
64,192,83724,1,0,0:0:0:0:
448,192,83724,1,0,0:0:0:0:
320,192,83778,1,0,0:0:0:0:
192,192,83832,1,0,0:0:0:0:
64,192,83886,1,0,0:0:0:0:
320,192,83967,1,0,0:0:0:0:
448,192,84049,1,0,0:0:0:0:
64,192,84049,1,0,0:0:0:0:
192,192,84103,1,0,0:0:0:0:
320,192,84157,1,0,0:0:0:0:
448,192,84211,1,0,0:0:0:0:
192,192,84292,1,0,0:0:0:0:
448,192,84373,1,0,0:0:0:0:
64,192,84373,1,0,0:0:0:0:
320,192,84427,1,0,0:0:0:0:
192,192,84481,1,0,0:0:0:0:
64,192,84535,1,0,0:0:0:0:
320,192,84616,1,0,0:0:0:0:
64,192,84697,1,0,0:0:0:0:
448,192,84697,1,0,0:0:0:0:
192,192,84751,1,0,0:0:0:0:
320,192,84805,1,0,0:0:0:0:
448,192,84859,1,0,0:0:0:0:
192,192,84940,1,0,0:0:0:0:
64,192,85021,1,0,0:0:0:0:
448,192,85021,1,0,0:0:0:0:
320,192,85076,1,0,0:0:0:0:
192,192,85130,1,0,0:0:0:0:
64,192,85184,1,0,0:0:0:0:
320,192,85265,1,0,0:0:0:0:
448,192,85346,1,0,0:0:0:0:
64,192,85346,1,0,0:0:0:0:
192,192,85400,1,0,0:0:0:0:
320,192,85454,1,0,0:0:0:0:
448,192,85508,1,0,0:0:0:0:
192,192,85589,1,0,0:0:0:0:
448,192,85670,1,0,0:0:0:0:
64,192,85670,1,0,0:0:0:0:
320,192,85724,1,0,0:0:0:0:
192,192,85778,1,0,0:0:0:0:
64,192,85832,1,0,0:0:0:0:
320,192,85913,1,0,0:0:0:0:
64,192,85994,1,0,0:0:0:0:
448,192,85994,1,0,0:0:0:0:
192,192,86049,1,0,0:0:0:0:
320,192,86103,1,0,0:0:0:0:
448,192,86157,1,0,0:0:0:0:
192,192,86238,1,0,0:0:0:0:
64,192,86319,1,0,0:0:0:0:
448,192,86319,1,0,0:0:0:0:
320,192,86373,1,0,0:0:0:0:
192,192,86427,1,0,0:0:0:0:
64,192,86481,1,0,0:0:0:0:
320,192,86562,1,0,0:0:0:0:
448,192,86643,1,0,0:0:0:0:
64,192,86643,1,0,0:0:0:0:
192,192,86697,1,0,0:0:0:0:
320,192,86751,1,0,0:0:0:0:
448,192,86805,1,0,0:0:0:0:
192,192,86886,1,0,0:0:0:0:
448,192,86967,1,0,0:0:0:0:
64,192,86967,1,0,0:0:0:0:
320,192,87021,1,0,0:0:0:0:
192,192,87076,1,0,0:0:0:0:
64,192,87130,1,0,0:0:0:0:
320,192,87211,1,0,0:0:0:0:
192,192,87292,1,0,0:0:0:0:
64,192,87292,1,0,0:0:0:0:
192,192,87454,1,0,0:0:0:0:
448,192,87535,1,0,0:0:0:0:
64,192,87616,128,0,87859:0:0:0:0:
320,192,87778,1,0,0:0:0:0:
192,192,87859,1,0,0:0:0:0:
64,192,87940,1,0,0:0:0:0:
448,192,87940,1,0,0:0:0:0:
320,192,88021,1,0,0:0:0:0:
192,192,88103,1,0,0:0:0:0:
448,192,88184,1,0,0:0:0:0:
192,192,88265,1,0,0:0:0:0:
64,192,88265,1,0,0:0:0:0:
320,192,88346,1,0,0:0:0:0:
448,192,88427,1,0,0:0:0:0:
192,192,88508,1,0,0:0:0:0:
448,192,88589,1,0,0:0:0:0:
64,192,88589,1,0,0:0:0:0:
320,192,88670,1,0,0:0:0:0:
192,192,88751,1,0,0:0:0:0:
448,192,88832,1,0,0:0:0:0:
192,192,88913,1,0,0:0:0:0:
64,192,88913,1,0,0:0:0:0:
320,192,88994,1,0,0:0:0:0:
448,192,89076,1,0,0:0:0:0:
192,192,89157,1,0,0:0:0:0:
64,192,89238,1,0,0:0:0:0:
448,192,89238,1,0,0:0:0:0:
320,192,89319,1,0,0:0:0:0:
192,192,89400,1,0,0:0:0:0:
448,192,89481,1,0,0:0:0:0:
64,192,89562,1,0,0:0:0:0:
192,192,89562,1,0,0:0:0:0:
320,192,89643,1,0,0:0:0:0:
448,192,89724,1,0,0:0:0:0:
192,192,89805,1,0,0:0:0:0:
64,192,89886,1,0,0:0:0:0:
448,192,89886,1,0,0:0:0:0:
320,192,89967,1,0,0:0:0:0:
192,192,90049,1,0,0:0:0:0:
448,192,90130,1,0,0:0:0:0:
192,192,90211,1,0,0:0:0:0:
64,192,90211,1,0,0:0:0:0:
320,192,90292,1,0,0:0:0:0:
448,192,90373,1,0,0:0:0:0:
192,192,90454,1,0,0:0:0:0:
64,192,90535,1,0,0:0:0:0:
448,192,90535,1,0,0:0:0:0:
192,192,90616,1,0,0:0:0:0:
320,192,90697,1,0,0:0:0:0:
64,192,90778,1,0,0:0:0:0:
320,192,90859,1,0,0:0:0:0:
448,192,90859,1,0,0:0:0:0:
192,192,90940,1,0,0:0:0:0:
64,192,91021,1,0,0:0:0:0:
320,192,91103,1,0,0:0:0:0:
64,192,91184,1,0,0:0:0:0:
448,192,91184,1,0,0:0:0:0:
192,192,91265,1,0,0:0:0:0:
320,192,91346,1,0,0:0:0:0:
64,192,91427,1,0,0:0:0:0:
448,192,91508,1,0,0:0:0:0:
320,192,91508,1,0,0:0:0:0:
192,192,91589,1,0,0:0:0:0:
64,192,91670,1,0,0:0:0:0:
320,192,91751,1,0,0:0:0:0:
448,192,91832,1,0,0:0:0:0:
64,192,91832,1,0,0:0:0:0:
192,192,91913,1,0,0:0:0:0:
320,192,91994,1,0,0:0:0:0:
64,192,92076,1,0,0:0:0:0:
448,192,92157,1,0,0:0:0:0:
320,192,92157,1,0,0:0:0:0:
192,192,92238,1,0,0:0:0:0:
64,192,92319,1,0,0:0:0:0:
320,192,92400,1,0,0:0:0:0:
448,192,92481,1,0,0:0:0:0:
64,192,92481,1,0,0:0:0:0:
192,192,92562,1,0,0:0:0:0:
320,192,92643,1,0,0:0:0:0:
64,192,92724,1,0,0:0:0:0:
448,192,92805,1,0,0:0:0:0:
320,192,92805,1,0,0:0:0:0:
192,192,92886,1,0,0:0:0:0:
64,192,92967,1,0,0:0:0:0:
320,192,93049,1,0,0:0:0:0:
448,192,93130,1,0,0:0:0:0:
64,192,93130,1,0,0:0:0:0:
192,192,93184,1,0,0:0:0:0:
320,192,93238,1,0,0:0:0:0:
448,192,93292,1,0,0:0:0:0:
192,192,93373,1,0,0:0:0:0:
64,192,93454,1,0,0:0:0:0:
448,192,93454,1,0,0:0:0:0:
320,192,93508,1,0,0:0:0:0:
192,192,93562,1,0,0:0:0:0:
64,192,93616,1,0,0:0:0:0:
320,192,93697,1,0,0:0:0:0:
448,192,93778,1,0,0:0:0:0:
64,192,93778,1,0,0:0:0:0:
192,192,93832,1,0,0:0:0:0:
320,192,93886,1,0,0:0:0:0:
448,192,93940,1,0,0:0:0:0:
192,192,94021,1,0,0:0:0:0:
64,192,94103,1,0,0:0:0:0:
448,192,94103,1,0,0:0:0:0:
320,192,94157,1,0,0:0:0:0:
192,192,94211,1,0,0:0:0:0:
64,192,94265,1,0,0:0:0:0:
320,192,94346,1,0,0:0:0:0:
64,192,94427,1,0,0:0:0:0:
448,192,94427,1,0,0:0:0:0:
192,192,94481,1,0,0:0:0:0:
320,192,94535,1,0,0:0:0:0:
448,192,94589,1,0,0:0:0:0:
192,192,94670,1,0,0:0:0:0:
448,192,94751,1,0,0:0:0:0:
64,192,94751,1,0,0:0:0:0:
320,192,94805,1,0,0:0:0:0:
192,192,94859,1,0,0:0:0:0:
64,192,94913,1,0,0:0:0:0:
320,192,94994,1,0,0:0:0:0:
448,192,95076,1,0,0:0:0:0:
64,192,95076,1,0,0:0:0:0:
192,192,95130,1,0,0:0:0:0:
320,192,95184,1,0,0:0:0:0:
448,192,95238,1,0,0:0:0:0:
192,192,95319,1,0,0:0:0:0:
64,192,95400,1,0,0:0:0:0:
448,192,95400,1,0,0:0:0:0:
320,192,95454,1,0,0:0:0:0:
192,192,95508,1,0,0:0:0:0:
64,192,95562,1,0,0:0:0:0:
320,192,95643,1,0,0:0:0:0:
64,192,95724,1,0,0:0:0:0:
448,192,95724,1,0,0:0:0:0:
192,192,95778,1,0,0:0:0:0:
320,192,95832,1,0,0:0:0:0:
448,192,95886,1,0,0:0:0:0:
192,192,95967,1,0,0:0:0:0:
448,192,96049,1,0,0:0:0:0:
64,192,96049,1,0,0:0:0:0:
320,192,96103,1,0,0:0:0:0:
192,192,96157,1,0,0:0:0:0:
64,192,96211,1,0,0:0:0:0:
320,192,96292,1,0,0:0:0:0:
448,192,96373,1,0,0:0:0:0:
64,192,96373,1,0,0:0:0:0:
192,192,96427,1,0,0:0:0:0:
320,192,96481,1,0,0:0:0:0:
448,192,96535,1,0,0:0:0:0:
192,192,96616,1,0,0:0:0:0:
64,192,96697,1,0,0:0:0:0:
448,192,96697,1,0,0:0:0:0:
320,192,96751,1,0,0:0:0:0:
192,192,96805,1,0,0:0:0:0:
64,192,96859,1,0,0:0:0:0:
320,192,96940,1,0,0:0:0:0:
64,192,97021,1,0,0:0:0:0:
448,192,97021,1,0,0:0:0:0:
192,192,97076,1,0,0:0:0:0:
320,192,97130,1,0,0:0:0:0:
448,192,97184,1,0,0:0:0:0:
192,192,97265,1,0,0:0:0:0:
448,192,97346,1,0,0:0:0:0:
64,192,97346,1,0,0:0:0:0:
320,192,97400,1,0,0:0:0:0:
192,192,97454,1,0,0:0:0:0:
64,192,97508,1,0,0:0:0:0:
320,192,97589,1,0,0:0:0:0:
64,192,97670,1,0,0:0:0:0:
192,192,97670,1,0,0:0:0:0:
448,192,97751,1,0,0:0:0:0:
192,192,97832,1,0,0:0:0:0:
320,192,97913,1,0,0:0:0:0:
64,192,97994,1,0,0:0:0:0:
320,192,98076,1,0,0:0:0:0:
192,192,98157,1,0,0:0:0:0:
448,192,98238,1,0,0:0:0:0:
64,192,98319,1,0,0:0:0:0:
192,192,98319,1,0,0:0:0:0:
320,192,98400,1,0,0:0:0:0:
448,192,98400,1,0,0:0:0:0:
64,192,98481,1,0,0:0:0:0:
320,192,98562,1,0,0:0:0:0:
448,192,98562,1,0,0:0:0:0:
64,192,98643,1,0,0:0:0:0:
192,192,98643,1,0,0:0:0:0:
320,192,98724,1,0,0:0:0:0:
64,192,98805,1,0,0:0:0:0:
192,192,98805,1,0,0:0:0:0:
320,192,98886,1,0,0:0:0:0:
448,192,98886,1,0,0:0:0:0:
192,192,98967,1,0,0:0:0:0:
320,192,99049,1,0,0:0:0:0:
448,192,99049,1,0,0:0:0:0:
64,192,99130,1,0,0:0:0:0:
192,192,99130,1,0,0:0:0:0:
448,192,99211,1,0,0:0:0:0:
64,192,99292,1,0,0:0:0:0:
192,192,99292,1,0,0:0:0:0:
320,192,99373,1,0,0:0:0:0:
448,192,99373,1,0,0:0:0:0:
64,192,99454,1,0,0:0:0:0:
448,192,99535,1,0,0:0:0:0:
320,192,99535,1,0,0:0:0:0:
64,192,99616,1,0,0:0:0:0:
192,192,99616,1,0,0:0:0:0:
320,192,99697,1,0,0:0:0:0:
448,192,99697,1,0,0:0:0:0:
192,192,99778,1,0,0:0:0:0:
64,192,99859,1,0,0:0:0:0:
320,192,99859,1,0,0:0:0:0:
192,192,99940,1,0,0:0:0:0:
448,192,99940,1,0,0:0:0:0:
320,192,100021,1,0,0:0:0:0:
64,192,100103,1,0,0:0:0:0:
192,192,100103,1,0,0:0:0:0:
320,192,100184,1,0,0:0:0:0:
448,192,100184,1,0,0:0:0:0:
192,192,100265,1,0,0:0:0:0:
64,192,100346,1,0,0:0:0:0:
320,192,100346,1,0,0:0:0:0:
192,192,100427,1,0,0:0:0:0:
448,192,100427,1,0,0:0:0:0:
320,192,100508,1,0,0:0:0:0:
192,192,100589,1,0,0:0:0:0:
64,192,100589,1,0,0:0:0:0:
448,192,100670,1,0,0:0:0:0:
320,192,100670,1,0,0:0:0:0:
64,192,100751,1,0,0:0:0:0:
192,192,100832,1,0,0:0:0:0:
448,192,100832,1,0,0:0:0:0:
64,192,100913,1,0,0:0:0:0:
320,192,100913,1,0,0:0:0:0:
192,192,100994,1,0,0:0:0:0:
448,192,100994,1,0,0:0:0:0:
64,192,101076,1,0,0:0:0:0:
320,192,101157,1,0,0:0:0:0:
448,192,101157,1,0,0:0:0:0:
64,192,101238,1,0,0:0:0:0:
192,192,101238,1,0,0:0:0:0:
448,192,101319,1,0,0:0:0:0:
64,192,101400,1,0,0:0:0:0:
192,192,101400,1,0,0:0:0:0:
320,192,101481,1,0,0:0:0:0:
448,192,101481,1,0,0:0:0:0:
192,192,101562,1,0,0:0:0:0:
320,192,101643,1,0,0:0:0:0:
448,192,101643,1,0,0:0:0:0:
64,192,101724,1,0,0:0:0:0:
192,192,101724,1,0,0:0:0:0:
320,192,101805,1,0,0:0:0:0:
64,192,101886,1,0,0:0:0:0:
192,192,101886,1,0,0:0:0:0:
320,192,101967,1,0,0:0:0:0:
448,192,101967,1,0,0:0:0:0:
64,192,102049,1,0,0:0:0:0:
448,192,102130,1,0,0:0:0:0:
320,192,102130,1,0,0:0:0:0:
64,192,102211,1,0,0:0:0:0:
192,192,102211,1,0,0:0:0:0:
448,192,102292,1,0,0:0:0:0:
320,192,102292,1,0,0:0:0:0:
64,192,102373,1,0,0:0:0:0:
192,192,102454,1,0,0:0:0:0:
320,192,102454,1,0,0:0:0:0:
448,192,102535,1,0,0:0:0:0:
64,192,102535,1,0,0:0:0:0:
320,192,102616,1,0,0:0:0:0:
192,192,102697,1,0,0:0:0:0:
64,192,102697,1,0,0:0:0:0:
448,192,102778,1,0,0:0:0:0:
320,192,102778,1,0,0:0:0:0:
64,192,102859,1,0,0:0:0:0:
320,192,102940,1,0,0:0:0:0:
192,192,102940,1,0,0:0:0:0:
448,192,103021,1,0,0:0:0:0:
64,192,103021,1,0,0:0:0:0:
192,192,103103,1,0,0:0:0:0:
448,192,103184,1,0,0:0:0:0:
320,192,103184,1,0,0:0:0:0:
192,192,103265,1,0,0:0:0:0:
64,192,103265,1,0,0:0:0:0:
320,192,103346,1,0,0:0:0:0:
64,192,103427,1,0,0:0:0:0:
192,192,103427,1,0,0:0:0:0:
320,192,103508,1,0,0:0:0:0:
448,192,103508,1,0,0:0:0:0:
64,192,103589,1,0,0:0:0:0:
192,192,103589,1,0,0:0:0:0:
448,192,103670,1,0,0:0:0:0:
64,192,103751,1,0,0:0:0:0:
192,192,103751,1,0,0:0:0:0:
320,192,103832,1,0,0:0:0:0:
448,192,103832,1,0,0:0:0:0:
192,192,103913,1,0,0:0:0:0:
320,192,103994,1,0,0:0:0:0:
448,192,103994,1,0,0:0:0:0:
64,192,104076,1,0,0:0:0:0:
192,192,104076,1,0,0:0:0:0:
320,192,104157,1,0,0:0:0:0:
64,192,104238,1,0,0:0:0:0:
192,192,104238,1,0,0:0:0:0:
320,192,104319,1,0,0:0:0:0:
448,192,104319,1,0,0:0:0:0:
64,192,104400,1,0,0:0:0:0:
320,192,104481,1,0,0:0:0:0:
448,192,104481,1,0,0:0:0:0:
64,192,104562,1,0,0:0:0:0:
192,192,104562,1,0,0:0:0:0:
448,192,104643,1,0,0:0:0:0:
64,192,104724,1,0,0:0:0:0:
192,192,104724,1,0,0:0:0:0:
320,192,104805,1,0,0:0:0:0:
448,192,104805,1,0,0:0:0:0:
64,192,104886,1,0,0:0:0:0:
192,192,104886,1,0,0:0:0:0:
320,192,104967,1,0,0:0:0:0:
448,192,105049,1,0,0:0:0:0:
192,192,105049,1,0,0:0:0:0:
320,192,105130,1,0,0:0:0:0:
64,192,105130,1,0,0:0:0:0:
192,192,105211,1,0,0:0:0:0:
448,192,105292,1,0,0:0:0:0:
320,192,105292,1,0,0:0:0:0:
192,192,105373,1,0,0:0:0:0:
64,192,105373,1,0,0:0:0:0:
320,192,105454,1,0,0:0:0:0:
448,192,105535,1,0,0:0:0:0:
192,192,105535,1,0,0:0:0:0:
320,192,105616,1,0,0:0:0:0:
64,192,105616,1,0,0:0:0:0:
192,192,105697,1,0,0:0:0:0:
448,192,105778,1,0,0:0:0:0:
320,192,105778,1,0,0:0:0:0:
192,192,105859,1,0,0:0:0:0:
64,192,105859,1,0,0:0:0:0:
448,192,105940,1,0,0:0:0:0:
320,192,106021,1,0,0:0:0:0:
64,192,106021,1,0,0:0:0:0:
448,192,106103,1,0,0:0:0:0:
192,192,106103,1,0,0:0:0:0:
320,192,106184,1,0,0:0:0:0:
64,192,106184,1,0,0:0:0:0:
448,192,106265,1,0,0:0:0:0:
64,192,106346,1,0,0:0:0:0:
192,192,106346,1,0,0:0:0:0:
320,192,106427,1,0,0:0:0:0:
448,192,106427,1,0,0:0:0:0:
64,192,106508,1,0,0:0:0:0:
320,192,106589,1,0,0:0:0:0:
448,192,106589,1,0,0:0:0:0:
64,192,106670,1,0,0:0:0:0:
192,192,106670,1,0,0:0:0:0:
320,192,106751,1,0,0:0:0:0:
64,192,106832,1,0,0:0:0:0:
192,192,106832,1,0,0:0:0:0:
320,192,106913,1,0,0:0:0:0:
448,192,106913,1,0,0:0:0:0:
192,192,106994,1,0,0:0:0:0:
320,192,107076,1,0,0:0:0:0:
448,192,107076,1,0,0:0:0:0:
64,192,107157,1,0,0:0:0:0:
192,192,107157,1,0,0:0:0:0:
448,192,107238,1,0,0:0:0:0:
64,192,107319,1,0,0:0:0:0:
192,192,107319,1,0,0:0:0:0:
320,192,107400,1,0,0:0:0:0:
448,192,107400,1,0,0:0:0:0:
64,192,107481,1,0,0:0:0:0:
192,192,107481,1,0,0:0:0:0:
448,192,107562,1,0,0:0:0:0:
320,192,107643,1,0,0:0:0:0:
192,192,107643,1,0,0:0:0:0:
448,192,107724,1,0,0:0:0:0:
64,192,107724,1,0,0:0:0:0:
192,192,107805,1,0,0:0:0:0:
448,192,107886,1,0,0:0:0:0:
320,192,107886,1,0,0:0:0:0:
192,192,107967,1,0,0:0:0:0:
64,192,107967,1,0,0:0:0:0:
448,192,108049,1,0,0:0:0:0:
320,192,108130,1,0,0:0:0:0:
192,192,108130,1,0,0:0:0:0:
64,192,108211,1,0,0:0:0:0:
448,192,108211,1,0,0:0:0:0:
320,192,108292,1,0,0:0:0:0:
192,192,108292,1,0,0:0:0:0:
64,192,108373,1,0,0:0:0:0:
320,192,108454,1,0,0:0:0:0:
192,192,108535,1,0,0:0:0:0:
448,192,108616,1,0,0:0:0:0:
64,192,108697,1,0,0:0:0:0:
192,192,108697,1,0,0:0:0:0:
320,192,108778,1,0,0:0:0:0:
448,192,108778,1,0,0:0:0:0:
64,192,108859,1,0,0:0:0:0:
320,192,108940,1,0,0:0:0:0:
448,192,108940,1,0,0:0:0:0:
64,192,109021,1,0,0:0:0:0:
192,192,109021,1,0,0:0:0:0:
320,192,109103,1,0,0:0:0:0:
64,192,109184,1,0,0:0:0:0:
192,192,109184,1,0,0:0:0:0:
320,192,109265,1,0,0:0:0:0:
448,192,109265,1,0,0:0:0:0:
192,192,109346,1,0,0:0:0:0:
320,192,109427,1,0,0:0:0:0:
448,192,109427,1,0,0:0:0:0:
64,192,109508,1,0,0:0:0:0:
192,192,109508,1,0,0:0:0:0:
448,192,109589,1,0,0:0:0:0:
64,192,109670,1,0,0:0:0:0:
192,192,109670,1,0,0:0:0:0:
320,192,109751,1,0,0:0:0:0:
448,192,109751,1,0,0:0:0:0:
64,192,109832,1,0,0:0:0:0:
320,192,109913,1,0,0:0:0:0:
448,192,109913,1,0,0:0:0:0:
64,192,109994,1,0,0:0:0:0:
192,192,109994,1,0,0:0:0:0:
320,192,110076,1,0,0:0:0:0:
448,192,110076,1,0,0:0:0:0:
64,192,110157,1,0,0:0:0:0:
192,192,110238,1,0,0:0:0:0:
448,192,110238,1,0,0:0:0:0:
64,192,110319,1,0,0:0:0:0:
320,192,110319,1,0,0:0:0:0:
192,192,110400,1,0,0:0:0:0:
448,192,110481,1,0,0:0:0:0:
320,192,110481,1,0,0:0:0:0:
64,192,110562,1,0,0:0:0:0:
192,192,110562,1,0,0:0:0:0:
448,192,110643,1,0,0:0:0:0:
64,192,110724,1,0,0:0:0:0:
320,192,110724,1,0,0:0:0:0:
192,192,110805,1,0,0:0:0:0:
448,192,110805,1,0,0:0:0:0:
320,192,110886,1,0,0:0:0:0:
64,192,110967,1,0,0:0:0:0:
192,192,110967,1,0,0:0:0:0:
320,192,111049,1,0,0:0:0:0:
448,192,111049,1,0,0:0:0:0:
64,192,111130,1,0,0:0:0:0:
192,192,111211,1,0,0:0:0:0:
448,192,111211,1,0,0:0:0:0:
320,192,111292,1,0,0:0:0:0:
64,192,111292,1,0,0:0:0:0:
448,192,111373,1,0,0:0:0:0:
192,192,111373,1,0,0:0:0:0:
320,192,111454,1,0,0:0:0:0:
192,192,111535,1,0,0:0:0:0:
64,192,111535,1,0,0:0:0:0:
448,192,111616,1,0,0:0:0:0:
320,192,111616,1,0,0:0:0:0:
192,192,111697,1,0,0:0:0:0:
448,192,111778,1,0,0:0:0:0:
320,192,111778,1,0,0:0:0:0:
192,192,111859,1,0,0:0:0:0:
64,192,111859,1,0,0:0:0:0:
320,192,111940,1,0,0:0:0:0:
192,192,112021,1,0,0:0:0:0:
64,192,112021,1,0,0:0:0:0:
448,192,112103,1,0,0:0:0:0:
320,192,112103,1,0,0:0:0:0:
64,192,112184,1,0,0:0:0:0:
448,192,112265,1,0,0:0:0:0:
320,192,112265,1,0,0:0:0:0:
192,192,112346,1,0,0:0:0:0:
64,192,112346,1,0,0:0:0:0:
448,192,112427,1,0,0:0:0:0:
192,192,112508,1,0,0:0:0:0:
64,192,112508,1,0,0:0:0:0:
448,192,112589,1,0,0:0:0:0:
320,192,112589,1,0,0:0:0:0:
192,192,112670,1,0,0:0:0:0:
64,192,112670,1,0,0:0:0:0:
320,192,112751,1,0,0:0:0:0:
192,192,112832,1,0,0:0:0:0:
448,192,112832,1,0,0:0:0:0:
320,192,112913,1,0,0:0:0:0:
64,192,112913,1,0,0:0:0:0:
448,192,112994,1,0,0:0:0:0:
192,192,113076,1,0,0:0:0:0:
64,192,113076,1,0,0:0:0:0:
320,192,113157,1,0,0:0:0:0:
448,192,113157,1,0,0:0:0:0:
192,192,113238,1,0,0:0:0:0:
64,192,113319,1,0,0:0:0:0:
320,192,113319,1,0,0:0:0:0:
192,192,113400,1,0,0:0:0:0:
448,192,113400,1,0,0:0:0:0:
64,192,113481,1,0,0:0:0:0:
448,192,113562,1,0,0:0:0:0:
320,192,113562,1,0,0:0:0:0:
192,192,113643,1,0,0:0:0:0:
64,192,113643,1,0,0:0:0:0:
448,192,113724,1,0,0:0:0:0:
64,192,113805,1,0,0:0:0:0:
192,192,113805,1,0,0:0:0:0:
320,192,113886,1,0,0:0:0:0:
448,192,113886,1,0,0:0:0:0:
64,192,113967,1,0,0:0:0:0:
192,192,113967,1,0,0:0:0:0:
448,192,114049,1,0,0:0:0:0:
64,192,114130,1,0,0:0:0:0:
192,192,114130,1,0,0:0:0:0:
320,192,114211,1,0,0:0:0:0:
448,192,114211,1,0,0:0:0:0:
192,192,114292,1,0,0:0:0:0:
320,192,114373,1,0,0:0:0:0:
448,192,114373,1,0,0:0:0:0:
64,192,114454,1,0,0:0:0:0:
192,192,114454,1,0,0:0:0:0:
320,192,114535,1,0,0:0:0:0:
64,192,114616,1,0,0:0:0:0:
192,192,114616,1,0,0:0:0:0:
320,192,114697,1,0,0:0:0:0:
448,192,114697,1,0,0:0:0:0:
64,192,114778,1,0,0:0:0:0:
320,192,114859,1,0,0:0:0:0:
448,192,114859,1,0,0:0:0:0:
64,192,114940,1,0,0:0:0:0:
192,192,114940,1,0,0:0:0:0:
448,192,115021,1,0,0:0:0:0:
64,192,115103,1,0,0:0:0:0:
192,192,115103,1,0,0:0:0:0:
320,192,115184,1,0,0:0:0:0:
448,192,115184,1,0,0:0:0:0:
64,192,115265,1,0,0:0:0:0:
192,192,115265,1,0,0:0:0:0:
448,192,115346,1,0,0:0:0:0:
64,192,115427,1,0,0:0:0:0:
320,192,115427,1,0,0:0:0:0:
448,192,115508,1,0,0:0:0:0:
192,192,115508,1,0,0:0:0:0:
320,192,115589,1,0,0:0:0:0:
64,192,115670,1,0,0:0:0:0:
192,192,115670,1,0,0:0:0:0:
320,192,115751,1,0,0:0:0:0:
448,192,115751,1,0,0:0:0:0:
64,192,115832,1,0,0:0:0:0:
448,192,115913,1,0,0:0:0:0:
192,192,115913,1,0,0:0:0:0:
64,192,115994,1,0,0:0:0:0:
320,192,115994,1,0,0:0:0:0:
192,192,116076,1,0,0:0:0:0:
320,192,116157,1,0,0:0:0:0:
448,192,116157,1,0,0:0:0:0:
192,192,116238,1,0,0:0:0:0:
64,192,116238,1,0,0:0:0:0:
448,192,116319,1,0,0:0:0:0:
64,192,116400,1,0,0:0:0:0:
320,192,116400,1,0,0:0:0:0:
192,192,116481,1,0,0:0:0:0:
448,192,116481,1,0,0:0:0:0:
64,192,116562,1,0,0:0:0:0:
320,192,116562,1,0,0:0:0:0:
192,192,116643,1,0,0:0:0:0:
320,192,116724,1,0,0:0:0:0:
448,192,116724,1,0,0:0:0:0:
64,192,116805,1,0,0:0:0:0:
192,192,116805,1,0,0:0:0:0:
448,192,116886,1,0,0:0:0:0:
64,192,116967,1,0,0:0:0:0:
192,192,116967,1,0,0:0:0:0:
320,192,117049,1,0,0:0:0:0:
448,192,117049,1,0,0:0:0:0:
192,192,117130,1,0,0:0:0:0:
320,192,117211,1,0,0:0:0:0:
448,192,117211,1,0,0:0:0:0:
192,192,117292,1,0,0:0:0:0:
64,192,117292,1,0,0:0:0:0:
320,192,117373,1,0,0:0:0:0:
64,192,117454,1,0,0:0:0:0:
192,192,117454,1,0,0:0:0:0:
320,192,117535,1,0,0:0:0:0:
448,192,117535,1,0,0:0:0:0:
64,192,117616,1,0,0:0:0:0:
320,192,117697,1,0,0:0:0:0:
448,192,117697,1,0,0:0:0:0:
64,192,117778,1,0,0:0:0:0:
192,192,117778,1,0,0:0:0:0:
320,192,117859,1,0,0:0:0:0:
448,192,117859,1,0,0:0:0:0:
192,192,117940,1,0,0:0:0:0:
64,192,118021,1,0,0:0:0:0:
320,192,118021,1,0,0:0:0:0:
192,192,118103,1,0,0:0:0:0:
448,192,118103,1,0,0:0:0:0:
64,192,118184,1,0,0:0:0:0:
320,192,118265,1,0,0:0:0:0:
448,192,118265,1,0,0:0:0:0:
192,192,118346,1,0,0:0:0:0:
64,192,118346,1,0,0:0:0:0:
448,192,118427,1,0,0:0:0:0:
64,192,118508,1,0,0:0:0:0:
320,192,118508,1,0,0:0:0:0:
192,192,118589,1,0,0:0:0:0:
448,192,118589,1,0,0:0:0:0:
64,192,118670,1,0,0:0:0:0:
320,192,118670,1,0,0:0:0:0:
64,192,119076,1,0,0:0:0:0:
448,192,119076,1,0,0:0:0:0:
320,192,119157,1,0,0:0:0:0:
192,192,119238,1,0,0:0:0:0:
448,192,119319,1,0,0:0:0:0:
192,192,119400,1,0,0:0:0:0:
64,192,119400,1,0,0:0:0:0:
448,192,119481,1,0,0:0:0:0:
192,192,119562,1,0,0:0:0:0:
320,192,119643,1,0,0:0:0:0:
64,192,119724,1,0,0:0:0:0:
320,192,119805,1,0,0:0:0:0:
192,192,119886,1,0,0:0:0:0:
64,192,119967,1,0,0:0:0:0:
320,192,120049,1,0,0:0:0:0:
448,192,120049,1,0,0:0:0:0:
64,192,120130,1,0,0:0:0:0:
192,192,120211,1,0,0:0:0:0:
320,192,120292,1,0,0:0:0:0:
64,192,120373,1,0,0:0:0:0:
448,192,120373,1,0,0:0:0:0:
192,192,120454,1,0,0:0:0:0:
320,192,120535,1,0,0:0:0:0:
448,192,120535,1,0,0:0:0:0:
64,192,120616,1,0,0:0:0:0:
320,192,120697,1,0,0:0:0:0:
192,192,120778,1,0,0:0:0:0:
448,192,120859,1,0,0:0:0:0:
64,192,120940,1,0,0:0:0:0:
320,192,121021,1,0,0:0:0:0:
448,192,121021,1,0,0:0:0:0:
192,192,121103,1,0,0:0:0:0:
320,192,121184,1,0,0:0:0:0:
64,192,121265,1,0,0:0:0:0:
192,192,121346,1,0,0:0:0:0:
320,192,121427,1,0,0:0:0:0:
64,192,121508,1,0,0:0:0:0:
448,192,121508,1,0,0:0:0:0:
192,192,121589,1,0,0:0:0:0:
448,192,121670,1,0,0:0:0:0:
320,192,121670,1,0,0:0:0:0:
64,192,121751,1,0,0:0:0:0:
320,192,121832,1,0,0:0:0:0:
192,192,121913,1,0,0:0:0:0:
64,192,121994,1,0,0:0:0:0:
448,192,121994,1,0,0:0:0:0:
320,192,122076,1,0,0:0:0:0:
64,192,122157,1,0,0:0:0:0:
320,192,122238,1,0,0:0:0:0:
192,192,122319,1,0,0:0:0:0:
448,192,122400,1,0,0:0:0:0:
192,192,122481,1,0,0:0:0:0:
320,192,122562,1,0,0:0:0:0:
64,192,122643,1,0,0:0:0:0:
448,192,122643,1,0,0:0:0:0:
192,192,122724,1,0,0:0:0:0:
448,192,122805,1,0,0:0:0:0:
320,192,122886,1,0,0:0:0:0:
64,192,122967,1,0,0:0:0:0:
192,192,122967,1,0,0:0:0:0:
448,192,123049,1,0,0:0:0:0:
64,192,123130,1,0,0:0:0:0:
320,192,123130,1,0,0:0:0:0:
192,192,123211,1,0,0:0:0:0:
448,192,123292,1,0,0:0:0:0:
64,192,123373,1,0,0:0:0:0:
320,192,123454,1,0,0:0:0:0:
192,192,123535,1,0,0:0:0:0:
64,192,123616,1,0,0:0:0:0:
448,192,123616,1,0,0:0:0:0:
320,192,123697,1,0,0:0:0:0:
64,192,123778,1,0,0:0:0:0:
320,192,123859,1,0,0:0:0:0:
192,192,123940,1,0,0:0:0:0:
64,192,124021,1,0,0:0:0:0:
320,192,124103,1,0,0:0:0:0:
448,192,124103,1,0,0:0:0:0:
64,192,124184,1,0,0:0:0:0:
192,192,124184,1,0,0:0:0:0:
320,192,124265,1,0,0:0:0:0:
448,192,124265,1,0,0:0:0:0:
192,192,124346,1,0,0:0:0:0:
64,192,124427,1,0,0:0:0:0:
448,192,124508,1,0,0:0:0:0:
64,192,124589,1,0,0:0:0:0:
192,192,124589,1,0,0:0:0:0:
448,192,124670,1,0,0:0:0:0:
64,192,124751,1,0,0:0:0:0:
320,192,124751,1,0,0:0:0:0:
192,192,124832,1,0,0:0:0:0:
320,192,124913,1,0,0:0:0:0:
448,192,124913,1,0,0:0:0:0:
64,192,124994,1,0,0:0:0:0:
192,192,124994,1,0,0:0:0:0:
320,192,125076,1,0,0:0:0:0:
448,192,125076,1,0,0:0:0:0:
192,192,125157,1,0,0:0:0:0:
64,192,125238,1,0,0:0:0:0:
448,192,125238,1,0,0:0:0:0:
320,192,125319,1,0,0:0:0:0:
64,192,125400,1,0,0:0:0:0:
192,192,125440,1,0,0:0:0:0:
320,192,125481,1,0,0:0:0:0:
448,192,125521,1,0,0:0:0:0:
64,192,125562,1,0,0:0:0:0:
192,192,125562,1,0,0:0:0:0:
320,192,125643,1,0,0:0:0:0:
64,192,125724,1,0,0:0:0:0:
448,192,125724,1,0,0:0:0:0:
192,192,125805,1,0,0:0:0:0:
320,192,125886,1,0,0:0:0:0:
448,192,125886,1,0,0:0:0:0:
64,192,125967,1,0,0:0:0:0:
192,192,125967,1,0,0:0:0:0:
320,192,126049,1,0,0:0:0:0:
448,192,126049,1,0,0:0:0:0:
64,192,126130,1,0,0:0:0:0:
192,192,126211,1,0,0:0:0:0:
448,192,126211,1,0,0:0:0:0:
320,192,126292,1,0,0:0:0:0:
64,192,126373,1,0,0:0:0:0:
192,192,126373,1,0,0:0:0:0:
320,192,126454,1,0,0:0:0:0:
448,192,126454,1,0,0:0:0:0:
64,192,126535,1,0,0:0:0:0:
192,192,126535,1,0,0:0:0:0:
320,192,126616,1,0,0:0:0:0:
64,192,126697,1,0,0:0:0:0:
448,192,126697,1,0,0:0:0:0:
192,192,126778,1,0,0:0:0:0:
320,192,126778,1,0,0:0:0:0:
64,192,126859,1,0,0:0:0:0:
448,192,126859,1,0,0:0:0:0:
192,192,126940,1,0,0:0:0:0:
448,192,127021,1,0,0:0:0:0:
320,192,127103,1,0,0:0:0:0:
64,192,127184,1,0,0:0:0:0:
192,192,127184,1,0,0:0:0:0:
448,192,127265,1,0,0:0:0:0:
64,192,127346,1,0,0:0:0:0:
320,192,127346,1,0,0:0:0:0:
192,192,127427,1,0,0:0:0:0:
320,192,127508,1,0,0:0:0:0:
448,192,127508,1,0,0:0:0:0:
64,192,127589,1,0,0:0:0:0:
192,192,127589,1,0,0:0:0:0:
320,192,127670,1,0,0:0:0:0:
448,192,127670,1,0,0:0:0:0:
192,192,127751,1,0,0:0:0:0:
64,192,127832,1,0,0:0:0:0:
448,192,127832,1,0,0:0:0:0:
192,192,127913,1,0,0:0:0:0:
448,192,127994,1,0,0:0:0:0:
320,192,128035,1,0,0:0:0:0:
192,192,128076,1,0,0:0:0:0:
64,192,128116,1,0,0:0:0:0:
320,192,128157,1,0,0:0:0:0:
448,192,128157,1,0,0:0:0:0:
64,192,128238,1,0,0:0:0:0:
192,192,128319,1,0,0:0:0:0:
448,192,128319,1,0,0:0:0:0:
320,192,128400,1,0,0:0:0:0:
64,192,128481,1,0,0:0:0:0:
192,192,128481,1,0,0:0:0:0:
320,192,128562,1,0,0:0:0:0:
448,192,128562,1,0,0:0:0:0:
64,192,128643,1,0,0:0:0:0:
192,192,128643,1,0,0:0:0:0:
320,192,128724,1,0,0:0:0:0:
64,192,128805,1,0,0:0:0:0:
448,192,128805,1,0,0:0:0:0:
192,192,128886,1,0,0:0:0:0:
320,192,128967,1,0,0:0:0:0:
448,192,128967,1,0,0:0:0:0:
64,192,129049,1,0,0:0:0:0:
192,192,129049,1,0,0:0:0:0:
64,192,129454,1,0,0:0:0:0:
448,192,129454,1,0,0:0:0:0:
192,192,129535,1,0,0:0:0:0:
320,192,129535,1,0,0:0:0:0:
64,192,129616,1,0,0:0:0:0:
448,192,129616,1,0,0:0:0:0:
320,192,129697,1,0,0:0:0:0:
192,192,129778,1,0,0:0:0:0:
64,192,129778,1,0,0:0:0:0:
448,192,129859,1,0,0:0:0:0:
320,192,129859,1,0,0:0:0:0:
64,192,129940,1,0,0:0:0:0:
192,192,129940,1,0,0:0:0:0:
448,192,130021,1,0,0:0:0:0:
320,192,130103,1,0,0:0:0:0:
192,192,130103,1,0,0:0:0:0:
448,192,130184,1,0,0:0:0:0:
64,192,130184,1,0,0:0:0:0:
320,192,130265,1,0,0:0:0:0:
192,192,130265,1,0,0:0:0:0:
64,192,130346,1,0,0:0:0:0:
320,192,130427,1,0,0:0:0:0:
448,192,130427,1,0,0:0:0:0:
192,192,130508,1,0,0:0:0:0:
64,192,130508,1,0,0:0:0:0:
320,192,130589,1,0,0:0:0:0:
448,192,130589,1,0,0:0:0:0:
192,192,130670,1,0,0:0:0:0:
320,192,130751,1,0,0:0:0:0:
64,192,130751,1,0,0:0:0:0:
448,192,130832,1,0,0:0:0:0:
192,192,130832,1,0,0:0:0:0:
320,192,130913,1,0,0:0:0:0:
64,192,130913,1,0,0:0:0:0:
192,192,130994,1,0,0:0:0:0:
320,192,131076,1,0,0:0:0:0:
448,192,131076,1,0,0:0:0:0:
64,192,131157,1,0,0:0:0:0:
192,192,131157,1,0,0:0:0:0:
320,192,131238,1,0,0:0:0:0:
448,192,131238,1,0,0:0:0:0:
64,192,131319,1,0,0:0:0:0:
320,192,131400,1,0,0:0:0:0:
192,192,131400,1,0,0:0:0:0:
64,192,131481,1,0,0:0:0:0:
448,192,131481,1,0,0:0:0:0:
192,192,131562,1,0,0:0:0:0:
320,192,131562,1,0,0:0:0:0:
448,192,131643,1,0,0:0:0:0:
64,192,131724,1,0,0:0:0:0:
192,192,131724,1,0,0:0:0:0:
320,192,131805,1,0,0:0:0:0:
448,192,131805,1,0,0:0:0:0:
64,192,131886,1,0,0:0:0:0:
192,192,131886,1,0,0:0:0:0:
320,192,131967,1,0,0:0:0:0:
64,192,132049,1,0,0:0:0:0:
448,192,132049,1,0,0:0:0:0:
192,192,132130,1,0,0:0:0:0:
320,192,132130,1,0,0:0:0:0:
64,192,132211,1,0,0:0:0:0:
448,192,132211,1,0,0:0:0:0:
320,192,132292,1,0,0:0:0:0:
64,192,132373,1,0,0:0:0:0:
192,192,132373,1,0,0:0:0:0:
448,192,132454,1,0,0:0:0:0:
320,192,132454,1,0,0:0:0:0:
64,192,132535,1,0,0:0:0:0:
192,192,132535,1,0,0:0:0:0:
448,192,132616,1,0,0:0:0:0:
320,192,132697,1,0,0:0:0:0:
192,192,132697,1,0,0:0:0:0:
448,192,132778,1,0,0:0:0:0:
64,192,132778,1,0,0:0:0:0:
320,192,132859,1,0,0:0:0:0:
192,192,132859,1,0,0:0:0:0:
64,192,132940,1,0,0:0:0:0:
448,192,133021,1,0,0:0:0:0:
320,192,133021,1,0,0:0:0:0:
192,192,133103,1,0,0:0:0:0:
64,192,133103,1,0,0:0:0:0:
320,192,133184,1,0,0:0:0:0:
448,192,133184,1,0,0:0:0:0:
192,192,133265,1,0,0:0:0:0:
64,192,133346,1,0,0:0:0:0:
320,192,133346,1,0,0:0:0:0:
448,192,133427,1,0,0:0:0:0:
192,192,133427,1,0,0:0:0:0:
320,192,133508,1,0,0:0:0:0:
64,192,133508,1,0,0:0:0:0:
192,192,133589,1,0,0:0:0:0:
448,192,133670,1,0,0:0:0:0:
320,192,133670,1,0,0:0:0:0:
64,192,133751,1,0,0:0:0:0:
192,192,133751,1,0,0:0:0:0:
448,192,133832,1,0,0:0:0:0:
320,192,133832,1,0,0:0:0:0:
64,192,133913,1,0,0:0:0:0:
320,192,133994,1,0,0:0:0:0:
192,192,133994,1,0,0:0:0:0:
448,192,134076,1,0,0:0:0:0:
64,192,134076,1,0,0:0:0:0:
320,192,134157,1,0,0:0:0:0:
192,192,134157,1,0,0:0:0:0:
448,192,134238,1,0,0:0:0:0:
64,192,134319,1,0,0:0:0:0:
192,192,134319,1,0,0:0:0:0:
448,192,134400,1,0,0:0:0:0:
320,192,134400,1,0,0:0:0:0:
192,192,134481,1,0,0:0:0:0:
64,192,134481,1,0,0:0:0:0:
320,192,134562,1,0,0:0:0:0:
448,192,134643,1,0,0:0:0:0:
64,192,134643,1,0,0:0:0:0:
320,192,134724,1,0,0:0:0:0:
192,192,134724,1,0,0:0:0:0:
448,192,134805,1,0,0:0:0:0:
64,192,134805,1,0,0:0:0:0:
320,192,134886,1,0,0:0:0:0:
192,192,134967,1,0,0:0:0:0:
64,192,134967,1,0,0:0:0:0:
320,192,135049,1,0,0:0:0:0:
448,192,135049,1,0,0:0:0:0:
192,192,135130,1,0,0:0:0:0:
64,192,135130,1,0,0:0:0:0:
448,192,135211,1,0,0:0:0:0:
192,192,135292,1,0,0:0:0:0:
320,192,135292,1,0,0:0:0:0:
64,192,135373,1,0,0:0:0:0:
448,192,135373,1,0,0:0:0:0:
192,192,135454,1,0,0:0:0:0:
320,192,135454,1,0,0:0:0:0:
64,192,135535,1,0,0:0:0:0:
320,192,135616,1,0,0:0:0:0:
448,192,135616,1,0,0:0:0:0:
64,192,135697,1,0,0:0:0:0:
192,192,135697,1,0,0:0:0:0:
448,192,135778,1,0,0:0:0:0:
320,192,135778,1,0,0:0:0:0:
192,192,135859,1,0,0:0:0:0:
320,192,135940,1,0,0:0:0:0:
64,192,135940,1,0,0:0:0:0:
192,192,136021,1,0,0:0:0:0:
448,192,136021,1,0,0:0:0:0:
64,192,136103,1,0,0:0:0:0:
320,192,136103,1,0,0:0:0:0:
192,192,136184,1,0,0:0:0:0:
320,192,136265,1,0,0:0:0:0:
448,192,136265,1,0,0:0:0:0:
192,192,136346,1,0,0:0:0:0:
64,192,136346,1,0,0:0:0:0:
320,192,136427,1,0,0:0:0:0:
448,192,136427,1,0,0:0:0:0:
64,192,136508,1,0,0:0:0:0:
192,192,136589,1,0,0:0:0:0:
320,192,136589,1,0,0:0:0:0:
64,192,136670,1,0,0:0:0:0:
448,192,136670,1,0,0:0:0:0:
192,192,136751,1,0,0:0:0:0:
320,192,136751,1,0,0:0:0:0:
448,192,136832,1,0,0:0:0:0:
192,192,136913,1,0,0:0:0:0:
64,192,136913,1,0,0:0:0:0:
320,192,136994,1,0,0:0:0:0:
448,192,136994,1,0,0:0:0:0:
64,192,137076,1,0,0:0:0:0:
192,192,137076,1,0,0:0:0:0:
320,192,137157,1,0,0:0:0:0:
64,192,137238,1,0,0:0:0:0:
448,192,137238,1,0,0:0:0:0:
192,192,137319,1,0,0:0:0:0:
320,192,137319,1,0,0:0:0:0:
448,192,137400,1,0,0:0:0:0:
64,192,137400,1,0,0:0:0:0:
320,192,137481,1,0,0:0:0:0:
192,192,137562,1,0,0:0:0:0:
64,192,137562,1,0,0:0:0:0:
320,192,137643,1,0,0:0:0:0:
448,192,137643,1,0,0:0:0:0:
64,192,137724,1,0,0:0:0:0:
192,192,137724,1,0,0:0:0:0:
448,192,137805,1,0,0:0:0:0:
320,192,137886,1,0,0:0:0:0:
192,192,137886,1,0,0:0:0:0:
448,192,137967,1,0,0:0:0:0:
64,192,137967,1,0,0:0:0:0:
320,192,138049,1,0,0:0:0:0:
192,192,138049,1,0,0:0:0:0:
64,192,138130,1,0,0:0:0:0:
448,192,138211,1,0,0:0:0:0:
320,192,138211,1,0,0:0:0:0:
192,192,138292,1,0,0:0:0:0:
64,192,138292,1,0,0:0:0:0:
320,192,138373,1,0,0:0:0:0:
448,192,138373,1,0,0:0:0:0:
192,192,138454,1,0,0:0:0:0:
64,192,138535,1,0,0:0:0:0:
320,192,138535,1,0,0:0:0:0:
448,192,138616,1,0,0:0:0:0:
192,192,138616,1,0,0:0:0:0:
64,192,138697,1,0,0:0:0:0:
320,192,138697,1,0,0:0:0:0:
192,192,138778,1,0,0:0:0:0:
320,192,138859,1,0,0:0:0:0:
448,192,138859,1,0,0:0:0:0:
64,192,138940,1,0,0:0:0:0:
192,192,138940,1,0,0:0:0:0:
448,192,139021,1,0,0:0:0:0:
320,192,139021,1,0,0:0:0:0:
64,192,139103,1,0,0:0:0:0:
448,192,139184,1,0,0:0:0:0:
320,192,139265,1,0,0:0:0:0:
192,192,139346,1,0,0:0:0:0:
64,192,139427,1,0,0:0:0:0:
448,192,139508,1,0,0:0:0:0:
320,192,139589,1,0,0:0:0:0:
192,192,139670,1,0,0:0:0:0:
64,192,139751,1,0,0:0:0:0:
320,192,139832,1,0,0:0:0:0:
448,192,139832,1,0,0:0:0:0:
64,192,139873,1,0,0:0:0:0:
192,192,139913,1,0,0:0:0:0:
320,192,139954,1,0,0:0:0:0:
448,192,139994,1,0,0:0:0:0:
64,192,140035,1,0,0:0:0:0:
192,192,140076,1,0,0:0:0:0:
320,192,140116,1,0,0:0:0:0:
448,192,140157,1,0,0:0:0:0:
64,192,140211,1,0,0:0:0:0:
192,192,140265,1,0,0:0:0:0:
448,192,140319,1,0,0:0:0:0:
320,192,140319,1,0,0:0:0:0:
192,192,140359,1,0,0:0:0:0:
64,192,140400,1,0,0:0:0:0:
448,192,140440,1,0,0:0:0:0:
320,192,140481,1,0,0:0:0:0:
192,192,140521,1,0,0:0:0:0:
64,192,140562,1,0,0:0:0:0:
448,192,140603,1,0,0:0:0:0:
320,192,140643,1,0,0:0:0:0:
64,192,140697,1,0,0:0:0:0:
192,192,140751,1,0,0:0:0:0:
320,192,140805,1,0,0:0:0:0:
448,192,140805,1,0,0:0:0:0:
64,192,140846,1,0,0:0:0:0:
192,192,140886,1,0,0:0:0:0:
320,192,140927,1,0,0:0:0:0:
448,192,140967,1,0,0:0:0:0:
64,192,141008,1,0,0:0:0:0:
192,192,141049,1,0,0:0:0:0:
320,192,141089,1,0,0:0:0:0:
448,192,141130,1,0,0:0:0:0:
64,192,141170,1,0,0:0:0:0:
192,192,141211,1,0,0:0:0:0:
320,192,141251,1,0,0:0:0:0:
448,192,141292,1,0,0:0:0:0:
64,192,141346,1,0,0:0:0:0:
192,192,141400,1,0,0:0:0:0:
320,192,141454,1,0,0:0:0:0:
448,192,141454,1,0,0:0:0:0:
64,192,141535,1,0,0:0:0:0:
320,192,141616,1,0,0:0:0:0:
192,192,141697,1,0,0:0:0:0:
448,192,141778,1,0,0:0:0:0:
64,192,141859,1,0,0:0:0:0:
320,192,141940,1,0,0:0:0:0:
192,192,142021,1,0,0:0:0:0:
448,192,142103,1,0,0:0:0:0:
192,192,142211,1,0,0:0:0:0:
64,192,142211,1,0,0:0:0:0:
320,192,142319,1,0,0:0:0:0:
448,192,142319,1,0,0:0:0:0:
64,192,142427,1,0,0:0:0:0:
192,192,142427,1,0,0:0:0:0:
448,192,142467,1,0,0:0:0:0:
320,192,142508,1,0,0:0:0:0:
192,192,142549,1,0,0:0:0:0:
64,192,142589,1,0,0:0:0:0:
448,192,142630,1,0,0:0:0:0:
320,192,142670,1,0,0:0:0:0:
192,192,142711,1,0,0:0:0:0:
64,192,142751,1,0,0:0:0:0:
320,192,142805,1,0,0:0:0:0:
448,192,142859,1,0,0:0:0:0:
64,192,142913,1,0,0:0:0:0:
192,192,142913,1,0,0:0:0:0:
320,192,142954,1,0,0:0:0:0:
448,192,142994,1,0,0:0:0:0:
64,192,143035,1,0,0:0:0:0:
192,192,143076,1,0,0:0:0:0:
320,192,143116,1,0,0:0:0:0:
448,192,143157,1,0,0:0:0:0:
64,192,143197,1,0,0:0:0:0:
192,192,143238,1,0,0:0:0:0:
448,192,143292,1,0,0:0:0:0:
320,192,143346,1,0,0:0:0:0:
192,192,143400,1,0,0:0:0:0:
64,192,143400,1,0,0:0:0:0:
448,192,143440,1,0,0:0:0:0:
320,192,143481,1,0,0:0:0:0:
192,192,143521,1,0,0:0:0:0:
64,192,143562,1,0,0:0:0:0:
448,192,143603,1,0,0:0:0:0:
320,192,143643,1,0,0:0:0:0:
192,192,143684,1,0,0:0:0:0:
64,192,143724,1,0,0:0:0:0:
448,192,143765,1,0,0:0:0:0:
320,192,143805,1,0,0:0:0:0:
192,192,143846,1,0,0:0:0:0:
64,192,143886,1,0,0:0:0:0:
448,192,143940,1,0,0:0:0:0:
320,192,143994,1,0,0:0:0:0:
192,192,144157,1,0,0:0:0:0:
192,192,144265,1,0,0:0:0:0:
448,192,144373,1,0,0:0:0:0:
64,192,144373,1,0,0:0:0:0:
320,192,144454,1,0,0:0:0:0:
192,192,144535,1,0,0:0:0:0:
64,192,144616,128,0,144859:0:0:0:0:
448,192,144697,1,0,0:0:0:0:
320,192,144778,1,0,0:0:0:0:
192,192,144859,128,0,144900:0:0:0:0:
64,192,144940,128,0,144981:0:0:0:0:
320,192,145021,1,0,0:0:0:0:
448,192,145021,1,0,0:0:0:0:
64,192,145062,1,0,0:0:0:0:
192,192,145103,1,0,0:0:0:0:
320,192,145143,1,0,0:0:0:0:
448,192,145184,1,0,0:0:0:0:
64,192,145224,1,0,0:0:0:0:
192,192,145265,1,0,0:0:0:0:
320,192,145305,1,0,0:0:0:0:
448,192,145346,1,0,0:0:0:0:
64,192,145400,1,0,0:0:0:0:
192,192,145454,1,0,0:0:0:0:
448,192,145508,1,0,0:0:0:0:
320,192,145508,1,0,0:0:0:0:
192,192,145549,1,0,0:0:0:0:
64,192,145589,1,0,0:0:0:0:
448,192,145630,1,0,0:0:0:0:
320,192,145670,1,0,0:0:0:0:
192,192,145711,1,0,0:0:0:0:
64,192,145751,1,0,0:0:0:0:
448,192,145792,1,0,0:0:0:0:
320,192,145832,1,0,0:0:0:0:
64,192,145886,1,0,0:0:0:0:
192,192,145940,1,0,0:0:0:0:
320,192,145994,1,0,0:0:0:0:
448,192,145994,1,0,0:0:0:0:
64,192,146035,1,0,0:0:0:0:
192,192,146076,1,0,0:0:0:0:
320,192,146116,1,0,0:0:0:0:
448,192,146157,1,0,0:0:0:0:
64,192,146197,1,0,0:0:0:0:
192,192,146238,1,0,0:0:0:0:
320,192,146278,1,0,0:0:0:0:
448,192,146319,1,0,0:0:0:0:
64,192,146359,1,0,0:0:0:0:
192,192,146400,1,0,0:0:0:0:
320,192,146440,1,0,0:0:0:0:
448,192,146481,1,0,0:0:0:0:
64,192,146535,1,0,0:0:0:0:
192,192,146589,1,0,0:0:0:0:
320,192,146643,1,0,0:0:0:0:
448,192,146643,1,0,0:0:0:0:
64,192,146724,1,0,0:0:0:0:
320,192,146805,1,0,0:0:0:0:
192,192,146886,1,0,0:0:0:0:
448,192,146967,1,0,0:0:0:0:
64,192,147049,1,0,0:0:0:0:
320,192,147130,1,0,0:0:0:0:
192,192,147211,1,0,0:0:0:0:
448,192,147292,1,0,0:0:0:0:
64,192,147400,1,0,0:0:0:0:
192,192,147400,1,0,0:0:0:0:
448,192,147508,1,0,0:0:0:0:
320,192,147508,1,0,0:0:0:0:
64,192,147616,1,0,0:0:0:0:
192,192,147616,1,0,0:0:0:0:
320,192,147657,1,0,0:0:0:0:
448,192,147697,1,0,0:0:0:0:
64,192,147738,1,0,0:0:0:0:
192,192,147778,1,0,0:0:0:0:
320,192,147819,1,0,0:0:0:0:
448,192,147859,1,0,0:0:0:0:
64,192,147900,1,0,0:0:0:0:
192,192,147940,1,0,0:0:0:0:
448,192,147994,1,0,0:0:0:0:
320,192,148049,1,0,0:0:0:0:
192,192,148103,1,0,0:0:0:0:
64,192,148103,1,0,0:0:0:0:
448,192,148143,1,0,0:0:0:0:
320,192,148184,1,0,0:0:0:0:
192,192,148224,1,0,0:0:0:0:
64,192,148265,1,0,0:0:0:0:
448,192,148305,1,0,0:0:0:0:
320,192,148346,1,0,0:0:0:0:
192,192,148386,1,0,0:0:0:0:
64,192,148427,1,0,0:0:0:0:
320,192,148481,1,0,0:0:0:0:
448,192,148535,1,0,0:0:0:0:
64,192,148589,1,0,0:0:0:0:
192,192,148589,1,0,0:0:0:0:
320,192,148630,1,0,0:0:0:0:
448,192,148670,1,0,0:0:0:0:
64,192,148711,1,0,0:0:0:0:
192,192,148751,1,0,0:0:0:0:
320,192,148792,1,0,0:0:0:0:
448,192,148832,1,0,0:0:0:0:
64,192,148873,1,0,0:0:0:0:
192,192,148913,1,0,0:0:0:0:
320,192,148954,1,0,0:0:0:0:
448,192,148994,1,0,0:0:0:0:
64,192,149035,1,0,0:0:0:0:
192,192,149076,1,0,0:0:0:0:
448,192,149130,1,0,0:0:0:0:
320,192,149184,1,0,0:0:0:0:
192,192,149346,1,0,0:0:0:0:
192,192,149454,1,0,0:0:0:0:
448,192,149562,128,0,149603:0:0:0:0:
320,192,149643,128,0,149684:0:0:0:0:
448,192,149724,128,0,149765:0:0:0:0:
320,192,149805,128,0,149846:0:0:0:0:
448,192,149886,128,0,149927:0:0:0:0:
320,192,149967,128,0,150008:0:0:0:0:
448,192,150049,128,0,150089:0:0:0:0:
320,192,150130,128,0,150170:0:0:0:0:
64,192,150211,1,0,0:0:0:0:
448,192,150211,1,0,0:0:0:0:
192,192,150251,1,0,0:0:0:0:
320,192,150292,1,0,0:0:0:0:
448,192,150332,1,0,0:0:0:0:
64,192,150373,1,0,0:0:0:0:
192,192,150413,1,0,0:0:0:0:
320,192,150454,1,0,0:0:0:0:
448,192,150494,1,0,0:0:0:0:
64,192,150535,1,0,0:0:0:0:
320,192,150589,1,0,0:0:0:0:
192,192,150643,1,0,0:0:0:0:
64,192,150697,1,0,0:0:0:0:
448,192,150697,1,0,0:0:0:0:
320,192,150738,1,0,0:0:0:0:
192,192,150778,1,0,0:0:0:0:
64,192,150819,1,0,0:0:0:0:
448,192,150859,1,0,0:0:0:0:
320,192,150900,1,0,0:0:0:0:
192,192,150940,1,0,0:0:0:0:
64,192,150981,1,0,0:0:0:0:
448,192,151021,1,0,0:0:0:0:
192,192,151076,1,0,0:0:0:0:
320,192,151130,1,0,0:0:0:0:
64,192,151184,1,0,0:0:0:0:
448,192,151184,1,0,0:0:0:0:
192,192,151224,1,0,0:0:0:0:
320,192,151265,1,0,0:0:0:0:
448,192,151305,1,0,0:0:0:0:
64,192,151346,1,0,0:0:0:0:
192,192,151386,1,0,0:0:0:0:
320,192,151427,1,0,0:0:0:0:
448,192,151467,1,0,0:0:0:0:
64,192,151508,1,0,0:0:0:0:
192,192,151549,1,0,0:0:0:0:
320,192,151589,1,0,0:0:0:0:
448,192,151630,1,0,0:0:0:0:
64,192,151670,1,0,0:0:0:0:
320,192,151724,1,0,0:0:0:0:
192,192,151778,1,0,0:0:0:0:
64,192,151832,1,0,0:0:0:0:
448,192,151832,1,0,0:0:0:0:
320,192,151913,1,0,0:0:0:0:
448,192,151994,1,0,0:0:0:0:
192,192,152076,1,0,0:0:0:0:
320,192,152157,1,0,0:0:0:0:
64,192,152238,1,0,0:0:0:0:
448,192,152319,1,0,0:0:0:0:
192,192,152400,1,0,0:0:0:0:
320,192,152481,1,0,0:0:0:0:
448,192,152589,1,0,0:0:0:0:
64,192,152589,1,0,0:0:0:0:
192,192,152697,1,0,0:0:0:0:
320,192,152697,1,0,0:0:0:0:
64,192,152805,1,0,0:0:0:0:
448,192,152805,1,0,0:0:0:0:
320,192,152846,1,0,0:0:0:0:
192,192,152886,1,0,0:0:0:0:
64,192,152927,1,0,0:0:0:0:
448,192,152967,1,0,0:0:0:0:
320,192,153008,1,0,0:0:0:0:
192,192,153049,1,0,0:0:0:0:
64,192,153089,1,0,0:0:0:0:
448,192,153130,1,0,0:0:0:0:
192,192,153184,1,0,0:0:0:0:
320,192,153238,1,0,0:0:0:0:
448,192,153292,1,0,0:0:0:0:
64,192,153292,1,0,0:0:0:0:
192,192,153332,1,0,0:0:0:0:
320,192,153373,1,0,0:0:0:0:
448,192,153413,1,0,0:0:0:0:
64,192,153454,1,0,0:0:0:0:
192,192,153494,1,0,0:0:0:0:
320,192,153535,1,0,0:0:0:0:
448,192,153576,1,0,0:0:0:0:
64,192,153616,1,0,0:0:0:0:
320,192,153670,1,0,0:0:0:0:
192,192,153724,1,0,0:0:0:0:
448,192,153778,1,0,0:0:0:0:
64,192,153778,1,0,0:0:0:0:
320,192,153819,1,0,0:0:0:0:
192,192,153859,1,0,0:0:0:0:
64,192,153900,1,0,0:0:0:0:
448,192,153940,1,0,0:0:0:0:
320,192,153981,1,0,0:0:0:0:
192,192,154021,1,0,0:0:0:0:
64,192,154062,1,0,0:0:0:0:
448,192,154103,1,0,0:0:0:0:
320,192,154143,1,0,0:0:0:0:
192,192,154184,1,0,0:0:0:0:
64,192,154224,1,0,0:0:0:0:
448,192,154265,1,0,0:0:0:0:
320,192,154319,1,0,0:0:0:0:
192,192,154373,1,0,0:0:0:0:
320,192,154535,1,0,0:0:0:0:
320,192,154643,1,0,0:0:0:0:
64,192,154751,1,0,0:0:0:0:
448,192,154751,1,0,0:0:0:0:
320,192,154832,1,0,0:0:0:0:
192,192,154913,1,0,0:0:0:0:
64,192,154994,1,0,0:0:0:0:
448,192,154994,128,0,155238:0:0:0:0:
320,192,155076,1,0,0:0:0:0:
64,192,155157,1,0,0:0:0:0:
192,192,155238,128,0,155278:0:0:0:0:
320,192,155319,128,0,155359:0:0:0:0:
64,192,155400,1,0,0:0:0:0:
448,192,155400,1,0,0:0:0:0:
192,192,155440,1,0,0:0:0:0:
320,192,155481,1,0,0:0:0:0:
448,192,155521,1,0,0:0:0:0:
64,192,155562,1,0,0:0:0:0:
192,192,155603,1,0,0:0:0:0:
320,192,155643,1,0,0:0:0:0:
448,192,155684,1,0,0:0:0:0:
64,192,155724,1,0,0:0:0:0:
320,192,155778,1,0,0:0:0:0:
192,192,155832,1,0,0:0:0:0:
448,192,155886,1,0,0:0:0:0:
64,192,155886,1,0,0:0:0:0:
320,192,155927,1,0,0:0:0:0:
192,192,155967,1,0,0:0:0:0:
64,192,156008,1,0,0:0:0:0:
448,192,156049,1,0,0:0:0:0:
320,192,156089,1,0,0:0:0:0:
192,192,156130,1,0,0:0:0:0:
64,192,156170,1,0,0:0:0:0:
448,192,156211,1,0,0:0:0:0:
192,192,156265,1,0,0:0:0:0:
320,192,156319,1,0,0:0:0:0:
64,192,156373,1,0,0:0:0:0:
448,192,156373,1,0,0:0:0:0:
192,192,156413,1,0,0:0:0:0:
320,192,156454,1,0,0:0:0:0:
448,192,156494,1,0,0:0:0:0:
64,192,156535,1,0,0:0:0:0:
192,192,156576,1,0,0:0:0:0:
320,192,156616,1,0,0:0:0:0:
448,192,156657,1,0,0:0:0:0:
64,192,156697,1,0,0:0:0:0:
192,192,156738,1,0,0:0:0:0:
320,192,156778,1,0,0:0:0:0:
448,192,156819,1,0,0:0:0:0:
64,192,156859,1,0,0:0:0:0:
320,192,156913,1,0,0:0:0:0:
192,192,156967,1,0,0:0:0:0:
448,192,157021,1,0,0:0:0:0:
64,192,157021,1,0,0:0:0:0:
320,192,157103,1,0,0:0:0:0:
448,192,157184,1,0,0:0:0:0:
192,192,157265,1,0,0:0:0:0:
320,192,157346,1,0,0:0:0:0:
64,192,157427,1,0,0:0:0:0:
448,192,157508,1,0,0:0:0:0:
192,192,157589,1,0,0:0:0:0:
320,192,157670,1,0,0:0:0:0:
448,192,157778,1,0,0:0:0:0:
64,192,157778,1,0,0:0:0:0:
192,192,157886,1,0,0:0:0:0:
320,192,157886,1,0,0:0:0:0:
448,192,157994,1,0,0:0:0:0:
64,192,157994,1,0,0:0:0:0:
192,192,158035,1,0,0:0:0:0:
320,192,158076,1,0,0:0:0:0:
448,192,158116,1,0,0:0:0:0:
64,192,158157,1,0,0:0:0:0:
192,192,158197,1,0,0:0:0:0:
320,192,158238,1,0,0:0:0:0:
448,192,158278,1,0,0:0:0:0:
64,192,158319,1,0,0:0:0:0:
320,192,158373,1,0,0:0:0:0:
192,192,158427,1,0,0:0:0:0:
64,192,158481,1,0,0:0:0:0:
448,192,158481,1,0,0:0:0:0:
320,192,158521,1,0,0:0:0:0:
192,192,158562,1,0,0:0:0:0:
64,192,158603,1,0,0:0:0:0:
448,192,158643,1,0,0:0:0:0:
320,192,158684,1,0,0:0:0:0:
192,192,158724,1,0,0:0:0:0:
64,192,158765,1,0,0:0:0:0:
448,192,158805,1,0,0:0:0:0:
192,192,158859,1,0,0:0:0:0:
320,192,158913,1,0,0:0:0:0:
64,192,158967,1,0,0:0:0:0:
448,192,158967,1,0,0:0:0:0:
192,192,159008,1,0,0:0:0:0:
320,192,159049,1,0,0:0:0:0:
448,192,159089,1,0,0:0:0:0:
64,192,159130,1,0,0:0:0:0:
192,192,159170,1,0,0:0:0:0:
320,192,159211,1,0,0:0:0:0:
448,192,159251,1,0,0:0:0:0:
64,192,159292,1,0,0:0:0:0:
192,192,159292,1,0,0:0:0:0:
64,192,159454,128,0,159616:0:0:0:0:
320,192,159616,128,0,159778:0:0:0:0:
64,192,159778,128,0,159940:0:0:0:0:
320,192,159940,128,0,160103:0:0:0:0:
64,192,160103,128,0,160265:0:0:0:0:
320,192,160265,128,0,160427:0:0:0:0:
448,192,160427,128,0,160589:0:0:0:0:
192,192,160427,1,0,0:0:0:0:
64,192,160589,1,0,0:0:0:0:
192,192,160589,1,0,0:0:0:0:
320,192,160589,1,0,0:0:0:0:
448,192,160670,1,0,0:0:0:0:
192,192,160751,1,0,0:0:0:0:
64,192,160751,1,0,0:0:0:0:
320,192,160832,1,0,0:0:0:0:
192,192,160913,1,0,0:0:0:0:
448,192,160913,1,0,0:0:0:0:
64,192,160994,1,0,0:0:0:0:
320,192,161076,1,0,0:0:0:0:
448,192,161076,1,0,0:0:0:0:
192,192,161157,1,0,0:0:0:0:
64,192,161238,1,0,0:0:0:0:
448,192,161238,1,0,0:0:0:0:
192,192,161319,1,0,0:0:0:0:
320,192,161400,1,0,0:0:0:0:
64,192,161400,1,0,0:0:0:0:
448,192,161481,1,0,0:0:0:0:
64,192,161562,1,0,0:0:0:0:
192,192,161562,1,0,0:0:0:0:
448,192,161643,1,0,0:0:0:0:
320,192,161724,1,0,0:0:0:0:
64,192,161724,1,0,0:0:0:0:
192,192,161805,1,0,0:0:0:0:
64,192,161886,1,0,0:0:0:0:
320,192,161886,1,0,0:0:0:0:
448,192,161967,1,0,0:0:0:0:
192,192,162049,1,0,0:0:0:0:
64,192,162049,1,0,0:0:0:0:
320,192,162130,1,0,0:0:0:0:
64,192,162211,1,0,0:0:0:0:
448,192,162211,1,0,0:0:0:0:
320,192,162292,1,0,0:0:0:0:
192,192,162373,1,0,0:0:0:0:
64,192,162373,1,0,0:0:0:0:
448,192,162454,1,0,0:0:0:0:
64,192,162535,1,0,0:0:0:0:
320,192,162535,1,0,0:0:0:0:
192,192,162616,1,0,0:0:0:0:
320,192,162697,1,0,0:0:0:0:
64,192,162697,1,0,0:0:0:0:
448,192,162778,1,0,0:0:0:0:
64,192,162859,1,0,0:0:0:0:
192,192,162859,1,0,0:0:0:0:
448,192,162940,1,0,0:0:0:0:
64,192,163021,1,0,0:0:0:0:
320,192,163021,1,0,0:0:0:0:
192,192,163103,1,0,0:0:0:0:
320,192,163184,1,0,0:0:0:0:
448,192,163184,1,0,0:0:0:0:
64,192,163265,1,0,0:0:0:0:
192,192,163346,1,0,0:0:0:0:
448,192,163346,1,0,0:0:0:0:
320,192,163427,1,0,0:0:0:0:
192,192,163508,1,0,0:0:0:0:
448,192,163508,1,0,0:0:0:0:
64,192,163589,1,0,0:0:0:0:
320,192,163670,1,0,0:0:0:0:
448,192,163670,1,0,0:0:0:0:
192,192,163751,1,0,0:0:0:0:
64,192,163832,1,0,0:0:0:0:
448,192,163832,1,0,0:0:0:0:
192,192,163913,1,0,0:0:0:0:
320,192,163994,1,0,0:0:0:0:
64,192,163994,1,0,0:0:0:0:
448,192,164076,1,0,0:0:0:0:
64,192,164157,1,0,0:0:0:0:
320,192,164157,1,0,0:0:0:0:
192,192,164238,1,0,0:0:0:0:
64,192,164319,1,0,0:0:0:0:
448,192,164319,1,0,0:0:0:0:
320,192,164400,1,0,0:0:0:0:
448,192,164481,128,0,164521:0:0:0:0:
192,192,164481,1,0,0:0:0:0:
64,192,164481,1,0,0:0:0:0:
320,192,164562,1,0,0:0:0:0:
448,192,164643,1,0,0:0:0:0:
64,192,164643,1,0,0:0:0:0:
192,192,164724,1,0,0:0:0:0:
448,192,164805,1,0,0:0:0:0:
320,192,164805,1,0,0:0:0:0:
192,192,164886,1,0,0:0:0:0:
448,192,164967,1,0,0:0:0:0:
320,192,164967,128,0,165008:0:0:0:0:
64,192,164967,1,0,0:0:0:0:
192,192,165049,1,0,0:0:0:0:
64,192,165130,1,0,0:0:0:0:
448,192,165130,1,0,0:0:0:0:
192,192,165211,1,0,0:0:0:0:
64,192,165292,1,0,0:0:0:0:
320,192,165292,1,0,0:0:0:0:
448,192,165292,1,0,0:0:0:0:
192,192,165373,1,0,0:0:0:0:
320,192,165454,1,0,0:0:0:0:
448,192,165454,1,0,0:0:0:0:
192,192,165535,1,0,0:0:0:0:
64,192,165616,1,0,0:0:0:0:
320,192,165616,1,0,0:0:0:0:
448,192,165616,1,0,0:0:0:0:
192,192,165697,1,0,0:0:0:0:
64,192,165778,1,0,0:0:0:0:
320,192,165778,1,0,0:0:0:0:
448,192,165859,1,0,0:0:0:0:
192,192,165940,1,0,0:0:0:0:
64,192,165940,1,0,0:0:0:0:
320,192,166021,1,0,0:0:0:0:
192,192,166103,1,0,0:0:0:0:
448,192,166103,1,0,0:0:0:0:
64,192,166184,1,0,0:0:0:0:
448,192,166265,1,0,0:0:0:0:
320,192,166265,1,0,0:0:0:0:
192,192,166346,1,0,0:0:0:0:
64,192,166427,1,0,0:0:0:0:
448,192,166427,1,0,0:0:0:0:
192,192,166508,1,0,0:0:0:0:
64,192,166589,1,0,0:0:0:0:
320,192,166589,1,0,0:0:0:0:
448,192,166670,1,0,0:0:0:0:
64,192,166751,1,0,0:0:0:0:
192,192,166751,1,0,0:0:0:0:
448,192,166832,1,0,0:0:0:0:
320,192,166913,1,0,0:0:0:0:
64,192,166913,1,0,0:0:0:0:
192,192,166994,1,0,0:0:0:0:
320,192,167076,1,0,0:0:0:0:
448,192,167076,128,0,167116:0:0:0:0:
64,192,167076,1,0,0:0:0:0:
192,192,167157,1,0,0:0:0:0:
320,192,167238,1,0,0:0:0:0:
64,192,167238,1,0,0:0:0:0:
448,192,167319,1,0,0:0:0:0:
64,192,167400,1,0,0:0:0:0:
192,192,167400,1,0,0:0:0:0:
448,192,167481,1,0,0:0:0:0:
320,192,167562,1,0,0:0:0:0:
192,192,167562,128,0,167603:0:0:0:0:
64,192,167562,1,0,0:0:0:0:
448,192,167643,1,0,0:0:0:0:
64,192,167724,1,0,0:0:0:0:
320,192,167724,1,0,0:0:0:0:
192,192,167805,1,0,0:0:0:0:
320,192,167886,1,0,0:0:0:0:
64,192,167886,1,0,0:0:0:0:
448,192,167967,1,0,0:0:0:0:
192,192,168049,1,0,0:0:0:0:
320,192,168049,128,0,168089:0:0:0:0:
64,192,168049,1,0,0:0:0:0:
448,192,168130,1,0,0:0:0:0:
320,192,168211,1,0,0:0:0:0:
64,192,168211,1,0,0:0:0:0:
192,192,168292,1,0,0:0:0:0:
64,192,168373,128,0,168413:0:0:0:0:
448,192,168373,1,0,0:0:0:0:
320,192,168373,1,0,0:0:0:0:
192,192,168454,1,0,0:0:0:0:
320,192,168535,1,0,0:0:0:0:
64,192,168535,1,0,0:0:0:0:
448,192,168616,1,0,0:0:0:0:
64,192,168697,1,0,0:0:0:0:
192,192,168697,1,0,0:0:0:0:
448,192,168778,1,0,0:0:0:0:
320,192,168859,1,0,0:0:0:0:
64,192,168859,1,0,0:0:0:0:
192,192,168940,1,0,0:0:0:0:
320,192,169021,1,0,0:0:0:0:
448,192,169021,1,0,0:0:0:0:
64,192,169103,1,0,0:0:0:0:
192,192,169184,1,0,0:0:0:0:
448,192,169184,1,0,0:0:0:0:
320,192,169265,1,0,0:0:0:0:
448,192,169346,1,0,0:0:0:0:
64,192,169346,1,0,0:0:0:0:
192,192,169427,1,0,0:0:0:0:
320,192,169508,1,0,0:0:0:0:
448,192,169508,1,0,0:0:0:0:
192,192,169589,1,0,0:0:0:0:
64,192,169670,1,0,0:0:0:0:
448,192,169670,1,0,0:0:0:0:
320,192,169751,1,0,0:0:0:0:
64,192,169832,1,0,0:0:0:0:
192,192,169832,1,0,0:0:0:0:
448,192,169913,1,0,0:0:0:0:
192,192,169994,1,0,0:0:0:0:
320,192,169994,1,0,0:0:0:0:
64,192,170076,1,0,0:0:0:0:
320,192,170157,1,0,0:0:0:0:
448,192,170157,1,0,0:0:0:0:
64,192,170238,1,0,0:0:0:0:
192,192,170319,1,0,0:0:0:0:
320,192,170319,1,0,0:0:0:0:
448,192,170400,1,0,0:0:0:0:
64,192,170481,1,0,0:0:0:0:
192,192,170481,1,0,0:0:0:0:
320,192,170562,1,0,0:0:0:0:
448,192,170562,1,0,0:0:0:0:
64,192,170643,1,0,0:0:0:0:
192,192,170643,1,0,0:0:0:0:
320,192,170724,1,0,0:0:0:0:
448,192,170724,1,0,0:0:0:0:
64,192,170805,1,0,0:0:0:0:
192,192,170805,1,0,0:0:0:0:
320,192,170886,1,0,0:0:0:0:
448,192,170886,1,0,0:0:0:0:
64,192,170967,1,0,0:0:0:0:
192,192,170967,1,0,0:0:0:0:
448,192,171049,1,0,0:0:0:0:
64,192,171130,1,0,0:0:0:0:
320,192,171130,1,0,0:0:0:0:
192,192,171211,1,0,0:0:0:0:
64,192,171292,1,0,0:0:0:0:
320,192,171292,1,0,0:0:0:0:
448,192,171292,1,0,0:0:0:0:
192,192,171373,1,0,0:0:0:0:
64,192,171454,1,0,0:0:0:0:
448,192,171454,1,0,0:0:0:0:
320,192,171535,1,0,0:0:0:0:
64,192,171616,1,0,0:0:0:0:
192,192,171616,1,0,0:0:0:0:
320,192,171697,1,0,0:0:0:0:
448,192,171778,1,0,0:0:0:0:
64,192,171778,1,0,0:0:0:0:
192,192,171859,1,0,0:0:0:0:
64,192,171940,1,0,0:0:0:0:
320,192,171940,1,0,0:0:0:0:
448,192,171940,1,0,0:0:0:0:
192,192,172021,1,0,0:0:0:0:
320,192,172103,1,0,0:0:0:0:
64,192,172103,1,0,0:0:0:0:
448,192,172184,1,0,0:0:0:0:
64,192,172265,1,0,0:0:0:0:
192,192,172265,1,0,0:0:0:0:
320,192,172346,1,0,0:0:0:0:
192,192,172427,1,0,0:0:0:0:
448,192,172427,1,0,0:0:0:0:
64,192,172508,1,0,0:0:0:0:
192,192,172589,1,0,0:0:0:0:
320,192,172589,1,0,0:0:0:0:
448,192,172589,1,0,0:0:0:0:
64,192,172670,1,0,0:0:0:0:
448,192,172751,1,0,0:0:0:0:
320,192,172751,1,0,0:0:0:0:
192,192,172832,1,0,0:0:0:0:
64,192,172913,1,0,0:0:0:0:
448,192,172913,1,0,0:0:0:0:
192,192,172994,1,0,0:0:0:0:
64,192,173076,1,0,0:0:0:0:
320,192,173076,1,0,0:0:0:0:
448,192,173157,1,0,0:0:0:0:
64,192,173238,1,0,0:0:0:0:
192,192,173238,1,0,0:0:0:0:
320,192,173238,1,0,0:0:0:0:
448,192,173319,1,0,0:0:0:0:
64,192,173400,1,0,0:0:0:0:
192,192,173400,1,0,0:0:0:0:
320,192,173481,1,0,0:0:0:0:
64,192,173562,1,0,0:0:0:0:
448,192,173562,1,0,0:0:0:0:
320,192,173643,1,0,0:0:0:0:
192,192,173724,1,0,0:0:0:0:
64,192,173724,1,0,0:0:0:0:
448,192,173805,1,0,0:0:0:0:
192,192,173886,1,0,0:0:0:0:
320,192,173886,1,0,0:0:0:0:
64,192,173886,1,0,0:0:0:0:
448,192,173967,1,0,0:0:0:0:
320,192,174049,1,0,0:0:0:0:
64,192,174049,1,0,0:0:0:0:
192,192,174130,1,0,0:0:0:0:
64,192,174211,1,0,0:0:0:0:
448,192,174211,1,0,0:0:0:0:
192,192,174292,1,0,0:0:0:0:
64,192,174373,1,0,0:0:0:0:
320,192,174373,1,0,0:0:0:0:
448,192,174454,1,0,0:0:0:0:
64,192,174535,1,0,0:0:0:0:
192,192,174535,1,0,0:0:0:0:
320,192,174535,1,0,0:0:0:0:
448,192,174616,1,0,0:0:0:0:
64,192,174697,1,0,0:0:0:0:
192,192,174697,1,0,0:0:0:0:
320,192,174778,1,0,0:0:0:0:
64,192,174859,1,0,0:0:0:0:
448,192,174859,128,0,174900:0:0:0:0:
192,192,174859,1,0,0:0:0:0:
320,192,174940,1,0,0:0:0:0:
192,192,175021,1,0,0:0:0:0:
448,192,175021,1,0,0:0:0:0:
64,192,175103,1,0,0:0:0:0:
192,192,175184,1,0,0:0:0:0:
320,192,175184,1,0,0:0:0:0:
448,192,175184,1,0,0:0:0:0:
64,192,175265,1,0,0:0:0:0:
448,192,175346,1,0,0:0:0:0:
320,192,175346,128,0,175386:0:0:0:0:
192,192,175346,1,0,0:0:0:0:
64,192,175427,1,0,0:0:0:0:
448,192,175508,1,0,0:0:0:0:
192,192,175508,1,0,0:0:0:0:
320,192,175589,1,0,0:0:0:0:
448,192,175670,1,0,0:0:0:0:
64,192,175670,1,0,0:0:0:0:
192,192,175670,1,0,0:0:0:0:
320,192,175751,1,0,0:0:0:0:
192,192,175832,1,0,0:0:0:0:
64,192,175832,1,0,0:0:0:0:
320,192,175913,1,0,0:0:0:0:
448,192,175994,1,0,0:0:0:0:
64,192,175994,1,0,0:0:0:0:
192,192,175994,1,0,0:0:0:0:
320,192,176076,1,0,0:0:0:0:
192,192,176157,1,0,0:0:0:0:
64,192,176157,1,0,0:0:0:0:
448,192,176157,1,0,0:0:0:0:
192,192,176319,1,0,0:0:0:0:
320,192,176319,1,0,0:0:0:0:
448,192,176481,1,0,0:0:0:0:
192,192,176481,1,0,0:0:0:0:
64,192,176481,1,0,0:0:0:0:
448,192,176643,1,0,0:0:0:0:
320,192,176643,1,0,0:0:0:0:
448,192,176805,1,0,0:0:0:0:
192,192,176805,1,0,0:0:0:0:
64,192,176805,1,0,0:0:0:0:
320,192,176967,1,0,0:0:0:0:
192,192,176967,1,0,0:0:0:0:
448,192,177130,1,0,0:0:0:0:
320,192,177130,1,0,0:0:0:0:
64,192,177130,1,0,0:0:0:0:
192,192,177292,1,0,0:0:0:0:
64,192,177292,1,0,0:0:0:0:
64,192,177454,1,0,0:0:0:0:
320,192,177454,1,0,0:0:0:0:
448,192,177454,128,0,177494:0:0:0:0:
320,192,177616,1,0,0:0:0:0:
192,192,177616,1,0,0:0:0:0:
448,192,177778,1,0,0:0:0:0:
320,192,177778,1,0,0:0:0:0:
64,192,177778,1,0,0:0:0:0:
64,192,177940,1,0,0:0:0:0:
192,192,177940,128,0,177981:0:0:0:0:
448,192,178103,1,0,0:0:0:0:
320,192,178103,1,0,0:0:0:0:
64,192,178103,1,0,0:0:0:0:
320,192,178265,1,0,0:0:0:0:
192,192,178265,1,0,0:0:0:0:
448,192,178427,1,0,0:0:0:0:
64,192,178427,1,0,0:0:0:0:
320,192,178427,128,0,178467:0:0:0:0:
320,192,178589,1,0,0:0:0:0:
192,192,178589,1,0,0:0:0:0:
448,192,178751,1,0,0:0:0:0:
64,192,178751,128,0,178792:0:0:0:0:
192,192,178832,1,0,0:0:0:0:
320,192,178913,1,0,0:0:0:0:
448,192,178994,1,0,0:0:0:0:
64,192,179076,1,0,0:0:0:0:
448,192,179157,1,0,0:0:0:0:
192,192,179238,1,0,0:0:0:0:
320,192,179319,1,0,0:0:0:0:
64,192,179400,1,0,0:0:0:0:
192,192,179481,1,0,0:0:0:0:
320,192,179562,1,0,0:0:0:0:
448,192,179643,1,0,0:0:0:0:
64,192,179724,1,0,0:0:0:0:
448,192,179805,1,0,0:0:0:0:
192,192,179886,1,0,0:0:0:0:
320,192,179967,1,0,0:0:0:0:
64,192,180049,1,0,0:0:0:0:
192,192,180130,1,0,0:0:0:0:
320,192,180211,1,0,0:0:0:0:
448,192,180292,1,0,0:0:0:0:
64,192,180373,1,0,0:0:0:0:
320,192,180454,1,0,0:0:0:0:
192,192,180535,1,0,0:0:0:0:
448,192,180616,1,0,0:0:0:0:
64,192,180859,128,0,181021:0:0:0:0:
320,192,181021,128,0,181184:0:0:0:0:
192,192,181184,128,0,181346:0:0:0:0:
64,192,181346,1,0,0:0:0:0:
320,192,181346,1,0,0:0:0:0:
448,192,181346,1,0,0:0:0:0:
192,192,181427,1,0,0:0:0:0:
448,192,181508,1,0,0:0:0:0:
192,192,181589,1,0,0:0:0:0:
320,192,181670,1,0,0:0:0:0:
64,192,181751,1,0,0:0:0:0:
320,192,181832,1,0,0:0:0:0:
448,192,181913,1,0,0:0:0:0:
64,192,181994,1,0,0:0:0:0:
320,192,182076,1,0,0:0:0:0:
192,192,182157,1,0,0:0:0:0:
448,192,182238,1,0,0:0:0:0:
192,192,182319,1,0,0:0:0:0:
64,192,182400,1,0,0:0:0:0:
448,192,182481,1,0,0:0:0:0:
320,192,182562,1,0,0:0:0:0:
64,192,182643,1,0,0:0:0:0:
192,192,182724,1,0,0:0:0:0:
448,192,182805,1,0,0:0:0:0:
192,192,182886,1,0,0:0:0:0:
320,192,182967,1,0,0:0:0:0:
64,192,183049,1,0,0:0:0:0:
320,192,183130,1,0,0:0:0:0:
448,192,183211,1,0,0:0:0:0:
64,192,183292,1,0,0:0:0:0:
320,192,183373,1,0,0:0:0:0:
192,192,183454,1,0,0:0:0:0:
448,192,183535,1,0,0:0:0:0:
192,192,183616,1,0,0:0:0:0:
64,192,183697,1,0,0:0:0:0:
320,192,183778,1,0,0:0:0:0:
448,192,183859,1,0,0:0:0:0:
64,192,183940,1,0,0:0:0:0:
320,192,184021,1,0,0:0:0:0:
192,192,184103,1,0,0:0:0:0:
448,192,184184,1,0,0:0:0:0:
192,192,184265,1,0,0:0:0:0:
320,192,184346,1,0,0:0:0:0:
64,192,184427,1,0,0:0:0:0:
320,192,184508,1,0,0:0:0:0:
192,192,184589,1,0,0:0:0:0:
448,192,184670,1,0,0:0:0:0:
192,192,184751,1,0,0:0:0:0:
320,192,184832,1,0,0:0:0:0:
64,192,184913,1,0,0:0:0:0:
320,192,184994,1,0,0:0:0:0:
192,192,185076,1,0,0:0:0:0:
448,192,185157,1,0,0:0:0:0:
64,192,185238,1,0,0:0:0:0:
192,192,185238,1,0,0:0:0:0:
320,192,185319,1,0,0:0:0:0:
448,192,185319,1,0,0:0:0:0:
64,192,185400,1,0,0:0:0:0:
192,192,185400,1,0,0:0:0:0:
320,192,185481,1,0,0:0:0:0:
448,192,185481,1,0,0:0:0:0:
64,192,185562,1,0,0:0:0:0:
192,192,185562,1,0,0:0:0:0:
320,192,185643,1,0,0:0:0:0:
448,192,185643,1,0,0:0:0:0:
64,192,185724,1,0,0:0:0:0:
192,192,185724,1,0,0:0:0:0:
320,192,185805,1,0,0:0:0:0:
448,192,185805,1,0,0:0:0:0:
64,192,185886,1,0,0:0:0:0:
192,192,185886,1,0,0:0:0:0:
192,192,186049,1,0,0:0:0:0:
448,192,186130,1,0,0:0:0:0:
64,192,186211,128,0,186454:0:0:0:0:
192,192,186373,1,0,0:0:0:0:
320,192,186454,1,0,0:0:0:0:
64,192,186535,1,0,0:0:0:0:
448,192,186535,1,0,0:0:0:0:
192,192,186616,1,0,0:0:0:0:
448,192,186697,1,0,0:0:0:0:
320,192,186778,1,0,0:0:0:0:
448,192,186859,1,0,0:0:0:0:
64,192,186859,1,0,0:0:0:0:
192,192,186940,1,0,0:0:0:0:
448,192,187021,1,0,0:0:0:0:
320,192,187103,1,0,0:0:0:0:
64,192,187184,1,0,0:0:0:0:
448,192,187184,1,0,0:0:0:0:
192,192,187265,1,0,0:0:0:0:
448,192,187346,1,0,0:0:0:0:
320,192,187427,1,0,0:0:0:0:
448,192,187508,1,0,0:0:0:0:
64,192,187508,1,0,0:0:0:0:
192,192,187589,1,0,0:0:0:0:
448,192,187670,1,0,0:0:0:0:
320,192,187751,1,0,0:0:0:0:
64,192,187832,1,0,0:0:0:0:
448,192,187832,1,0,0:0:0:0:
192,192,187913,1,0,0:0:0:0:
448,192,187994,1,0,0:0:0:0:
320,192,188076,1,0,0:0:0:0:
64,192,188157,1,0,0:0:0:0:
448,192,188157,1,0,0:0:0:0:
192,192,188238,1,0,0:0:0:0:
448,192,188319,1,0,0:0:0:0:
320,192,188400,1,0,0:0:0:0:
64,192,188481,1,0,0:0:0:0:
448,192,188481,1,0,0:0:0:0:
192,192,188562,1,0,0:0:0:0:
448,192,188643,1,0,0:0:0:0:
320,192,188724,1,0,0:0:0:0:
448,192,188805,1,0,0:0:0:0:
64,192,188805,1,0,0:0:0:0:
192,192,188886,1,0,0:0:0:0:
448,192,188967,1,0,0:0:0:0:
320,192,189049,1,0,0:0:0:0:
64,192,189130,1,0,0:0:0:0:
448,192,189130,1,0,0:0:0:0:
320,192,189211,1,0,0:0:0:0:
64,192,189292,1,0,0:0:0:0:
192,192,189373,1,0,0:0:0:0:
64,192,189454,1,0,0:0:0:0:
448,192,189454,1,0,0:0:0:0:
320,192,189535,1,0,0:0:0:0:
64,192,189616,1,0,0:0:0:0:
192,192,189697,1,0,0:0:0:0:
64,192,189778,1,0,0:0:0:0:
448,192,189778,1,0,0:0:0:0:
320,192,189859,1,0,0:0:0:0:
64,192,189940,1,0,0:0:0:0:
192,192,190021,1,0,0:0:0:0:
64,192,190103,1,0,0:0:0:0:
448,192,190103,1,0,0:0:0:0:
320,192,190184,1,0,0:0:0:0:
64,192,190265,1,0,0:0:0:0:
192,192,190346,1,0,0:0:0:0:
64,192,190427,1,0,0:0:0:0:
448,192,190427,1,0,0:0:0:0:
320,192,190508,1,0,0:0:0:0:
64,192,190589,1,0,0:0:0:0:
192,192,190670,1,0,0:0:0:0:
64,192,190751,1,0,0:0:0:0:
448,192,190751,1,0,0:0:0:0:
320,192,190832,1,0,0:0:0:0:
64,192,190913,1,0,0:0:0:0:
192,192,190994,1,0,0:0:0:0:
64,192,191076,1,0,0:0:0:0:
448,192,191076,1,0,0:0:0:0:
320,192,191157,1,0,0:0:0:0:
64,192,191238,1,0,0:0:0:0:
192,192,191319,1,0,0:0:0:0:
64,192,191400,1,0,0:0:0:0:
448,192,191400,1,0,0:0:0:0:
320,192,191481,1,0,0:0:0:0:
64,192,191562,1,0,0:0:0:0:
192,192,191643,1,0,0:0:0:0:
64,192,191724,1,0,0:0:0:0:
320,192,191724,1,0,0:0:0:0:
448,192,191778,1,0,0:0:0:0:
192,192,191832,1,0,0:0:0:0:
320,192,191886,1,0,0:0:0:0:
64,192,191967,1,0,0:0:0:0:
192,192,192049,1,0,0:0:0:0:
448,192,192049,1,0,0:0:0:0:
64,192,192103,1,0,0:0:0:0:
320,192,192157,1,0,0:0:0:0:
192,192,192211,1,0,0:0:0:0:
448,192,192292,1,0,0:0:0:0:
64,192,192373,1,0,0:0:0:0:
320,192,192373,1,0,0:0:0:0:
448,192,192427,1,0,0:0:0:0:
192,192,192481,1,0,0:0:0:0:
320,192,192535,1,0,0:0:0:0:
64,192,192616,1,0,0:0:0:0:
448,192,192697,1,0,0:0:0:0:
192,192,192697,1,0,0:0:0:0:
64,192,192751,1,0,0:0:0:0:
320,192,192805,1,0,0:0:0:0:
192,192,192859,1,0,0:0:0:0:
448,192,192940,1,0,0:0:0:0:
320,192,193021,1,0,0:0:0:0:
64,192,193021,1,0,0:0:0:0:
448,192,193076,1,0,0:0:0:0:
192,192,193130,1,0,0:0:0:0:
320,192,193184,1,0,0:0:0:0:
64,192,193265,1,0,0:0:0:0:
192,192,193346,1,0,0:0:0:0:
448,192,193346,1,0,0:0:0:0:
64,192,193400,1,0,0:0:0:0:
320,192,193454,1,0,0:0:0:0:
192,192,193508,1,0,0:0:0:0:
448,192,193589,1,0,0:0:0:0:
64,192,193670,1,0,0:0:0:0:
320,192,193670,1,0,0:0:0:0:
448,192,193724,1,0,0:0:0:0:
192,192,193778,1,0,0:0:0:0:
320,192,193832,1,0,0:0:0:0:
64,192,193913,1,0,0:0:0:0:
448,192,193994,1,0,0:0:0:0:
192,192,193994,1,0,0:0:0:0:
64,192,194049,1,0,0:0:0:0:
320,192,194103,1,0,0:0:0:0:
192,192,194157,1,0,0:0:0:0:
448,192,194238,1,0,0:0:0:0:
320,192,194319,1,0,0:0:0:0:
64,192,194319,1,0,0:0:0:0:
448,192,194373,1,0,0:0:0:0:
192,192,194427,1,0,0:0:0:0:
320,192,194481,1,0,0:0:0:0:
64,192,194562,1,0,0:0:0:0:
192,192,194643,1,0,0:0:0:0:
448,192,194643,1,0,0:0:0:0:
64,192,194697,1,0,0:0:0:0:
320,192,194751,1,0,0:0:0:0:
192,192,194805,1,0,0:0:0:0:
448,192,194886,1,0,0:0:0:0:
64,192,194967,1,0,0:0:0:0:
320,192,194967,1,0,0:0:0:0:
448,192,195021,1,0,0:0:0:0:
192,192,195076,1,0,0:0:0:0:
320,192,195130,1,0,0:0:0:0:
64,192,195211,1,0,0:0:0:0:
448,192,195292,1,0,0:0:0:0:
192,192,195292,1,0,0:0:0:0:
64,192,195346,1,0,0:0:0:0:
320,192,195400,1,0,0:0:0:0:
192,192,195454,1,0,0:0:0:0:
448,192,195535,1,0,0:0:0:0:
320,192,195616,1,0,0:0:0:0:
64,192,195616,1,0,0:0:0:0:
448,192,195670,1,0,0:0:0:0:
192,192,195724,1,0,0:0:0:0:
320,192,195778,1,0,0:0:0:0:
64,192,195859,1,0,0:0:0:0:
192,192,195940,1,0,0:0:0:0:
448,192,195940,1,0,0:0:0:0:
64,192,195994,1,0,0:0:0:0:
320,192,196049,1,0,0:0:0:0:
192,192,196103,1,0,0:0:0:0:
448,192,196184,1,0,0:0:0:0:
320,192,196265,1,0,0:0:0:0:
192,192,196265,1,0,0:0:0:0:
64,192,196913,1,0,0:0:0:0:
448,192,196913,1,0,0:0:0:0:
320,192,196994,1,0,0:0:0:0:
448,192,197076,1,0,0:0:0:0:
192,192,197157,1,0,0:0:0:0:
64,192,197238,1,0,0:0:0:0:
448,192,197238,1,0,0:0:0:0:
320,192,197319,1,0,0:0:0:0:
448,192,197400,1,0,0:0:0:0:
192,192,197481,1,0,0:0:0:0:
64,192,197562,1,0,0:0:0:0:
448,192,197562,1,0,0:0:0:0:
320,192,197643,1,0,0:0:0:0:
448,192,197724,1,0,0:0:0:0:
192,192,197805,1,0,0:0:0:0:
64,192,197886,1,0,0:0:0:0:
448,192,197886,1,0,0:0:0:0:
320,192,197967,1,0,0:0:0:0:
448,192,198049,1,0,0:0:0:0:
192,192,198130,1,0,0:0:0:0:
64,192,198211,1,0,0:0:0:0:
448,192,198211,1,0,0:0:0:0:
320,192,198292,1,0,0:0:0:0:
448,192,198373,1,0,0:0:0:0:
192,192,198454,1,0,0:0:0:0:
64,192,198535,1,0,0:0:0:0:
448,192,198535,1,0,0:0:0:0:
320,192,198616,1,0,0:0:0:0:
448,192,198697,1,0,0:0:0:0:
192,192,198778,1,0,0:0:0:0:
64,192,198859,1,0,0:0:0:0:
448,192,198859,1,0,0:0:0:0:
320,192,198940,1,0,0:0:0:0:
448,192,199021,1,0,0:0:0:0:
192,192,199103,1,0,0:0:0:0:
64,192,199184,1,0,0:0:0:0:
448,192,199184,1,0,0:0:0:0:
320,192,199265,1,0,0:0:0:0:
448,192,199346,1,0,0:0:0:0:
192,192,199427,1,0,0:0:0:0:
64,192,199508,1,0,0:0:0:0:
448,192,199508,1,0,0:0:0:0:
192,192,199589,1,0,0:0:0:0:
64,192,199670,1,0,0:0:0:0:
320,192,199751,1,0,0:0:0:0:
448,192,199832,1,0,0:0:0:0:
64,192,199832,1,0,0:0:0:0:
192,192,199913,1,0,0:0:0:0:
64,192,199994,1,0,0:0:0:0:
320,192,200076,1,0,0:0:0:0:
448,192,200157,1,0,0:0:0:0:
64,192,200157,1,0,0:0:0:0:
192,192,200238,1,0,0:0:0:0:
64,192,200319,1,0,0:0:0:0:
320,192,200400,1,0,0:0:0:0:
448,192,200481,1,0,0:0:0:0:
64,192,200481,1,0,0:0:0:0:
192,192,200562,1,0,0:0:0:0:
64,192,200643,1,0,0:0:0:0:
320,192,200724,1,0,0:0:0:0:
448,192,200805,1,0,0:0:0:0:
64,192,200805,1,0,0:0:0:0:
192,192,200886,1,0,0:0:0:0:
64,192,200967,1,0,0:0:0:0:
320,192,201049,1,0,0:0:0:0:
448,192,201130,1,0,0:0:0:0:
64,192,201130,1,0,0:0:0:0:
192,192,201211,1,0,0:0:0:0:
64,192,201292,1,0,0:0:0:0:
320,192,201373,1,0,0:0:0:0:
448,192,201454,1,0,0:0:0:0:
64,192,201454,1,0,0:0:0:0:
192,192,201535,1,0,0:0:0:0:
64,192,201616,1,0,0:0:0:0:
320,192,201697,1,0,0:0:0:0:
64,192,201778,1,0,0:0:0:0:
448,192,201778,1,0,0:0:0:0:
192,192,201859,1,0,0:0:0:0:
64,192,201940,1,0,0:0:0:0:
320,192,202021,1,0,0:0:0:0:
192,192,202103,1,0,0:0:0:0:
448,192,202103,1,0,0:0:0:0:
64,192,202157,1,0,0:0:0:0:
320,192,202211,1,0,0:0:0:0:
192,192,202265,1,0,0:0:0:0:
448,192,202346,1,0,0:0:0:0:
64,192,202427,1,0,0:0:0:0:
320,192,202427,1,0,0:0:0:0:
448,192,202481,1,0,0:0:0:0:
192,192,202535,1,0,0:0:0:0:
320,192,202589,1,0,0:0:0:0:
64,192,202670,1,0,0:0:0:0:
448,192,202751,1,0,0:0:0:0:
192,192,202751,1,0,0:0:0:0:
64,192,202805,1,0,0:0:0:0:
320,192,202859,1,0,0:0:0:0:
192,192,202913,1,0,0:0:0:0:
448,192,202994,1,0,0:0:0:0:
320,192,203076,1,0,0:0:0:0:
64,192,203076,1,0,0:0:0:0:
448,192,203130,1,0,0:0:0:0:
192,192,203184,1,0,0:0:0:0:
320,192,203238,1,0,0:0:0:0:
64,192,203319,1,0,0:0:0:0:
192,192,203400,1,0,0:0:0:0:
448,192,203400,1,0,0:0:0:0:
64,192,203454,1,0,0:0:0:0:
320,192,203508,1,0,0:0:0:0:
192,192,203562,1,0,0:0:0:0:
448,192,203643,1,0,0:0:0:0:
64,192,203724,1,0,0:0:0:0:
320,192,203724,1,0,0:0:0:0:
448,192,203778,1,0,0:0:0:0:
192,192,203832,1,0,0:0:0:0:
320,192,203886,1,0,0:0:0:0:
64,192,203967,1,0,0:0:0:0:
448,192,204049,1,0,0:0:0:0:
192,192,204049,1,0,0:0:0:0:
64,192,204103,1,0,0:0:0:0:
320,192,204157,1,0,0:0:0:0:
192,192,204211,1,0,0:0:0:0:
448,192,204292,1,0,0:0:0:0:
320,192,204373,1,0,0:0:0:0:
64,192,204373,1,0,0:0:0:0:
448,192,204427,1,0,0:0:0:0:
192,192,204481,1,0,0:0:0:0:
320,192,204535,1,0,0:0:0:0:
64,192,204616,1,0,0:0:0:0:
192,192,204697,1,0,0:0:0:0:
448,192,204697,1,0,0:0:0:0:
64,192,204751,1,0,0:0:0:0:
320,192,204805,1,0,0:0:0:0:
192,192,204859,1,0,0:0:0:0:
448,192,204940,1,0,0:0:0:0:
64,192,205021,1,0,0:0:0:0:
320,192,205021,1,0,0:0:0:0:
448,192,205076,1,0,0:0:0:0:
192,192,205130,1,0,0:0:0:0:
320,192,205184,1,0,0:0:0:0:
64,192,205265,1,0,0:0:0:0:
448,192,205346,1,0,0:0:0:0:
192,192,205346,1,0,0:0:0:0:
64,192,205400,1,0,0:0:0:0:
320,192,205454,1,0,0:0:0:0:
192,192,205508,1,0,0:0:0:0:
448,192,205589,1,0,0:0:0:0:
320,192,205670,1,0,0:0:0:0:
64,192,205670,1,0,0:0:0:0:
448,192,205724,1,0,0:0:0:0:
192,192,205778,1,0,0:0:0:0:
320,192,205832,1,0,0:0:0:0:
64,192,205913,1,0,0:0:0:0:
192,192,205994,1,0,0:0:0:0:
448,192,205994,1,0,0:0:0:0:
64,192,206049,1,0,0:0:0:0:
320,192,206103,1,0,0:0:0:0:
192,192,206157,1,0,0:0:0:0:
448,192,206238,1,0,0:0:0:0:
64,192,206319,1,0,0:0:0:0:
320,192,206319,1,0,0:0:0:0:
448,192,206373,1,0,0:0:0:0:
192,192,206427,1,0,0:0:0:0:
320,192,206481,1,0,0:0:0:0:
64,192,206562,1,0,0:0:0:0:
192,192,206643,1,0,0:0:0:0:
320,192,206643,1,0,0:0:0:0:
448,192,206724,1,0,0:0:0:0:
192,192,206805,1,0,0:0:0:0:
320,192,206886,1,0,0:0:0:0:
64,192,206967,1,0,0:0:0:0:
320,192,207049,1,0,0:0:0:0:
192,192,207130,1,0,0:0:0:0:
448,192,207211,1,0,0:0:0:0:
64,192,207292,1,0,0:0:0:0:
192,192,207292,1,0,0:0:0:0:
320,192,207373,1,0,0:0:0:0:
448,192,207373,1,0,0:0:0:0:
64,192,207454,1,0,0:0:0:0:
448,192,207535,1,0,0:0:0:0:
320,192,207535,1,0,0:0:0:0:
192,192,207616,1,0,0:0:0:0:
64,192,207616,1,0,0:0:0:0:
320,192,207697,1,0,0:0:0:0:
192,192,207778,1,0,0:0:0:0:
64,192,207778,1,0,0:0:0:0:
448,192,207859,1,0,0:0:0:0:
320,192,207859,1,0,0:0:0:0:
192,192,207940,1,0,0:0:0:0:
448,192,208021,1,0,0:0:0:0:
320,192,208021,1,0,0:0:0:0:
64,192,208103,1,0,0:0:0:0:
192,192,208103,1,0,0:0:0:0:
448,192,208184,1,0,0:0:0:0:
64,192,208265,1,0,0:0:0:0:
192,192,208265,1,0,0:0:0:0:
320,192,208346,1,0,0:0:0:0:
448,192,208346,1,0,0:0:0:0:
64,192,208427,1,0,0:0:0:0:
320,192,208508,1,0,0:0:0:0:
448,192,208508,1,0,0:0:0:0:
64,192,208589,1,0,0:0:0:0:
192,192,208589,1,0,0:0:0:0:
320,192,208670,1,0,0:0:0:0:
448,192,208670,1,0,0:0:0:0:
192,192,208751,1,0,0:0:0:0:
320,192,208832,1,0,0:0:0:0:
64,192,208832,1,0,0:0:0:0:
448,192,208913,1,0,0:0:0:0:
192,192,208913,1,0,0:0:0:0:
320,192,208994,1,0,0:0:0:0:
64,192,209076,1,0,0:0:0:0:
192,192,209076,1,0,0:0:0:0:
448,192,209157,1,0,0:0:0:0:
320,192,209157,1,0,0:0:0:0:
192,192,209238,1,0,0:0:0:0:
64,192,209319,1,0,0:0:0:0:
320,192,209319,1,0,0:0:0:0:
192,192,209400,1,0,0:0:0:0:
448,192,209400,1,0,0:0:0:0:
320,192,209481,1,0,0:0:0:0:
192,192,209562,1,0,0:0:0:0:
64,192,209562,1,0,0:0:0:0:
448,192,209643,1,0,0:0:0:0:
320,192,209643,1,0,0:0:0:0:
64,192,209724,1,0,0:0:0:0:
192,192,209805,1,0,0:0:0:0:
448,192,209805,1,0,0:0:0:0:
64,192,209886,1,0,0:0:0:0:
320,192,209886,1,0,0:0:0:0:
192,192,209967,1,0,0:0:0:0:
448,192,209967,1,0,0:0:0:0:
64,192,210049,1,0,0:0:0:0:
448,192,210130,1,0,0:0:0:0:
320,192,210130,1,0,0:0:0:0:
192,192,210211,1,0,0:0:0:0:
64,192,210211,1,0,0:0:0:0:
448,192,210292,1,0,0:0:0:0:
192,192,210373,1,0,0:0:0:0:
64,192,210373,1,0,0:0:0:0:
448,192,210454,1,0,0:0:0:0:
320,192,210454,1,0,0:0:0:0:
192,192,210535,1,0,0:0:0:0:
320,192,210616,1,0,0:0:0:0:
448,192,210616,1,0,0:0:0:0:
64,192,210697,1,0,0:0:0:0:
192,192,210697,1,0,0:0:0:0:
320,192,210778,1,0,0:0:0:0:
192,192,210859,1,0,0:0:0:0:
64,192,210859,1,0,0:0:0:0:
448,192,210940,1,0,0:0:0:0:
320,192,210940,1,0,0:0:0:0:
64,192,211021,1,0,0:0:0:0:
448,192,211103,1,0,0:0:0:0:
320,192,211103,1,0,0:0:0:0:
192,192,211184,1,0,0:0:0:0:
64,192,211184,1,0,0:0:0:0:
320,192,211265,1,0,0:0:0:0:
448,192,211265,1,0,0:0:0:0:
64,192,211346,1,0,0:0:0:0:
192,192,211427,1,0,0:0:0:0:
320,192,211427,1,0,0:0:0:0:
64,192,211508,1,0,0:0:0:0:
448,192,211508,1,0,0:0:0:0:
320,192,211589,1,0,0:0:0:0:
64,192,211670,1,0,0:0:0:0:
192,192,211670,1,0,0:0:0:0:
320,192,211751,1,0,0:0:0:0:
448,192,211751,1,0,0:0:0:0:
64,192,211832,1,0,0:0:0:0:
192,192,211913,1,0,0:0:0:0:
320,192,211913,1,0,0:0:0:0:
64,192,211994,1,0,0:0:0:0:
448,192,211994,1,0,0:0:0:0:
192,192,212076,1,0,0:0:0:0:
320,192,212157,1,0,0:0:0:0:
448,192,212157,1,0,0:0:0:0:
64,192,212238,1,0,0:0:0:0:
192,192,212238,1,0,0:0:0:0:
320,192,212319,1,0,0:0:0:0:
192,192,212400,1,0,0:0:0:0:
64,192,212400,1,0,0:0:0:0:
448,192,212481,1,0,0:0:0:0:
320,192,212481,1,0,0:0:0:0:
192,192,212562,1,0,0:0:0:0:
64,192,212562,1,0,0:0:0:0:
448,192,212643,1,0,0:0:0:0:
192,192,212724,1,0,0:0:0:0:
64,192,212724,1,0,0:0:0:0:
320,192,212805,1,0,0:0:0:0:
448,192,212805,1,0,0:0:0:0:
192,192,212886,1,0,0:0:0:0:
448,192,212967,1,0,0:0:0:0:
320,192,212967,1,0,0:0:0:0:
64,192,213049,1,0,0:0:0:0:
192,192,213049,1,0,0:0:0:0:
320,192,213130,1,0,0:0:0:0:
64,192,213211,1,0,0:0:0:0:
192,192,213211,1,0,0:0:0:0:
448,192,213292,1,0,0:0:0:0:
320,192,213292,1,0,0:0:0:0:
64,192,213373,1,0,0:0:0:0:
448,192,213454,1,0,0:0:0:0:
320,192,213454,1,0,0:0:0:0:
192,192,213535,1,0,0:0:0:0:
64,192,213535,1,0,0:0:0:0:
448,192,213616,1,0,0:0:0:0:
192,192,213697,1,0,0:0:0:0:
64,192,213697,1,0,0:0:0:0:
448,192,213778,1,0,0:0:0:0:
320,192,213778,1,0,0:0:0:0:
192,192,213859,1,0,0:0:0:0:
64,192,213859,1,0,0:0:0:0:
320,192,213940,1,0,0:0:0:0:
448,192,214021,1,0,0:0:0:0:
192,192,214021,1,0,0:0:0:0:
320,192,214103,1,0,0:0:0:0:
64,192,214103,1,0,0:0:0:0:
192,192,214184,1,0,0:0:0:0:
448,192,214265,1,0,0:0:0:0:
320,192,214265,1,0,0:0:0:0:
192,192,214346,1,0,0:0:0:0:
64,192,214346,1,0,0:0:0:0:
320,192,214427,1,0,0:0:0:0:
192,192,214508,1,0,0:0:0:0:
448,192,214508,1,0,0:0:0:0:
320,192,214589,1,0,0:0:0:0:
64,192,214589,1,0,0:0:0:0:
192,192,214670,1,0,0:0:0:0:
448,192,214751,1,0,0:0:0:0:
320,192,214751,1,0,0:0:0:0:
64,192,214832,1,0,0:0:0:0:
192,192,214832,1,0,0:0:0:0:
448,192,214913,1,0,0:0:0:0:
320,192,214994,1,0,0:0:0:0:
64,192,214994,1,0,0:0:0:0:
448,192,215076,1,0,0:0:0:0:
192,192,215076,1,0,0:0:0:0:
320,192,215157,1,0,0:0:0:0:
64,192,215157,1,0,0:0:0:0:
448,192,215238,1,0,0:0:0:0:
64,192,215319,1,0,0:0:0:0:
192,192,215319,1,0,0:0:0:0:
448,192,215400,1,0,0:0:0:0:
320,192,215400,1,0,0:0:0:0:
64,192,215481,1,0,0:0:0:0:
320,192,215562,1,0,0:0:0:0:
448,192,215562,1,0,0:0:0:0:
192,192,215643,1,0,0:0:0:0:
64,192,215643,1,0,0:0:0:0:
320,192,215724,1,0,0:0:0:0:
64,192,215805,1,0,0:0:0:0:
192,192,215805,1,0,0:0:0:0:
320,192,215886,1,0,0:0:0:0:
448,192,215886,1,0,0:0:0:0:
192,192,215967,1,0,0:0:0:0:
448,192,216049,1,0,0:0:0:0:
320,192,216049,1,0,0:0:0:0:
64,192,216130,1,0,0:0:0:0:
192,192,216130,1,0,0:0:0:0:
448,192,216211,1,0,0:0:0:0:
64,192,216292,1,0,0:0:0:0:
192,192,216292,1,0,0:0:0:0:
448,192,216373,1,0,0:0:0:0:
320,192,216373,1,0,0:0:0:0:
64,192,216454,1,0,0:0:0:0:
192,192,216454,1,0,0:0:0:0:
448,192,216535,1,0,0:0:0:0:
320,192,216616,1,0,0:0:0:0:
192,192,216616,1,0,0:0:0:0:
64,192,216697,1,0,0:0:0:0:
448,192,216697,1,0,0:0:0:0:
192,192,216778,1,0,0:0:0:0:
320,192,216859,1,0,0:0:0:0:
448,192,216859,1,0,0:0:0:0:
192,192,216940,1,0,0:0:0:0:
64,192,216940,1,0,0:0:0:0:
448,192,217021,1,0,0:0:0:0:
320,192,217103,1,0,0:0:0:0:
192,192,217103,1,0,0:0:0:0:
64,192,217184,1,0,0:0:0:0:
448,192,217184,1,0,0:0:0:0:
192,192,217265,1,0,0:0:0:0:
320,192,217265,1,0,0:0:0:0:
192,192,217670,1,0,0:0:0:0:
64,192,217670,128,0,217711:0:0:0:0:
320,192,217751,1,0,0:0:0:0:
448,192,217751,1,0,0:0:0:0:
64,192,217832,1,0,0:0:0:0:
448,192,217913,1,0,0:0:0:0:
320,192,217913,128,0,217954:0:0:0:0:
192,192,217994,1,0,0:0:0:0:
64,192,217994,1,0,0:0:0:0:
320,192,218076,1,0,0:0:0:0:
64,192,218157,1,0,0:0:0:0:
192,192,218157,128,0,218197:0:0:0:0:
448,192,218238,1,0,0:0:0:0:
320,192,218238,1,0,0:0:0:0:
192,192,218319,1,0,0:0:0:0:
320,192,218400,1,0,0:0:0:0:
448,192,218400,128,0,218440:0:0:0:0:
192,192,218481,1,0,0:0:0:0:
64,192,218481,1,0,0:0:0:0:
448,192,218562,1,0,0:0:0:0:
192,192,218643,1,0,0:0:0:0:
64,192,218643,128,0,218684:0:0:0:0:
448,192,218724,1,0,0:0:0:0:
320,192,218724,1,0,0:0:0:0:
64,192,218805,1,0,0:0:0:0:
448,192,218886,1,0,0:0:0:0:
320,192,218886,128,0,218927:0:0:0:0:
192,192,218967,1,0,0:0:0:0:
64,192,218967,1,0,0:0:0:0:
320,192,219049,1,0,0:0:0:0:
448,192,219049,1,0,0:0:0:0:
64,192,219130,128,0,219170:0:0:0:0:
448,192,219211,1,0,0:0:0:0:
192,192,219211,1,0,0:0:0:0:
64,192,219292,1,0,0:0:0:0:
320,192,219292,1,0,0:0:0:0:
192,192,219373,128,0,219413:0:0:0:0:
320,192,219454,1,0,0:0:0:0:
448,192,219454,1,0,0:0:0:0:
64,192,219535,1,0,0:0:0:0:
192,192,219535,1,0,0:0:0:0:
448,192,219616,128,0,219657:0:0:0:0:
320,192,219697,1,0,0:0:0:0:
64,192,219697,1,0,0:0:0:0:
192,192,219778,1,0,0:0:0:0:
448,192,219778,1,0,0:0:0:0:
320,192,219859,128,0,219900:0:0:0:0:
192,192,219940,1,0,0:0:0:0:
64,192,219940,1,0,0:0:0:0:
448,192,220021,1,0,0:0:0:0:
320,192,220021,1,0,0:0:0:0:
64,192,220103,128,0,220143:0:0:0:0:
192,192,220184,1,0,0:0:0:0:
448,192,220184,1,0,0:0:0:0:
320,192,220265,1,0,0:0:0:0:
64,192,220265,1,0,0:0:0:0:
448,192,220346,1,0,0:0:0:0:
192,192,220346,1,0,0:0:0:0:
320,192,220427,1,0,0:0:0:0:
192,192,220508,1,0,0:0:0:0:
64,192,220508,1,0,0:0:0:0:
448,192,220589,1,0,0:0:0:0:
320,192,220589,1,0,0:0:0:0:
192,192,220670,1,0,0:0:0:0:
448,192,220751,1,0,0:0:0:0:
320,192,220751,1,0,0:0:0:0:
192,192,220832,1,0,0:0:0:0:
64,192,220832,1,0,0:0:0:0:
320,192,220913,1,0,0:0:0:0:
64,192,220994,1,0,0:0:0:0:
192,192,220994,1,0,0:0:0:0:
448,192,221076,1,0,0:0:0:0:
320,192,221076,1,0,0:0:0:0:
64,192,221157,1,0,0:0:0:0:
320,192,221238,1,0,0:0:0:0:
448,192,221238,1,0,0:0:0:0:
64,192,221319,1,0,0:0:0:0:
192,192,221319,1,0,0:0:0:0:
448,192,221400,1,0,0:0:0:0:
64,192,221481,1,0,0:0:0:0:
192,192,221481,1,0,0:0:0:0:
448,192,221562,1,0,0:0:0:0:
320,192,221562,1,0,0:0:0:0:
64,192,221643,1,0,0:0:0:0:
192,192,221643,1,0,0:0:0:0:
320,192,221724,1,0,0:0:0:0:
448,192,221805,1,0,0:0:0:0:
192,192,221805,1,0,0:0:0:0:
320,192,221886,1,0,0:0:0:0:
64,192,221886,1,0,0:0:0:0:
448,192,221967,1,0,0:0:0:0:
192,192,222049,1,0,0:0:0:0:
64,192,222049,1,0,0:0:0:0:
320,192,222130,1,0,0:0:0:0:
448,192,222130,1,0,0:0:0:0:
192,192,222211,1,0,0:0:0:0:
64,192,222292,1,0,0:0:0:0:
320,192,222292,1,0,0:0:0:0:
192,192,222373,1,0,0:0:0:0:
448,192,222373,1,0,0:0:0:0:
64,192,222454,1,0,0:0:0:0:
448,192,222535,1,0,0:0:0:0:
320,192,222535,1,0,0:0:0:0:
192,192,222616,1,0,0:0:0:0:
64,192,222616,1,0,0:0:0:0:
448,192,222697,1,0,0:0:0:0:
192,192,222778,1,0,0:0:0:0:
64,192,222778,1,0,0:0:0:0:
448,192,222859,1,0,0:0:0:0:
320,192,222859,1,0,0:0:0:0:
64,192,222940,1,0,0:0:0:0:
192,192,222940,1,0,0:0:0:0:
448,192,223021,1,0,0:0:0:0:
192,192,223103,1,0,0:0:0:0:
64,192,223103,1,0,0:0:0:0:
320,192,223184,1,0,0:0:0:0:
448,192,223184,1,0,0:0:0:0:
192,192,223265,1,0,0:0:0:0:
448,192,223346,1,0,0:0:0:0:
320,192,223346,1,0,0:0:0:0:
192,192,223427,1,0,0:0:0:0:
64,192,223427,1,0,0:0:0:0:
320,192,223508,1,0,0:0:0:0:
64,192,223589,1,0,0:0:0:0:
192,192,223589,1,0,0:0:0:0:
448,192,223670,1,0,0:0:0:0:
320,192,223670,1,0,0:0:0:0:
64,192,223751,1,0,0:0:0:0:
320,192,223832,1,0,0:0:0:0:
448,192,223832,1,0,0:0:0:0:
192,192,223913,1,0,0:0:0:0:
64,192,223913,1,0,0:0:0:0:
448,192,223994,1,0,0:0:0:0:
64,192,224076,1,0,0:0:0:0:
192,192,224076,1,0,0:0:0:0:
320,192,224157,1,0,0:0:0:0:
448,192,224157,1,0,0:0:0:0:
64,192,224238,1,0,0:0:0:0:
192,192,224238,1,0,0:0:0:0:
320,192,224319,1,0,0:0:0:0:
64,192,224400,1,0,0:0:0:0:
192,192,224400,1,0,0:0:0:0:
320,192,224481,1,0,0:0:0:0:
448,192,224481,1,0,0:0:0:0:
192,192,224562,1,0,0:0:0:0:
320,192,224643,1,0,0:0:0:0:
448,192,224643,1,0,0:0:0:0:
192,192,224724,1,0,0:0:0:0:
64,192,224724,1,0,0:0:0:0:
448,192,224805,1,0,0:0:0:0:
192,192,224886,1,0,0:0:0:0:
64,192,224886,1,0,0:0:0:0:
320,192,224967,1,0,0:0:0:0:
448,192,224967,1,0,0:0:0:0:
64,192,225049,1,0,0:0:0:0:
448,192,225130,1,0,0:0:0:0:
320,192,225130,1,0,0:0:0:0:
64,192,225211,1,0,0:0:0:0:
192,192,225211,1,0,0:0:0:0:
320,192,225292,1,0,0:0:0:0:
64,192,225373,1,0,0:0:0:0:
192,192,225373,1,0,0:0:0:0:
448,192,225454,1,0,0:0:0:0:
320,192,225454,1,0,0:0:0:0:
192,192,225535,1,0,0:0:0:0:
64,192,225535,1,0,0:0:0:0:
448,192,225616,1,0,0:0:0:0:
320,192,225616,1,0,0:0:0:0:
64,192,225697,1,0,0:0:0:0:
192,192,225697,1,0,0:0:0:0:
320,192,225778,1,0,0:0:0:0:
448,192,225778,1,0,0:0:0:0:
192,192,225859,1,0,0:0:0:0:
64,192,225859,1,0,0:0:0:0:
448,192,225940,1,0,0:0:0:0:
320,192,225940,1,0,0:0:0:0:
64,192,226021,1,0,0:0:0:0:
192,192,226021,1,0,0:0:0:0:
320,192,226103,1,0,0:0:0:0:
448,192,226103,1,0,0:0:0:0:
64,192,226184,1,0,0:0:0:0:
192,192,226184,1,0,0:0:0:0:
320,192,226265,1,0,0:0:0:0:
448,192,226265,1,0,0:0:0:0:
64,192,226346,1,0,0:0:0:0:
192,192,226346,1,0,0:0:0:0:
448,192,226427,1,0,0:0:0:0:
320,192,226427,1,0,0:0:0:0:
64,192,226508,1,0,0:0:0:0:
192,192,226508,1,0,0:0:0:0:
320,192,226589,1,0,0:0:0:0:
448,192,226589,1,0,0:0:0:0:
192,192,226670,1,0,0:0:0:0:
64,192,226670,1,0,0:0:0:0:
448,192,226751,1,0,0:0:0:0:
320,192,226751,1,0,0:0:0:0:
192,192,226832,1,0,0:0:0:0:
64,192,226832,1,0,0:0:0:0:
448,192,226913,1,0,0:0:0:0:
320,192,226913,1,0,0:0:0:0:
192,192,226994,1,0,0:0:0:0:
64,192,226994,1,0,0:0:0:0:
320,192,227076,1,0,0:0:0:0:
448,192,227076,1,0,0:0:0:0:
192,192,227157,1,0,0:0:0:0:
64,192,227157,1,0,0:0:0:0:
448,192,227238,1,0,0:0:0:0:
320,192,227238,1,0,0:0:0:0:
64,192,227319,1,0,0:0:0:0:
192,192,227319,1,0,0:0:0:0:
192,192,228049,5,0,0:0:0:0:
320,192,228211,1,0,0:0:0:0:
448,192,228373,1,0,0:0:0:0:
320,192,228535,1,0,0:0:0:0:
448,192,228697,128,0,228859:0:0:0:0:
320,192,228859,1,0,0:0:0:0:
64,192,229021,1,0,0:0:0:0:
192,192,229184,1,0,0:0:0:0:
320,192,229346,1,0,0:0:0:0:
192,192,229508,1,0,0:0:0:0:
320,192,229670,128,0,229832:0:0:0:0:
192,192,229832,1,0,0:0:0:0:
64,192,229994,1,0,0:0:0:0:
192,192,230157,1,0,0:0:0:0:
320,192,230319,1,0,0:0:0:0:
448,192,230481,128,0,230643:0:0:0:0:
192,192,230643,1,0,0:0:0:0:
64,192,230643,128,0,230684:0:0:0:0:
320,192,230805,1,0,0:0:0:0:
192,192,230967,1,0,0:0:0:0:
64,192,231130,1,0,0:0:0:0:
320,192,231292,1,0,0:0:0:0:
64,192,231454,1,0,0:0:0:0:
192,192,231616,1,0,0:0:0:0:
320,192,231778,1,0,0:0:0:0:
192,192,231940,1,0,0:0:0:0:
320,192,232103,128,0,232265:0:0:0:0:
448,192,232265,128,0,232427:0:0:0:0:
192,192,232427,128,0,232589:0:0:0:0:
64,192,232589,1,0,0:0:0:0:
448,192,232751,1,0,0:0:0:0:
320,192,232913,128,0,233076:0:0:0:0:
64,192,233076,1,0,0:0:0:0:
192,192,233238,5,0,0:0:0:0:
448,192,233238,128,0,233278:0:0:0:0:
320,192,233400,1,0,0:0:0:0:
448,192,233562,1,0,0:0:0:0:
320,192,233724,1,0,0:0:0:0:
448,192,233886,128,0,234049:0:0:0:0:
320,192,234049,1,0,0:0:0:0:
64,192,234211,1,0,0:0:0:0:
192,192,234373,1,0,0:0:0:0:
320,192,234535,1,0,0:0:0:0:
192,192,234697,1,0,0:0:0:0:
320,192,234859,128,0,235021:0:0:0:0:
192,192,235021,1,0,0:0:0:0:
64,192,235184,1,0,0:0:0:0:
192,192,235346,1,0,0:0:0:0:
320,192,235508,1,0,0:0:0:0:
448,192,235670,128,0,235832:0:0:0:0:
192,192,235832,1,0,0:0:0:0:
320,192,235994,1,0,0:0:0:0:
192,192,236157,1,0,0:0:0:0:
64,192,236319,1,0,0:0:0:0:
320,192,236481,1,0,0:0:0:0:
64,192,236643,1,0,0:0:0:0:
192,192,236805,1,0,0:0:0:0:
320,192,236967,5,0,0:0:0:0:
192,192,237130,1,0,0:0:0:0:
320,192,237292,128,0,237454:0:0:0:0:
448,192,237454,128,0,237616:0:0:0:0:
192,192,237616,128,0,237778:0:0:0:0:
64,192,237778,1,0,0:0:0:0:
448,192,237940,1,0,0:0:0:0:
320,192,238103,128,0,238265:0:0:0:0:
192,192,238265,1,0,0:0:0:0:
