osu file format v14

[General]
AudioFilename: Daiuchuu Stage.mp3
AudioLeadIn: 0
PreviewTime: 21896
Countdown: 0
SampleSet: Soft
StackLeniency: 0.7
Mode: 3
LetterboxInBreaks: 0
SpecialStyle: 0
WidescreenStoryboard: 0

[Editor]
Bookmarks: 29024,29470,84049
DistanceSpacing: 1
BeatDivisor: 4
GridSize: 4
TimelineZoom: 1.5

[Metadata]
Title:Daiuchuu Stage
TitleUnicode:大宇宙ステージ
Artist:Chroma
ArtistUnicode:黒魔
Creator:SanadaYukimura
Version:EXHAUST
Source:SOUND VOLTEX BOOTH
Tags:KAC 2012 ULTIMATE MEDLEY -HISTORIA SOUND VOLTEX- sdvx konami [_S_a_k_u_r_a_] kuroma biemote
BeatmapID:772683
BeatmapSetID:350484

[Difficulty]
HPDrainRate:8
CircleSize:4
OverallDifficulty:8
ApproachRate:5
SliderMultiplier:1.4
SliderTickRate:1

[Events]
//Background and Video events
0,0,"BG.jpg",0,0
//Break Periods
//Storyboard Layer 0 (Background)
//Storyboard Layer 1 (Fail)
//Storyboard Layer 2 (Pass)
//Storyboard Layer 3 (Foreground)
//Storyboard Sound Samples

[TimingPoints]
510,297.029702970297,4,2,1,30,1,0
33777,-100,4,2,1,30,0,1
43282,-100,4,2,1,30,0,0
107440,-100,4,2,1,30,0,1
116945,-100,4,2,1,30,0,0

[HitObjects]
448,192,510,5,0,0:0:0:0:
64,192,584,1,0,0:0:0:0:
320,192,658,1,0,0:0:0:0:
192,192,732,1,0,0:0:0:0:
448,192,807,1,0,0:0:0:0:
64,192,881,1,0,0:0:0:0:
320,192,955,1,0,0:0:0:0:
192,192,1029,1,0,0:0:0:0:
448,192,1104,1,0,0:0:0:0:
64,192,1178,1,0,0:0:0:0:
320,192,1252,1,0,0:0:0:0:
192,192,1326,1,0,0:0:0:0:
448,192,1401,1,0,0:0:0:0:
320,192,1475,1,0,0:0:0:0:
192,192,1549,1,0,0:0:0:0:
64,192,1623,1,0,0:0:0:0:
448,192,1698,1,0,0:0:0:0:
320,192,1772,1,0,0:0:0:0:
192,192,1846,1,0,0:0:0:0:
448,192,1920,1,0,0:0:0:0:
64,192,1995,1,0,0:0:0:0:
320,192,2069,1,0,0:0:0:0:
192,192,2143,1,0,0:0:0:0:
448,192,2217,1,0,0:0:0:0:
320,192,2292,1,0,0:0:0:0:
192,192,2366,1,0,0:0:0:0:
64,192,2440,1,0,0:0:0:0:
192,192,2514,1,0,0:0:0:0:
320,192,2589,1,0,0:0:0:0:
448,192,2663,1,0,0:0:0:0:
320,192,2737,1,0,0:0:0:0:
192,192,2811,1,0,0:0:0:0:
64,192,2886,1,0,0:0:0:0:
320,192,2886,1,4,0:0:0:0:
448,192,2886,1,0,0:0:0:0:
64,192,3628,1,0,0:0:0:0:
320,192,3703,1,0,0:0:0:0:
64,192,3777,1,0,0:0:0:0:
320,192,3851,1,0,0:0:0:0:
64,192,3925,1,0,0:0:0:0:
448,192,3925,1,4,0:0:0:0:
192,192,3925,1,0,0:0:0:0:
448,192,4074,1,0,0:0:0:0:
64,192,4074,1,4,0:0:0:0:
320,192,4074,1,0,0:0:0:0:
192,192,4816,128,4,5262:0:0:0:0:
448,192,4816,128,0,5262:0:0:0:0:
320,192,5262,1,0,0:0:0:0:
64,192,5262,1,4,0:0:0:0:
448,192,6005,1,0,0:0:0:0:
192,192,6079,1,0,0:0:0:0:
448,192,6153,1,0,0:0:0:0:
192,192,6227,1,0,0:0:0:0:
320,192,6302,1,4,0:0:0:0:
448,192,6302,1,0,0:0:0:0:
64,192,6302,1,0,0:0:0:0:
448,192,6450,1,0,0:0:0:0:
64,192,6450,1,4,0:0:0:0:
192,192,6450,1,0,0:0:0:0:
64,192,7193,128,4,7638:0:0:0:0:
320,192,7193,128,0,7638:0:0:0:0:
192,192,7638,1,4,0:0:0:0:
448,192,7638,1,0,0:0:0:0:
320,192,7787,1,0,0:0:0:0:
64,192,7935,1,0,0:0:0:0:
448,192,7935,1,0,0:0:0:0:
192,192,8084,1,0,0:0:0:0:
320,192,8158,1,0,0:0:0:0:
448,192,8232,1,0,0:0:0:0:
64,192,8307,1,0,0:0:0:0:
192,192,8381,1,0,0:0:0:0:
320,192,8455,1,0,0:0:0:0:
192,192,8529,1,0,0:0:0:0:
64,192,8529,1,0,0:0:0:0:
448,192,8678,1,4,0:0:0:0:
320,192,8678,1,0,0:0:0:0:
64,192,8678,1,0,0:0:0:0:
64,192,8826,1,4,0:0:0:0:
192,192,8826,1,0,0:0:0:0:
448,192,8826,1,0,0:0:0:0:
320,192,8901,1,0,0:0:0:0:
192,192,8975,1,0,0:0:0:0:
64,192,9123,1,0,0:0:0:0:
320,192,9123,1,0,0:0:0:0:
448,192,9272,1,0,0:0:0:0:
64,192,9346,1,0,0:0:0:0:
320,192,9346,1,0,0:0:0:0:
192,192,9495,1,0,0:0:0:0:
64,192,9569,1,4,0:0:0:0:
448,192,9569,128,0,10014:0:0:0:0:
320,192,10014,1,4,0:0:0:0:
64,192,10014,1,0,0:0:0:0:
192,192,10163,1,0,0:0:0:0:
320,192,10237,1,0,0:0:0:0:
448,192,10311,1,0,0:0:0:0:
448,192,10410,1,0,0:0:0:0:
448,192,10510,1,0,0:0:0:0:
64,192,10609,1,0,0:0:0:0:
320,192,10683,1,0,0:0:0:0:
192,192,10683,1,0,0:0:0:0:
448,192,10757,1,0,0:0:0:0:
64,192,10831,1,0,0:0:0:0:
192,192,10906,1,0,0:0:0:0:
320,192,10980,1,0,0:0:0:0:
64,192,11054,1,4,0:0:0:0:
448,192,11054,1,0,0:0:0:0:
192,192,11054,1,0,0:0:0:0:
320,192,11203,1,4,0:0:0:0:
64,192,11203,1,0,0:0:0:0:
192,192,11277,1,0,0:0:0:0:
448,192,11425,1,0,0:0:0:0:
320,192,11500,1,0,0:0:0:0:
64,192,11500,1,0,0:0:0:0:
64,192,11648,1,0,0:0:0:0:
192,192,11722,1,0,0:0:0:0:
448,192,11722,1,0,0:0:0:0:
448,192,11871,1,0,0:0:0:0:
320,192,11945,1,0,0:0:0:0:
64,192,11945,128,0,12391:0:0:0:0:
192,192,11945,1,4,0:0:0:0:
448,192,12094,1,0,0:0:0:0:
320,192,12168,1,0,0:0:0:0:
192,192,12242,1,0,0:0:0:0:
320,192,12316,1,0,0:0:0:0:
448,192,12391,1,4,0:0:0:0:
192,192,12391,1,0,0:0:0:0:
320,192,12539,1,0,0:0:0:0:
192,192,12688,1,8,0:0:0:0:
448,192,12688,1,0,0:0:0:0:
64,192,12836,1,0,0:0:0:0:
320,192,12910,1,0,0:0:0:0:
64,192,12985,1,0,0:0:0:0:
448,192,13059,1,0,0:0:0:0:
320,192,13133,1,0,0:0:0:0:
192,192,13208,1,0,0:0:0:0:
448,192,13282,1,8,0:0:0:0:
64,192,13282,1,0,0:0:0:0:
64,192,13430,1,4,0:0:0:0:
192,192,13430,1,0,0:0:0:0:
448,192,13430,1,0,0:0:0:0:
64,192,13579,1,4,0:0:0:0:
320,192,13579,1,0,0:0:0:0:
448,192,13579,1,0,0:0:0:0:
192,192,13653,1,0,0:0:0:0:
320,192,13727,1,0,0:0:0:0:
64,192,13876,1,8,0:0:0:0:
192,192,13876,1,0,0:0:0:0:
448,192,14024,1,0,0:0:0:0:
320,192,14099,1,0,0:0:0:0:
192,192,14099,1,0,0:0:0:0:
64,192,14247,1,0,0:0:0:0:
448,192,14321,1,4,0:0:0:0:
320,192,14321,128,0,14767:0:0:0:0:
192,192,14470,1,0,0:0:0:0:
64,192,14470,1,0,0:0:0:0:
64,192,14767,1,4,0:0:0:0:
448,192,14767,1,0,0:0:0:0:
192,192,14915,1,0,0:0:0:0:
320,192,14990,1,0,0:0:0:0:
64,192,15064,1,8,0:0:0:0:
448,192,15064,1,0,0:0:0:0:
192,192,15138,1,0,0:0:0:0:
320,192,15212,1,0,0:0:0:0:
192,192,15287,1,0,0:0:0:0:
448,192,15361,1,0,0:0:0:0:
320,192,15435,1,0,0:0:0:0:
192,192,15510,1,0,0:0:0:0:
64,192,15584,1,0,0:0:0:0:
448,192,15658,1,0,0:0:0:0:
320,192,15658,1,8,0:0:0:0:
192,192,15807,1,4,0:0:0:0:
448,192,15807,1,0,0:0:0:0:
64,192,15807,1,0,0:0:0:0:
448,192,15955,1,0,0:0:0:0:
320,192,15955,1,4,0:0:0:0:
64,192,15955,1,0,0:0:0:0:
192,192,16029,1,0,0:0:0:0:
320,192,16104,1,0,0:0:0:0:
448,192,16178,1,0,0:0:0:0:
192,192,16252,1,8,0:0:0:0:
64,192,16252,1,0,0:0:0:0:
448,192,16401,1,0,0:0:0:0:
320,192,16475,1,0,0:0:0:0:
192,192,16475,1,8,0:0:0:0:
64,192,16623,1,0,0:0:0:0:
192,192,16698,1,0,0:0:0:0:
320,192,16698,1,4,0:0:0:0:
448,192,16698,128,0,17143:0:0:0:0:
64,192,16846,1,0,0:0:0:0:
192,192,16920,1,0,0:0:0:0:
320,192,16995,1,0,0:0:0:0:
192,192,17069,1,0,0:0:0:0:
64,192,17143,1,4,0:0:0:0:
320,192,17143,1,0,0:0:0:0:
192,192,17292,1,0,0:0:0:0:
448,192,17440,1,8,0:0:0:0:
64,192,17440,1,0,0:0:0:0:
192,192,17589,1,0,0:0:0:0:
320,192,17663,1,0,0:0:0:0:
448,192,17737,1,0,0:0:0:0:
192,192,17811,1,0,0:0:0:0:
320,192,17886,1,0,0:0:0:0:
64,192,17960,1,0,0:0:0:0:
192,192,18034,1,8,0:0:0:0:
448,192,18034,1,0,0:0:0:0:
320,192,18109,1,0,0:0:0:0:
192,192,18183,1,4,0:0:0:0:
64,192,18183,1,0,0:0:0:0:
448,192,18183,1,0,0:0:0:0:
448,192,18331,1,0,0:0:0:0:
320,192,18331,1,4,0:0:0:0:
64,192,18331,1,0,0:0:0:0:
192,192,18406,1,0,0:0:0:0:
64,192,18480,1,0,0:0:0:0:
192,192,18628,1,0,0:0:0:0:
448,192,18628,1,8,0:0:0:0:
448,192,18777,1,0,0:0:0:0:
320,192,18851,1,8,0:0:0:0:
64,192,18851,1,0,0:0:0:0:
64,192,19000,1,0,0:0:0:0:
448,192,19074,128,0,19519:0:0:0:0:
192,192,19074,1,4,0:0:0:0:
320,192,19222,1,0,0:0:0:0:
64,192,19222,1,0,0:0:0:0:
64,192,19519,1,0,0:0:0:0:
320,192,19519,1,4,0:0:0:0:
192,192,19594,1,0,0:0:0:0:
320,192,19668,1,0,0:0:0:0:
448,192,19742,1,0,0:0:0:0:
320,192,19816,1,0,0:0:0:0:
192,192,19891,1,0,0:0:0:0:
64,192,19965,1,0,0:0:0:0:
320,192,20039,1,0,0:0:0:0:
192,192,20113,1,0,0:0:0:0:
320,192,20188,1,0,0:0:0:0:
448,192,20262,1,0,0:0:0:0:
64,192,20336,1,0,0:0:0:0:
192,192,20410,1,0,0:0:0:0:
320,192,20485,1,0,0:0:0:0:
64,192,20559,1,4,0:0:0:0:
448,192,20559,1,0,0:0:0:0:
192,192,20633,1,0,0:0:0:0:
320,192,20708,1,4,0:0:0:0:
448,192,20708,1,0,0:0:0:0:
64,192,20782,1,0,0:0:0:0:
192,192,20856,1,0,0:0:0:0:
448,192,20930,1,0,0:0:0:0:
320,192,21005,1,0,0:0:0:0:
192,192,21079,1,0,0:0:0:0:
320,192,21153,1,0,0:0:0:0:
64,192,21227,1,0,0:0:0:0:
192,192,21302,1,0,0:0:0:0:
320,192,21376,1,0,0:0:0:0:
448,192,21450,1,0,0:0:0:0:
192,192,21450,1,4,0:0:0:0:
64,192,21524,1,0,0:0:0:0:
192,192,21599,1,0,0:0:0:0:
320,192,21673,1,0,0:0:0:0:
448,192,21747,1,0,0:0:0:0:
320,192,21821,1,0,0:0:0:0:
192,192,21896,1,4,0:0:0:0:
448,192,21896,1,0,0:0:0:0:
64,192,21896,128,0,23084:0:0:0:0:
448,192,23084,1,0,0:0:0:0:
320,192,23084,1,8,0:0:0:0:
192,192,23183,1,8,0:0:0:0:
64,192,23183,1,0,0:0:0:0:
320,192,23282,1,8,0:0:0:0:
448,192,23282,1,0,0:0:0:0:
192,192,23381,1,8,0:0:0:0:
64,192,23381,1,0,0:0:0:0:
320,192,23480,1,8,0:0:0:0:
448,192,23480,1,0,0:0:0:0:
192,192,23579,1,8,0:0:0:0:
64,192,23579,1,8,0:0:0:0:
448,192,23678,1,8,0:0:0:0:
320,192,23678,1,0,0:0:0:0:
192,192,23777,1,8,0:0:0:0:
64,192,23777,1,0,0:0:0:0:
320,192,23876,1,8,0:0:0:0:
448,192,23876,1,0,0:0:0:0:
192,192,23975,1,8,0:0:0:0:
64,192,23975,1,0,0:0:0:0:
320,192,24074,1,8,0:0:0:0:
448,192,24074,1,0,0:0:0:0:
192,192,24173,1,8,0:0:0:0:
64,192,24173,1,0,0:0:0:0:
64,192,24272,1,8,0:0:0:0:
320,192,24272,1,0,0:0:0:0:
448,192,24272,1,0,0:0:0:0:
320,192,24495,1,0,0:0:0:0:
192,192,24569,1,0,0:0:0:0:
64,192,24569,1,8,0:0:0:0:
448,192,24717,1,0,0:0:0:0:
192,192,24866,1,0,0:0:0:0:
320,192,25014,1,0,0:0:0:0:
64,192,25163,1,8,0:0:0:0:
448,192,25163,1,0,0:0:0:0:
192,192,25311,1,0,0:0:0:0:
320,192,25311,1,4,0:0:0:0:
448,192,25311,1,0,0:0:0:0:
64,192,25460,1,4,0:0:0:0:
320,192,25460,1,0,0:0:0:0:
192,192,25460,1,0,0:0:0:0:
448,192,25609,1,0,0:0:0:0:
192,192,25757,1,8,0:0:0:0:
64,192,25757,1,0,0:0:0:0:
320,192,25906,1,0,0:0:0:0:
64,192,26054,1,0,0:0:0:0:
192,192,26203,1,4,0:0:0:0:
448,192,26203,1,0,0:0:0:0:
320,192,26203,1,0,0:0:0:0:
448,192,26351,1,8,0:0:0:0:
64,192,26351,1,0,0:0:0:0:
192,192,26500,1,0,0:0:0:0:
64,192,26648,1,4,0:0:0:0:
448,192,26648,1,0,0:0:0:0:
320,192,26797,1,0,0:0:0:0:
192,192,26945,1,0,0:0:0:0:
64,192,26945,1,8,0:0:0:0:
448,192,27094,1,0,0:0:0:0:
320,192,27242,1,0,0:0:0:0:
192,192,27391,1,0,0:0:0:0:
320,192,27539,1,8,0:0:0:0:
64,192,27539,1,0,0:0:0:0:
192,192,27688,1,4,0:0:0:0:
448,192,27688,1,0,0:0:0:0:
64,192,27688,1,0,0:0:0:0:
192,192,27836,1,4,0:0:0:0:
320,192,27836,1,0,0:0:0:0:
448,192,27836,1,0,0:0:0:0:
64,192,27985,1,0,0:0:0:0:
320,192,28133,1,8,0:0:0:0:
448,192,28133,1,0,0:0:0:0:
192,192,28282,1,0,0:0:0:0:
320,192,28430,1,0,0:0:0:0:
448,192,28579,1,4,0:0:0:0:
64,192,28579,1,0,0:0:0:0:
192,192,28579,1,0,0:0:0:0:
192,192,28727,1,8,0:0:0:0:
320,192,28727,1,0,0:0:0:0:
448,192,29024,1,4,0:0:0:0:
320,192,29024,1,0,0:0:0:0:
64,192,29024,1,0,0:0:0:0:
448,192,29173,1,0,0:0:0:0:
320,192,29321,1,8,0:0:0:0:
64,192,29321,1,0,0:0:0:0:
192,192,29470,1,0,0:0:0:0:
320,192,29618,1,0,0:0:0:0:
64,192,29767,1,0,0:0:0:0:
448,192,29915,1,0,0:0:0:0:
192,192,29915,1,8,0:0:0:0:
320,192,30064,1,4,0:0:0:0:
448,192,30064,1,0,0:0:0:0:
64,192,30064,1,0,0:0:0:0:
64,192,30212,1,4,0:0:0:0:
192,192,30212,1,0,0:0:0:0:
320,192,30212,1,0,0:0:0:0:
448,192,30361,1,0,0:0:0:0:
320,192,30509,1,8,0:0:0:0:
192,192,30509,1,0,0:0:0:0:
64,192,30658,1,0,0:0:0:0:
320,192,30807,1,0,0:0:0:0:
448,192,30955,1,0,0:0:0:0:
192,192,30955,1,4,0:0:0:0:
64,192,30955,1,0,0:0:0:0:
64,192,31104,1,8,0:0:0:0:
320,192,31104,1,0,0:0:0:0:
192,192,31252,1,0,0:0:0:0:
64,192,31401,1,4,0:0:0:0:
448,192,31401,1,0,0:0:0:0:
192,192,31401,1,0,0:0:0:0:
320,192,31549,1,0,0:0:0:0:
192,192,31698,1,8,0:0:0:0:
448,192,31698,1,0,0:0:0:0:
64,192,31846,1,0,0:0:0:0:
320,192,31995,1,0,0:0:0:0:
192,192,32143,1,0,0:0:0:0:
448,192,32292,1,8,0:0:0:0:
320,192,32292,1,0,0:0:0:0:
64,192,32440,1,4,0:0:0:0:
192,192,32440,1,0,0:0:0:0:
448,192,32440,1,0,0:0:0:0:
320,192,32589,5,4,0:0:0:0:
192,192,32589,1,0,0:0:0:0:
64,192,32589,1,0,0:0:0:0:
448,192,32737,1,0,0:0:0:0:
64,192,32886,1,8,0:0:0:0:
320,192,32886,1,0,0:0:0:0:
192,192,33034,1,0,0:0:0:0:
320,192,33183,1,0,0:0:0:0:
64,192,33331,1,8,0:0:0:0:
192,192,33331,1,0,0:0:0:0:
192,192,33480,1,8,0:0:0:0:
320,192,33480,1,0,0:0:0:0:
64,192,33554,1,0,0:0:0:0:
320,192,33628,1,8,0:0:0:0:
448,192,33628,1,0,0:0:0:0:
192,192,33703,1,0,0:0:0:0:
64,192,33777,1,4,0:0:0:0:
448,192,33777,1,8,0:0:0:0:
320,192,33777,1,0,0:0:0:0:
192,192,33851,1,0,0:0:0:0:
64,192,33925,1,0,0:0:0:0:
448,192,34000,1,0,0:0:0:0:
320,192,34074,1,8,0:0:0:0:
64,192,34074,1,0,0:0:0:0:
192,192,34148,1,0,0:0:0:0:
320,192,34222,1,0,0:0:0:0:
448,192,34297,1,0,0:0:0:0:
192,192,34371,1,0,0:0:0:0:
320,192,34445,1,0,0:0:0:0:
192,192,34519,1,0,0:0:0:0:
64,192,34594,1,0,0:0:0:0:
448,192,34668,1,8,0:0:0:0:
192,192,34668,1,0,0:0:0:0:
320,192,34742,1,0,0:0:0:0:
64,192,34816,1,4,0:0:0:0:
192,192,34816,1,0,0:0:0:0:
448,192,34891,1,0,0:0:0:0:
192,192,34965,1,4,0:0:0:0:
320,192,34965,1,0,0:0:0:0:
64,192,35039,1,0,0:0:0:0:
192,192,35113,1,0,0:0:0:0:
320,192,35188,1,0,0:0:0:0:
448,192,35262,1,0,0:0:0:0:
192,192,35262,1,8,0:0:0:0:
64,192,35336,1,0,0:0:0:0:
192,192,35410,1,0,0:0:0:0:
320,192,35485,1,0,0:0:0:0:
192,192,35559,1,0,0:0:0:0:
448,192,35633,1,0,0:0:0:0:
64,192,35708,1,4,0:0:0:0:
320,192,35708,1,0,0:0:0:0:
192,192,35782,1,0,0:0:0:0:
448,192,35856,1,8,0:0:0:0:
64,192,35856,1,0,0:0:0:0:
320,192,35930,1,0,0:0:0:0:
192,192,36005,1,0,0:0:0:0:
320,192,36079,1,0,0:0:0:0:
64,192,36153,1,4,0:0:0:0:
448,192,36153,1,0,0:0:0:0:
192,192,36227,1,0,0:0:0:0:
320,192,36302,1,0,0:0:0:0:
448,192,36376,1,0,0:0:0:0:
320,192,36450,1,8,0:0:0:0:
64,192,36450,1,0,0:0:0:0:
192,192,36524,1,0,0:0:0:0:
320,192,36599,1,0,0:0:0:0:
448,192,36673,1,0,0:0:0:0:
64,192,36747,1,0,0:0:0:0:
192,192,36821,1,0,0:0:0:0:
320,192,36896,1,0,0:0:0:0:
192,192,36970,1,0,0:0:0:0:
448,192,37044,1,8,0:0:0:0:
64,192,37044,1,0,0:0:0:0:
320,192,37118,1,0,0:0:0:0:
192,192,37193,1,4,0:0:0:0:
64,192,37193,1,0,0:0:0:0:
448,192,37267,1,0,0:0:0:0:
320,192,37341,1,4,0:0:0:0:
192,192,37341,1,0,0:0:0:0:
64,192,37415,1,0,0:0:0:0:
192,192,37490,1,0,0:0:0:0:
320,192,37564,1,0,0:0:0:0:
64,192,37638,1,8,0:0:0:0:
448,192,37638,1,0,0:0:0:0:
192,192,37712,1,0,0:0:0:0:
320,192,37787,1,0,0:0:0:0:
192,192,37861,1,0,0:0:0:0:
448,192,37935,1,0,0:0:0:0:
320,192,38010,1,0,0:0:0:0:
64,192,38084,1,4,0:0:0:0:
192,192,38084,1,0,0:0:0:0:
448,192,38158,1,0,0:0:0:0:
64,192,38232,1,8,0:0:0:0:
320,192,38232,1,0,0:0:0:0:
192,192,38307,1,0,0:0:0:0:
320,192,38381,1,0,0:0:0:0:
448,192,38455,1,0,0:0:0:0:
192,192,38529,1,0,0:0:0:0:
64,192,38529,1,4,0:0:0:0:
320,192,38529,1,0,0:0:0:0:
448,192,38604,1,0,0:0:0:0:
64,192,38678,1,0,0:0:0:0:
192,192,38752,1,0,0:0:0:0:
320,192,38826,1,0,0:0:0:0:
64,192,38826,1,8,0:0:0:0:
448,192,38901,1,0,0:0:0:0:
192,192,38975,1,0,0:0:0:0:
320,192,39049,1,0,0:0:0:0:
448,192,39123,1,0,0:0:0:0:
320,192,39198,1,0,0:0:0:0:
64,192,39272,1,0,0:0:0:0:
192,192,39346,1,0,0:0:0:0:
64,192,39420,1,8,0:0:0:0:
320,192,39420,1,0,0:0:0:0:
448,192,39495,1,0,0:0:0:0:
64,192,39569,1,4,0:0:0:0:
192,192,39569,1,0,0:0:0:0:
320,192,39643,1,0,0:0:0:0:
192,192,39717,1,4,0:0:0:0:
448,192,39717,1,0,0:0:0:0:
64,192,39792,1,0,0:0:0:0:
192,192,39866,1,0,0:0:0:0:
320,192,39940,1,0,0:0:0:0:
64,192,40014,1,8,0:0:0:0:
448,192,40014,1,0,0:0:0:0:
192,192,40089,1,0,0:0:0:0:
320,192,40163,1,0,0:0:0:0:
192,192,40237,1,0,0:0:0:0:
448,192,40311,1,0,0:0:0:0:
320,192,40386,1,0,0:0:0:0:
192,192,40460,1,4,0:0:0:0:
64,192,40460,1,0,0:0:0:0:
320,192,40534,1,0,0:0:0:0:
448,192,40609,1,8,0:0:0:0:
192,192,40609,1,0,0:0:0:0:
64,192,40683,1,0,0:0:0:0:
192,192,40757,1,0,0:0:0:0:
320,192,40831,1,0,0:0:0:0:
64,192,40906,1,4,0:0:0:0:
448,192,40906,1,0,0:0:0:0:
192,192,40980,1,0,0:0:0:0:
320,192,41054,1,0,0:0:0:0:
192,192,41128,1,0,0:0:0:0:
448,192,41203,1,0,0:0:0:0:
64,192,41203,1,8,0:0:0:0:
320,192,41277,1,0,0:0:0:0:
192,192,41351,1,0,0:0:0:0:
448,192,41425,1,0,0:0:0:0:
320,192,41500,1,0,0:0:0:0:
192,192,41574,1,0,0:0:0:0:
64,192,41648,1,0,0:0:0:0:
192,192,41722,1,0,0:0:0:0:
448,192,41797,1,8,0:0:0:0:
320,192,41797,1,0,0:0:0:0:
64,192,41871,1,0,0:0:0:0:
192,192,41945,1,4,0:0:0:0:
320,192,41945,1,0,0:0:0:0:
448,192,42019,1,0,0:0:0:0:
192,192,42094,1,4,0:0:0:0:
64,192,42094,1,0,0:0:0:0:
320,192,42168,1,0,0:0:0:0:
192,192,42242,1,0,0:0:0:0:
320,192,42316,1,0,0:0:0:0:
64,192,42391,1,0,0:0:0:0:
448,192,42391,1,8,0:0:0:0:
192,192,42465,1,0,0:0:0:0:
320,192,42539,1,0,0:0:0:0:
448,192,42613,1,0,0:0:0:0:
320,192,42688,1,0,0:0:0:0:
192,192,42762,1,0,0:0:0:0:
448,192,42836,1,8,0:0:0:0:
64,192,42836,1,0,0:0:0:0:
320,192,42910,1,0,0:0:0:0:
64,192,42985,1,8,0:0:0:0:
192,192,42985,1,0,0:0:0:0:
448,192,43059,1,0,0:0:0:0:
320,192,43133,1,8,0:0:0:0:
64,192,43133,1,0,0:0:0:0:
192,192,43208,1,0,0:0:0:0:
320,192,43282,1,0,0:0:0:0:
64,192,43282,1,0,0:0:0:0:
448,192,43282,1,4,0:0:0:0:
192,192,44024,1,0,0:0:0:0:
320,192,44321,1,0,0:0:0:0:
448,192,44618,128,0,44915:0:0:0:0:
192,192,44915,1,0,0:0:0:0:
64,192,44990,1,0,0:0:0:0:
320,192,45212,1,0,0:0:0:0:
192,192,45658,1,0,0:0:0:0:
64,192,46104,1,0,0:0:0:0:
448,192,46252,1,0,0:0:0:0:
192,192,46351,1,0,0:0:0:0:
320,192,46450,1,0,0:0:0:0:
64,192,46549,1,0,0:0:0:0:
192,192,46648,1,0,0:0:0:0:
320,192,46747,1,0,0:0:0:0:
448,192,46846,1,0,0:0:0:0:
192,192,46920,1,0,0:0:0:0:
64,192,46920,1,0,0:0:0:0:
448,192,47069,1,0,0:0:0:0:
320,192,47143,1,0,0:0:0:0:
192,192,47143,1,0,0:0:0:0:
64,192,47292,1,0,0:0:0:0:
192,192,47366,1,0,0:0:0:0:
320,192,47366,1,0,0:0:0:0:
448,192,47514,1,0,0:0:0:0:
192,192,47589,1,0,0:0:0:0:
64,192,47589,1,0,0:0:0:0:
320,192,47737,1,0,0:0:0:0:
448,192,47737,1,0,0:0:0:0:
64,192,47811,1,0,0:0:0:0:
448,192,47886,1,0,0:0:0:0:
192,192,47886,1,0,0:0:0:0:
320,192,47960,1,0,0:0:0:0:
64,192,48034,1,0,0:0:0:0:
192,192,48034,1,0,0:0:0:0:
320,192,48183,1,0,0:0:0:0:
448,192,48331,1,0,0:0:0:0:
64,192,48331,1,0,0:0:0:0:
192,192,48480,1,0,0:0:0:0:
320,192,48480,1,0,0:0:0:0:
192,192,48777,1,0,0:0:0:0:
448,192,48777,1,0,0:0:0:0:
320,192,48925,1,0,0:0:0:0:
64,192,48925,1,0,0:0:0:0:
64,192,49074,1,0,0:0:0:0:
448,192,49074,1,0,0:0:0:0:
192,192,49371,1,0,0:0:0:0:
448,192,49371,1,0,0:0:0:0:
448,192,49519,1,0,0:0:0:0:
64,192,49519,1,0,0:0:0:0:
64,192,49668,1,0,0:0:0:0:
320,192,49668,1,0,0:0:0:0:
192,192,49816,1,0,0:0:0:0:
448,192,49816,1,0,0:0:0:0:
320,192,49965,1,0,0:0:0:0:
64,192,49965,1,0,0:0:0:0:
192,192,50113,1,0,0:0:0:0:
448,192,50113,1,0,0:0:0:0:
64,192,50262,1,0,0:0:0:0:
448,192,50262,1,0,0:0:0:0:
320,192,50410,1,0,0:0:0:0:
192,192,50410,1,0,0:0:0:0:
192,192,50559,1,0,0:0:0:0:
64,192,50559,1,0,0:0:0:0:
320,192,50708,1,0,0:0:0:0:
448,192,50708,1,0,0:0:0:0:
320,192,50856,1,0,0:0:0:0:
192,192,50856,1,0,0:0:0:0:
448,192,51005,1,0,0:0:0:0:
64,192,51005,1,0,0:0:0:0:
192,192,51079,1,0,0:0:0:0:
320,192,51153,1,0,0:0:0:0:
64,192,51153,1,0,0:0:0:0:
448,192,51227,1,0,0:0:0:0:
320,192,51302,1,0,0:0:0:0:
192,192,51302,1,0,0:0:0:0:
64,192,51376,1,0,0:0:0:0:
192,192,51450,1,0,0:0:0:0:
320,192,51524,1,0,0:0:0:0:
448,192,51599,1,0,0:0:0:0:
320,192,51673,1,0,0:0:0:0:
64,192,51673,1,0,0:0:0:0:
64,192,51821,1,0,0:0:0:0:
448,192,51896,1,0,0:0:0:0:
192,192,51896,1,0,0:0:0:0:
448,192,52044,1,0,0:0:0:0:
320,192,52118,1,0,0:0:0:0:
64,192,52118,1,0,0:0:0:0:
64,192,52341,1,2,0:0:0:0:
192,192,52341,1,0,0:0:0:0:
448,192,52415,1,2,0:0:0:0:
320,192,52415,1,0,0:0:0:0:
192,192,52490,1,2,0:0:0:0:
64,192,52490,1,0,0:0:0:0:
320,192,52564,1,2,0:0:0:0:
448,192,52564,1,0,0:0:0:0:
192,192,52638,1,2,0:0:0:0:
64,192,52638,1,0,0:0:0:0:
320,192,52712,1,2,0:0:0:0:
448,192,52712,1,0,0:0:0:0:
448,192,52787,1,2,0:0:0:0:
192,192,52787,1,4,0:0:0:0:
64,192,52787,1,0,0:0:0:0:
320,192,52935,1,0,0:0:0:0:
64,192,53084,1,0,0:0:0:0:
192,192,53158,1,0,0:0:0:0:
320,192,53232,1,0,0:0:0:0:
64,192,53381,1,0,0:0:0:0:
448,192,53529,1,0,0:0:0:0:
320,192,53604,1,0,0:0:0:0:
192,192,53678,1,0,0:0:0:0:
320,192,53826,1,0,0:0:0:0:
64,192,53975,1,0,0:0:0:0:
192,192,54049,1,0,0:0:0:0:
320,192,54123,1,0,0:0:0:0:
64,192,54272,1,0,0:0:0:0:
448,192,54420,1,0,0:0:0:0:
192,192,54569,1,0,0:0:0:0:
320,192,54643,1,0,0:0:0:0:
448,192,54717,1,0,0:0:0:0:
64,192,54866,1,0,0:0:0:0:
320,192,54866,1,0,0:0:0:0:
192,192,55014,1,0,0:0:0:0:
64,192,55163,1,0,0:0:0:0:
448,192,55163,1,0,0:0:0:0:
320,192,55163,1,0,0:0:0:0:
192,192,55237,1,0,0:0:0:0:
64,192,55311,1,0,0:0:0:0:
448,192,55311,1,0,0:0:0:0:
64,192,55609,1,0,0:0:0:0:
448,192,55609,1,0,0:0:0:0:
192,192,55609,1,0,0:0:0:0:
320,192,55757,1,0,0:0:0:0:
448,192,56054,1,0,0:0:0:0:
320,192,56128,1,0,0:0:0:0:
192,192,56203,1,0,0:0:0:0:
320,192,56500,1,0,0:0:0:0:
64,192,56648,1,0,0:0:0:0:
448,192,56797,1,0,0:0:0:0:
64,192,56945,1,0,0:0:0:0:
192,192,57019,1,0,0:0:0:0:
320,192,57094,1,0,0:0:0:0:
64,192,57168,1,0,0:0:0:0:
192,192,57242,1,0,0:0:0:0:
320,192,57316,1,0,0:0:0:0:
448,192,57391,1,0,0:0:0:0:
320,192,57465,1,0,0:0:0:0:
64,192,57539,1,4,0:0:0:0:
192,192,57539,1,0,0:0:0:0:
448,192,57539,1,0,0:0:0:0:
320,192,57836,1,0,0:0:0:0:
448,192,57836,1,0,0:0:0:0:
192,192,57985,1,0,0:0:0:0:
64,192,57985,1,0,0:0:0:0:
448,192,57985,1,0,0:0:0:0:
320,192,58133,1,0,0:0:0:0:
192,192,58133,1,0,0:0:0:0:
320,192,58282,1,0,0:0:0:0:
64,192,58282,1,4,0:0:0:0:
448,192,58282,128,0,58727:0:0:0:0:
320,192,58727,1,0,0:0:0:0:
64,192,58876,1,0,0:0:0:0:
192,192,59024,1,0,0:0:0:0:
320,192,59173,1,0,0:0:0:0:
448,192,59321,1,0,0:0:0:0:
64,192,59321,1,0,0:0:0:0:
192,192,59470,1,0,0:0:0:0:
320,192,59544,1,0,0:0:0:0:
64,192,59544,1,0,0:0:0:0:
448,192,59618,1,0,0:0:0:0:
64,192,59767,1,0,0:0:0:0:
192,192,59767,1,0,0:0:0:0:
64,192,59915,1,0,0:0:0:0:
320,192,59915,128,0,60212:0:0:0:0:
448,192,59915,128,2,60212:0:0:0:0:
192,192,60361,1,0,0:0:0:0:
64,192,60361,1,0,0:0:0:0:
320,192,60435,1,0,0:0:0:0:
448,192,60510,1,0,0:0:0:0:
64,192,60510,128,2,60807:0:0:0:0:
192,192,60510,128,0,60807:0:0:0:0:
64,192,60955,1,0,0:0:0:0:
448,192,60955,1,0,0:0:0:0:
192,192,61029,1,0,0:0:0:0:
64,192,61104,1,0,0:0:0:0:
320,192,61104,1,0,0:0:0:0:
448,192,61104,1,8,0:0:0:0:
192,192,61203,1,0,0:0:0:0:
320,192,61302,1,0,0:0:0:0:
64,192,61401,1,0,0:0:0:0:
448,192,61401,1,0,0:0:0:0:
192,192,61500,1,0,0:0:0:0:
320,192,61599,1,0,0:0:0:0:
448,192,61698,1,4,0:0:0:0:
64,192,61698,1,0,0:0:0:0:
192,192,62143,128,0,62292:0:0:0:0:
320,192,62143,128,0,62292:0:0:0:0:
64,192,62292,1,0,0:0:0:0:
448,192,62292,1,0,0:0:0:0:
192,192,62391,1,0,0:0:0:0:
320,192,62490,1,0,0:0:0:0:
448,192,62589,1,4,0:0:0:0:
192,192,62589,1,0,0:0:0:0:
64,192,62589,1,0,0:0:0:0:
448,192,63183,1,0,0:0:0:0:
64,192,63183,1,0,0:0:0:0:
320,192,63282,1,0,0:0:0:0:
192,192,63381,1,0,0:0:0:0:
448,192,63480,1,4,0:0:0:0:
64,192,63480,1,0,0:0:0:0:
320,192,63480,1,0,0:0:0:0:
64,192,64074,1,0,0:0:0:0:
448,192,64074,1,0,0:0:0:0:
320,192,64173,1,0,0:0:0:0:
192,192,64272,1,0,0:0:0:0:
448,192,64371,1,0,0:0:0:0:
64,192,64371,1,0,0:0:0:0:
320,192,64470,1,0,0:0:0:0:
192,192,64569,1,0,0:0:0:0:
448,192,64668,1,0,0:0:0:0:
64,192,64767,1,0,0:0:0:0:
448,192,64866,1,0,0:0:0:0:
64,192,64965,1,0,0:0:0:0:
448,192,65064,1,0,0:0:0:0:
192,192,65262,1,0,0:0:0:0:
320,192,65361,1,0,0:0:0:0:
192,192,65460,1,0,0:0:0:0:
320,192,65559,1,0,0:0:0:0:
192,192,65658,1,0,0:0:0:0:
448,192,65856,1,0,0:0:0:0:
64,192,65955,1,0,0:0:0:0:
448,192,66054,1,0,0:0:0:0:
64,192,66153,1,0,0:0:0:0:
448,192,66252,1,0,0:0:0:0:
192,192,66450,1,0,0:0:0:0:
320,192,66549,1,0,0:0:0:0:
192,192,66648,1,0,0:0:0:0:
320,192,66747,1,0,0:0:0:0:
64,192,66846,1,0,0:0:0:0:
192,192,66945,1,0,0:0:0:0:
320,192,67044,1,0,0:0:0:0:
448,192,67143,1,0,0:0:0:0:
64,192,67242,1,0,0:0:0:0:
448,192,67341,1,0,0:0:0:0:
64,192,67440,1,0,0:0:0:0:
192,192,67539,1,0,0:0:0:0:
320,192,67638,1,0,0:0:0:0:
448,192,67737,1,0,0:0:0:0:
192,192,67836,1,0,0:0:0:0:
320,192,67935,1,0,0:0:0:0:
192,192,68034,1,0,0:0:0:0:
64,192,68133,1,0,0:0:0:0:
448,192,68232,1,0,0:0:0:0:
320,192,68232,1,0,0:0:0:0:
64,192,69420,1,0,0:0:0:0:
448,192,69420,1,0,0:0:0:0:
320,192,69717,1,0,0:0:0:0:
192,192,69792,1,0,0:0:0:0:
320,192,69866,1,0,0:0:0:0:
64,192,70163,1,0,0:0:0:0:
192,192,70237,1,0,0:0:0:0:
320,192,70311,1,0,0:0:0:0:
448,192,70609,1,0,0:0:0:0:
320,192,70683,1,0,0:0:0:0:
448,192,70757,1,0,0:0:0:0:
64,192,71054,1,0,0:0:0:0:
192,192,71128,1,0,0:0:0:0:
320,192,71203,1,0,0:0:0:0:
192,192,71351,1,0,0:0:0:0:
320,192,71425,1,0,0:0:0:0:
448,192,71500,1,0,0:0:0:0:
320,192,71797,1,0,0:0:0:0:
64,192,71797,1,0,0:0:0:0:
192,192,72094,1,0,0:0:0:0:
320,192,72168,1,0,0:0:0:0:
192,192,72242,1,0,0:0:0:0:
448,192,72539,1,0,0:0:0:0:
320,192,72613,1,0,0:0:0:0:
192,192,72688,1,0,0:0:0:0:
64,192,72985,1,0,0:0:0:0:
192,192,73059,1,0,0:0:0:0:
320,192,73133,1,0,0:0:0:0:
192,192,73430,1,0,0:0:0:0:
64,192,73505,1,0,0:0:0:0:
448,192,73579,1,0,0:0:0:0:
320,192,73727,1,0,0:0:0:0:
192,192,73802,1,0,0:0:0:0:
448,192,73876,1,0,0:0:0:0:
64,192,74173,1,0,0:0:0:0:
320,192,74173,1,0,0:0:0:0:
192,192,74470,1,0,0:0:0:0:
320,192,74544,1,0,0:0:0:0:
448,192,74618,1,0,0:0:0:0:
64,192,74915,1,0,0:0:0:0:
192,192,74990,1,0,0:0:0:0:
320,192,75064,1,0,0:0:0:0:
448,192,75361,1,0,0:0:0:0:
320,192,75435,1,0,0:0:0:0:
448,192,75510,1,0,0:0:0:0:
64,192,75807,1,0,0:0:0:0:
320,192,75881,1,0,0:0:0:0:
192,192,75955,1,0,0:0:0:0:
320,192,76104,1,0,0:0:0:0:
448,192,76178,1,0,0:0:0:0:
320,192,76252,1,0,0:0:0:0:
448,192,76549,1,0,0:0:0:0:
192,192,76549,1,0,0:0:0:0:
64,192,76846,1,0,0:0:0:0:
192,192,76920,1,0,0:0:0:0:
64,192,76995,1,0,0:0:0:0:
448,192,77069,1,0,0:0:0:0:
320,192,77143,1,0,0:0:0:0:
192,192,77217,1,0,0:0:0:0:
320,192,77292,1,0,0:0:0:0:
64,192,77366,1,0,0:0:0:0:
192,192,77440,1,0,0:0:0:0:
320,192,77514,1,0,0:0:0:0:
448,192,77589,1,0,0:0:0:0:
64,192,77663,1,0,0:0:0:0:
192,192,77737,1,0,0:0:0:0:
320,192,77811,1,0,0:0:0:0:
448,192,77886,1,0,0:0:0:0:
320,192,77960,1,0,0:0:0:0:
64,192,78034,1,0,0:0:0:0:
192,192,78109,1,0,0:0:0:0:
448,192,78183,1,0,0:0:0:0:
320,192,78257,1,0,0:0:0:0:
192,192,78331,1,0,0:0:0:0:
64,192,78406,1,0,0:0:0:0:
320,192,78480,1,0,0:0:0:0:
192,192,78554,1,0,0:0:0:0:
320,192,78628,1,0,0:0:0:0:
448,192,78703,1,0,0:0:0:0:
64,192,78777,1,0,0:0:0:0:
192,192,78851,1,0,0:0:0:0:
64,192,78925,1,0,0:0:0:0:
448,192,78925,1,4,0:0:0:0:
320,192,78925,1,0,0:0:0:0:
192,192,79074,1,0,0:0:0:0:
320,192,79148,1,0,0:0:0:0:
448,192,79222,1,0,0:0:0:0:
64,192,79222,1,0,0:0:0:0:
192,192,79297,1,0,0:0:0:0:
64,192,79371,1,0,0:0:0:0:
448,192,79519,1,0,0:0:0:0:
320,192,79594,1,0,0:0:0:0:
448,192,79668,1,0,0:0:0:0:
192,192,79668,1,2,0:0:0:0:
64,192,79742,1,0,0:0:0:0:
320,192,79816,1,0,0:0:0:0:
192,192,79816,1,0,0:0:0:0:
64,192,80113,1,2,0:0:0:0:
448,192,80113,1,0,0:0:0:0:
192,192,80188,1,0,0:0:0:0:
320,192,80262,1,0,0:0:0:0:
192,192,80410,1,0,0:0:0:0:
64,192,80410,1,0,0:0:0:0:
448,192,80559,1,0,0:0:0:0:
320,192,80633,1,0,0:0:0:0:
192,192,80708,1,0,0:0:0:0:
320,192,80782,1,0,0:0:0:0:
448,192,80856,1,2,0:0:0:0:
64,192,80856,1,0,0:0:0:0:
192,192,80930,1,0,0:0:0:0:
64,192,81005,1,0,0:0:0:0:
320,192,81005,1,0,0:0:0:0:
64,192,81302,1,2,0:0:0:0:
320,192,81302,1,0,0:0:0:0:
192,192,81450,1,0,0:0:0:0:
64,192,81599,1,0,0:0:0:0:
448,192,81599,1,0,0:0:0:0:
320,192,81673,1,0,0:0:0:0:
192,192,81747,1,0,0:0:0:0:
448,192,81896,1,0,0:0:0:0:
320,192,81970,1,0,0:0:0:0:
64,192,82044,1,2,0:0:0:0:
192,192,82044,1,0,0:0:0:0:
320,192,82118,1,0,0:0:0:0:
448,192,82193,1,0,0:0:0:0:
64,192,82193,1,0,0:0:0:0:
64,192,82490,1,2,0:0:0:0:
320,192,82490,1,0,0:0:0:0:
192,192,82564,1,0,0:0:0:0:
64,192,82638,1,0,0:0:0:0:
448,192,82787,1,0,0:0:0:0:
320,192,82787,1,0,0:0:0:0:
64,192,82935,1,0,0:0:0:0:
192,192,83010,1,0,0:0:0:0:
320,192,83084,1,0,0:0:0:0:
448,192,83158,1,0,0:0:0:0:
64,192,83232,1,2,0:0:0:0:
320,192,83232,1,0,0:0:0:0:
192,192,83307,1,0,0:0:0:0:
320,192,83381,1,0,0:0:0:0:
448,192,83381,1,0,0:0:0:0:
64,192,83678,1,4,0:0:0:0:
192,192,83678,1,0,0:0:0:0:
448,192,83678,1,0,0:0:0:0:
320,192,83826,1,0,0:0:0:0:
64,192,83975,1,0,0:0:0:0:
448,192,83975,1,0,0:0:0:0:
192,192,84049,1,0,0:0:0:0:
320,192,84123,1,0,0:0:0:0:
448,192,84272,1,0,0:0:0:0:
320,192,84346,1,0,0:0:0:0:
192,192,84420,1,2,0:0:0:0:
448,192,84420,1,0,0:0:0:0:
64,192,84495,1,0,0:0:0:0:
192,192,84569,1,0,0:0:0:0:
320,192,84569,1,0,0:0:0:0:
448,192,84866,1,2,0:0:0:0:
64,192,84866,1,0,0:0:0:0:
320,192,84940,1,0,0:0:0:0:
192,192,85014,1,0,0:0:0:0:
320,192,85163,1,0,0:0:0:0:
448,192,85163,1,0,0:0:0:0:
64,192,85311,1,0,0:0:0:0:
192,192,85386,1,0,0:0:0:0:
64,192,85460,1,0,0:0:0:0:
448,192,85534,1,0,0:0:0:0:
320,192,85609,1,2,0:0:0:0:
192,192,85609,1,0,0:0:0:0:
64,192,85683,1,0,0:0:0:0:
448,192,85757,1,0,0:0:0:0:
320,192,85757,1,0,0:0:0:0:
192,192,86054,1,2,0:0:0:0:
320,192,86054,1,0,0:0:0:0:
64,192,86351,1,0,0:0:0:0:
448,192,86351,1,0,0:0:0:0:
192,192,86425,1,0,0:0:0:0:
320,192,86500,1,0,0:0:0:0:
448,192,86648,1,0,0:0:0:0:
320,192,86722,1,0,0:0:0:0:
64,192,86797,1,2,0:0:0:0:
448,192,86797,1,0,0:0:0:0:
192,192,86871,1,0,0:0:0:0:
320,192,86945,1,0,0:0:0:0:
64,192,86945,1,0,0:0:0:0:
64,192,87242,1,2,0:0:0:0:
448,192,87242,1,0,0:0:0:0:
192,192,87316,1,0,0:0:0:0:
320,192,87391,1,0,0:0:0:0:
192,192,87539,1,0,0:0:0:0:
448,192,87539,1,0,0:0:0:0:
64,192,87688,1,0,0:0:0:0:
192,192,87762,1,0,0:0:0:0:
320,192,87836,1,0,0:0:0:0:
448,192,87910,1,0,0:0:0:0:
320,192,87985,1,2,0:0:0:0:
192,192,87985,1,0,0:0:0:0:
64,192,88059,1,0,0:0:0:0:
320,192,88133,1,0,0:0:0:0:
448,192,88133,1,0,0:0:0:0:
64,192,88430,1,4,0:0:0:0:
192,192,88430,1,0,0:0:0:0:
448,192,88430,1,0,0:0:0:0:
320,192,88579,1,0,0:0:0:0:
448,192,88653,1,0,0:0:0:0:
64,192,88727,1,0,0:0:0:0:
320,192,88727,1,0,0:0:0:0:
192,192,88802,1,0,0:0:0:0:
64,192,88876,1,0,0:0:0:0:
448,192,89024,1,0,0:0:0:0:
320,192,89099,1,0,0:0:0:0:
64,192,89173,1,2,0:0:0:0:
192,192,89173,1,0,0:0:0:0:
448,192,89247,1,0,0:0:0:0:
320,192,89321,1,0,0:0:0:0:
64,192,89321,1,0,0:0:0:0:
448,192,89618,1,2,0:0:0:0:
64,192,89618,1,0,0:0:0:0:
320,192,89693,1,0,0:0:0:0:
192,192,89767,1,0,0:0:0:0:
448,192,89915,1,0,0:0:0:0:
320,192,89915,1,0,0:0:0:0:
64,192,90064,1,0,0:0:0:0:
192,192,90138,1,0,0:0:0:0:
320,192,90212,1,0,0:0:0:0:
448,192,90287,1,0,0:0:0:0:
64,192,90361,1,2,0:0:0:0:
320,192,90361,1,0,0:0:0:0:
192,192,90435,1,0,0:0:0:0:
64,192,90510,1,0,0:0:0:0:
448,192,90510,1,0,0:0:0:0:
64,192,90807,1,2,0:0:0:0:
320,192,90807,1,0,0:0:0:0:
192,192,90881,1,0,0:0:0:0:
320,192,90955,1,0,0:0:0:0:
64,192,91104,1,0,0:0:0:0:
448,192,91104,1,0,0:0:0:0:
320,192,91178,1,0,0:0:0:0:
192,192,91252,1,0,0:0:0:0:
64,192,91326,1,0,0:0:0:0:
192,192,91401,1,0,0:0:0:0:
320,192,91475,1,0,0:0:0:0:
64,192,91549,1,2,0:0:0:0:
448,192,91549,1,0,0:0:0:0:
192,192,91623,1,0,0:0:0:0:
448,192,91698,1,0,0:0:0:0:
320,192,91698,1,0,0:0:0:0:
64,192,91772,1,0,0:0:0:0:
192,192,91846,1,0,0:0:0:0:
320,192,91920,1,0,0:0:0:0:
192,192,91995,1,2,0:0:0:0:
64,192,91995,1,0,0:0:0:0:
448,192,92069,1,0,0:0:0:0:
320,192,92143,1,0,0:0:0:0:
192,192,92217,1,0,0:0:0:0:
64,192,92292,1,0,0:0:0:0:
320,192,92292,1,0,0:0:0:0:
448,192,92366,1,0,0:0:0:0:
320,192,92440,1,0,0:0:0:0:
64,192,92514,1,0,0:0:0:0:
192,192,92589,1,0,0:0:0:0:
320,192,92663,1,0,0:0:0:0:
192,192,92737,1,0,0:0:0:0:
64,192,92737,1,2,0:0:0:0:
448,192,92811,1,0,0:0:0:0:
320,192,92886,1,0,0:0:0:0:
192,192,92886,1,0,0:0:0:0:
64,192,92960,1,0,0:0:0:0:
192,192,93034,1,0,0:0:0:0:
320,192,93109,1,0,0:0:0:0:
64,192,93183,1,2,0:0:0:0:
448,192,93183,1,0,0:0:0:0:
192,192,93257,1,0,0:0:0:0:
320,192,93331,1,0,0:0:0:0:
192,192,93406,1,0,0:0:0:0:
448,192,93480,1,0,0:0:0:0:
320,192,93480,1,0,0:0:0:0:
64,192,93554,1,0,0:0:0:0:
192,192,93628,1,0,0:0:0:0:
320,192,93703,1,0,0:0:0:0:
448,192,93777,1,0,0:0:0:0:
320,192,93851,1,0,0:0:0:0:
64,192,93925,1,2,0:0:0:0:
192,192,93925,1,0,0:0:0:0:
448,192,94000,1,0,0:0:0:0:
320,192,94074,1,0,0:0:0:0:
64,192,94074,1,0,0:0:0:0:
192,192,94148,1,0,0:0:0:0:
320,192,94222,1,0,0:0:0:0:
448,192,94297,1,0,0:0:0:0:
64,192,94371,1,2,0:0:0:0:
320,192,94371,1,0,0:0:0:0:
192,192,94445,1,0,0:0:0:0:
64,192,94519,1,0,0:0:0:0:
448,192,94594,1,0,0:0:0:0:
320,192,94668,1,0,0:0:0:0:
64,192,94668,1,0,0:0:0:0:
192,192,94742,1,0,0:0:0:0:
320,192,94816,1,0,0:0:0:0:
448,192,94891,1,0,0:0:0:0:
320,192,94965,1,0,0:0:0:0:
64,192,95039,1,0,0:0:0:0:
192,192,95113,1,2,0:0:0:0:
448,192,95113,1,0,0:0:0:0:
320,192,95188,1,0,0:0:0:0:
192,192,95262,1,0,0:0:0:0:
64,192,95262,1,0,0:0:0:0:
448,192,95336,1,0,0:0:0:0:
320,192,95410,1,0,0:0:0:0:
192,192,95485,1,0,0:0:0:0:
320,192,95559,1,4,0:0:0:0:
448,192,95559,1,0,0:0:0:0:
64,192,95559,1,0,0:0:0:0:
64,192,95856,1,0,0:0:0:0:
192,192,96153,1,0,0:0:0:0:
320,192,96450,1,0,0:0:0:0:
64,192,96747,1,0,0:0:0:0:
192,192,96747,1,8,0:0:0:0:
320,192,96846,1,8,0:0:0:0:
448,192,96846,1,0,0:0:0:0:
64,192,96945,1,0,0:0:0:0:
192,192,96945,1,8,0:0:0:0:
320,192,97044,1,8,0:0:0:0:
448,192,97044,1,0,0:0:0:0:
192,192,97143,1,8,0:0:0:0:
64,192,97143,1,0,0:0:0:0:
320,192,97242,1,8,0:0:0:0:
448,192,97242,1,0,0:0:0:0:
192,192,97341,1,8,0:0:0:0:
64,192,97341,1,0,0:0:0:0:
320,192,97440,1,8,0:0:0:0:
448,192,97440,1,0,0:0:0:0:
192,192,97539,1,8,0:0:0:0:
64,192,97539,1,0,0:0:0:0:
320,192,97638,1,8,0:0:0:0:
448,192,97638,1,0,0:0:0:0:
448,192,97935,1,4,0:0:0:0:
192,192,97935,1,0,0:0:0:0:
64,192,97935,1,0,0:0:0:0:
192,192,98158,1,0,0:0:0:0:
320,192,98232,1,8,0:0:0:0:
448,192,98232,1,0,0:0:0:0:
64,192,98381,1,0,0:0:0:0:
192,192,98529,1,0,0:0:0:0:
320,192,98678,1,0,0:0:0:0:
64,192,98826,1,8,0:0:0:0:
448,192,98826,1,0,0:0:0:0:
192,192,98975,1,4,0:0:0:0:
320,192,98975,1,0,0:0:0:0:
64,192,98975,1,0,0:0:0:0:
192,192,99123,1,4,0:0:0:0:
64,192,99123,1,0,0:0:0:0:
448,192,99123,1,0,0:0:0:0:
320,192,99272,1,0,0:0:0:0:
64,192,99420,1,8,0:0:0:0:
448,192,99420,1,0,0:0:0:0:
192,192,99569,1,0,0:0:0:0:
448,192,99717,1,0,0:0:0:0:
320,192,99866,1,4,0:0:0:0:
64,192,99866,1,0,0:0:0:0:
192,192,99866,1,0,0:0:0:0:
320,192,100014,1,8,0:0:0:0:
448,192,100014,1,0,0:0:0:0:
64,192,100163,1,0,0:0:0:0:
64,192,100311,1,4,0:0:0:0:
192,192,100311,1,0,0:0:0:0:
448,192,100311,1,0,0:0:0:0:
320,192,100460,1,0,0:0:0:0:
64,192,100609,1,8,0:0:0:0:
192,192,100609,1,0,0:0:0:0:
448,192,100757,1,0,0:0:0:0:
64,192,100906,1,0,0:0:0:0:
192,192,101054,1,0,0:0:0:0:
320,192,101203,1,8,0:0:0:0:
64,192,101203,1,0,0:0:0:0:
448,192,101351,1,0,0:0:0:0:
192,192,101351,1,4,0:0:0:0:
320,192,101351,1,0,0:0:0:0:
64,192,101500,1,4,0:0:0:0:
192,192,101500,1,0,0:0:0:0:
448,192,101500,1,0,0:0:0:0:
320,192,101648,1,0,0:0:0:0:
64,192,101797,1,8,0:0:0:0:
192,192,101797,1,0,0:0:0:0:
448,192,101945,1,0,0:0:0:0:
64,192,102094,1,0,0:0:0:0:
320,192,102242,1,4,0:0:0:0:
448,192,102242,1,0,0:0:0:0:
192,192,102242,1,0,0:0:0:0:
448,192,102391,1,8,0:0:0:0:
64,192,102391,1,0,0:0:0:0:
320,192,102688,1,0,0:0:0:0:
448,192,102688,1,0,0:0:0:0:
64,192,102688,1,4,0:0:0:0:
192,192,102836,1,0,0:0:0:0:
64,192,102985,1,0,0:0:0:0:
448,192,102985,1,8,0:0:0:0:
320,192,103133,1,0,0:0:0:0:
192,192,103282,1,0,0:0:0:0:
448,192,103430,1,0,0:0:0:0:
320,192,103579,1,8,0:0:0:0:
64,192,103579,1,0,0:0:0:0:
192,192,103727,1,4,0:0:0:0:
448,192,103727,1,0,0:0:0:0:
64,192,103727,1,0,0:0:0:0:
192,192,103876,1,4,0:0:0:0:
320,192,103876,1,0,0:0:0:0:
448,192,103876,1,0,0:0:0:0:
64,192,104024,1,0,0:0:0:0:
448,192,104173,1,8,0:0:0:0:
320,192,104173,1,0,0:0:0:0:
192,192,104321,1,0,0:0:0:0:
448,192,104470,1,0,0:0:0:0:
64,192,104618,1,0,0:0:0:0:
320,192,104618,1,4,0:0:0:0:
192,192,104618,1,0,0:0:0:0:
64,192,104767,1,8,0:0:0:0:
448,192,104767,1,0,0:0:0:0:
192,192,104915,1,0,0:0:0:0:
64,192,105064,1,4,0:0:0:0:
320,192,105064,1,0,0:0:0:0:
448,192,105212,1,0,0:0:0:0:
192,192,105361,1,8,0:0:0:0:
64,192,105361,1,0,0:0:0:0:
320,192,105509,1,0,0:0:0:0:
64,192,105658,1,0,0:0:0:0:
448,192,105807,5,0,0:0:0:0:
192,192,105955,1,8,0:0:0:0:
320,192,105955,1,0,0:0:0:0:
192,192,106104,1,4,0:0:0:0:
64,192,106104,1,0,0:0:0:0:
448,192,106104,1,0,0:0:0:0:
64,192,106252,1,4,0:0:0:0:
320,192,106252,1,0,0:0:0:0:
448,192,106252,1,0,0:0:0:0:
192,192,106401,1,0,0:0:0:0:
448,192,106549,1,8,0:0:0:0:
320,192,106549,1,0,0:0:0:0:
64,192,106698,1,0,0:0:0:0:
320,192,106846,1,0,0:0:0:0:
64,192,106995,5,0,0:0:0:0:
448,192,106995,1,8,0:0:0:0:
64,192,107143,1,8,0:0:0:0:
192,192,107143,1,0,0:0:0:0:
448,192,107217,1,0,0:0:0:0:
320,192,107292,1,8,0:0:0:0:
192,192,107292,1,0,0:0:0:0:
64,192,107366,1,0,0:0:0:0:
320,192,107440,1,4,0:0:0:0:
448,192,107440,1,0,0:0:0:0:
192,192,107440,1,0,0:0:0:0:
64,192,107514,1,0,0:0:0:0:
192,192,107589,1,0,0:0:0:0:
320,192,107663,1,0,0:0:0:0:
448,192,107737,1,8,0:0:0:0:
64,192,107737,1,0,0:0:0:0:
192,192,107811,1,0,0:0:0:0:
320,192,107886,1,0,0:0:0:0:
192,192,107960,1,0,0:0:0:0:
448,192,108034,1,0,0:0:0:0:
64,192,108109,1,0,0:0:0:0:
192,192,108183,1,0,0:0:0:0:
320,192,108257,1,0,0:0:0:0:
192,192,108331,1,8,0:0:0:0:
64,192,108331,1,0,0:0:0:0:
448,192,108406,1,0,0:0:0:0:
320,192,108480,1,4,0:0:0:0:
64,192,108480,1,0,0:0:0:0:
192,192,108554,1,0,0:0:0:0:
320,192,108628,1,4,0:0:0:0:
448,192,108628,1,0,0:0:0:0:
64,192,108703,1,0,0:0:0:0:
192,192,108777,1,0,0:0:0:0:
320,192,108851,1,0,0:0:0:0:
448,192,108925,1,8,0:0:0:0:
192,192,108925,1,0,0:0:0:0:
64,192,109000,1,0,0:0:0:0:
192,192,109074,1,0,0:0:0:0:
320,192,109148,1,0,0:0:0:0:
448,192,109222,1,0,0:0:0:0:
320,192,109297,1,0,0:0:0:0:
64,192,109371,1,4,0:0:0:0:
192,192,109371,1,0,0:0:0:0:
448,192,109445,1,0,0:0:0:0:
320,192,109519,1,8,0:0:0:0:
192,192,109519,1,0,0:0:0:0:
64,192,109594,1,0,0:0:0:0:
192,192,109668,1,0,0:0:0:0:
320,192,109742,1,0,0:0:0:0:
448,192,109816,1,4,0:0:0:0:
64,192,109816,1,0,0:0:0:0:
192,192,109891,1,0,0:0:0:0:
320,192,109965,1,0,0:0:0:0:
192,192,110039,1,0,0:0:0:0:
448,192,110113,1,8,0:0:0:0:
64,192,110113,1,0,0:0:0:0:
320,192,110188,1,0,0:0:0:0:
192,192,110262,1,0,0:0:0:0:
64,192,110336,1,0,0:0:0:0:
192,192,110410,1,0,0:0:0:0:
448,192,110485,1,0,0:0:0:0:
320,192,110559,1,0,0:0:0:0:
192,192,110633,1,0,0:0:0:0:
448,192,110708,1,8,0:0:0:0:
64,192,110708,1,0,0:0:0:0:
320,192,110782,1,0,0:0:0:0:
448,192,110856,1,4,0:0:0:0:
192,192,110856,1,0,0:0:0:0:
64,192,110930,1,0,0:0:0:0:
192,192,111005,1,4,0:0:0:0:
320,192,111005,1,0,0:0:0:0:
448,192,111079,1,0,0:0:0:0:
320,192,111153,1,0,0:0:0:0:
64,192,111227,1,0,0:0:0:0:
192,192,111302,1,8,0:0:0:0:
448,192,111302,1,0,0:0:0:0:
320,192,111376,1,0,0:0:0:0:
192,192,111450,1,0,0:0:0:0:
64,192,111524,1,0,0:0:0:0:
320,192,111599,1,0,0:0:0:0:
192,192,111673,1,0,0:0:0:0:
64,192,111747,1,4,0:0:0:0:
448,192,111747,1,0,0:0:0:0:
320,192,111821,1,0,0:0:0:0:
192,192,111896,1,8,0:0:0:0:
64,192,111896,1,0,0:0:0:0:
320,192,111970,1,0,0:0:0:0:
448,192,112044,1,0,0:0:0:0:
320,192,112118,1,0,0:0:0:0:
192,192,112193,1,4,0:0:0:0:
64,192,112193,1,0,0:0:0:0:
448,192,112193,1,0,0:0:0:0:
320,192,112267,1,0,0:0:0:0:
192,192,112341,1,0,0:0:0:0:
64,192,112415,1,0,0:0:0:0:
448,192,112490,1,8,0:0:0:0:
320,192,112490,1,0,0:0:0:0:
192,192,112564,1,0,0:0:0:0:
320,192,112638,1,0,0:0:0:0:
448,192,112712,1,0,0:0:0:0:
64,192,112787,1,0,0:0:0:0:
192,192,112861,1,0,0:0:0:0:
320,192,112935,1,0,0:0:0:0:
192,192,113009,1,0,0:0:0:0:
320,192,113084,1,8,0:0:0:0:
64,192,113084,1,0,0:0:0:0:
448,192,113158,1,0,0:0:0:0:
192,192,113232,1,4,0:0:0:0:
64,192,113232,1,0,0:0:0:0:
448,192,113307,1,0,0:0:0:0:
320,192,113381,1,4,0:0:0:0:
192,192,113381,1,0,0:0:0:0:
64,192,113455,1,0,0:0:0:0:
192,192,113529,1,0,0:0:0:0:
320,192,113604,1,0,0:0:0:0:
448,192,113678,1,8,0:0:0:0:
64,192,113678,1,0,0:0:0:0:
192,192,113752,1,0,0:0:0:0:
320,192,113826,1,0,0:0:0:0:
448,192,113901,1,0,0:0:0:0:
192,192,113975,1,0,0:0:0:0:
64,192,114049,1,0,0:0:0:0:
192,192,114123,1,4,0:0:0:0:
320,192,114123,1,0,0:0:0:0:
448,192,114198,1,0,0:0:0:0:
320,192,114272,1,8,0:0:0:0:
64,192,114272,1,0,0:0:0:0:
192,192,114346,1,0,0:0:0:0:
320,192,114420,1,0,0:0:0:0:
448,192,114495,1,0,0:0:0:0:
320,192,114569,1,4,0:0:0:0:
64,192,114569,1,0,0:0:0:0:
192,192,114569,1,0,0:0:0:0:
448,192,114643,1,0,0:0:0:0:
320,192,114717,1,0,0:0:0:0:
192,192,114792,1,0,0:0:0:0:
448,192,114866,1,8,0:0:0:0:
64,192,114940,1,0,0:0:0:0:
192,192,115014,1,0,0:0:0:0:
320,192,115089,1,0,0:0:0:0:
192,192,115163,1,0,0:0:0:0:
448,192,115237,1,0,0:0:0:0:
320,192,115311,1,0,0:0:0:0:
192,192,115386,1,0,0:0:0:0:
64,192,115460,1,8,0:0:0:0:
192,192,115534,1,0,0:0:0:0:
64,192,115609,1,4,0:0:0:0:
448,192,115609,1,0,0:0:0:0:
320,192,115683,1,0,0:0:0:0:
448,192,115757,1,0,0:0:0:0:
192,192,115757,1,4,0:0:0:0:
64,192,115831,1,0,0:0:0:0:
448,192,115906,1,0,0:0:0:0:
320,192,115980,1,0,0:0:0:0:
192,192,116054,1,0,0:0:0:0:
320,192,116128,1,0,0:0:0:0:
64,192,116203,1,0,0:0:0:0:
192,192,116277,1,0,0:0:0:0:
320,192,116351,1,0,0:0:0:0:
448,192,116425,1,0,0:0:0:0:
192,192,116500,1,8,0:0:0:0:
64,192,116500,1,0,0:0:0:0:
448,192,116574,1,0,0:0:0:0:
320,192,116648,1,8,0:0:0:0:
192,192,116648,1,0,0:0:0:0:
64,192,116722,1,0,0:0:0:0:
320,192,116797,1,0,0:0:0:0:
448,192,116797,1,8,0:0:0:0:
192,192,116871,1,0,0:0:0:0:
448,192,116945,1,0,0:0:0:0:
320,192,116945,1,0,0:0:0:0:
64,192,116945,1,4,0:0:0:0:
320,192,117242,1,0,0:0:0:0:
192,192,117316,1,0,0:0:0:0:
320,192,117391,1,0,0:0:0:0:
448,192,117391,128,4,117688:0:0:0:0:
64,192,117391,128,0,117688:0:0:0:0:
320,192,117836,1,0,0:0:0:0:
192,192,117910,1,0,0:0:0:0:
320,192,117985,1,0,0:0:0:0:
192,192,118059,1,0,0:0:0:0:
320,192,118133,1,0,0:0:0:0:
448,192,118133,128,4,118727:0:0:0:0:
64,192,118133,128,0,118727:0:0:0:0:
