osu file format v14

[General]
AudioFilename: kuroma - Black Emperor.mp3
AudioLeadIn: 0
PreviewTime: 89491
Countdown: 0
SampleSet: Soft
StackLeniency: 0.7
Mode: 3
LetterboxInBreaks: 0
SpecialStyle: 0
WidescreenStoryboard: 0

[Editor]
Bookmarks: 47898
DistanceSpacing: 1.1
BeatDivisor: 4
GridSize: 4
TimelineZoom: 1.000001

[Metadata]
Title:Black Emperor
TitleUnicode:Black Emperor
Artist:Chroma
ArtistUnicode:黒魔
Creator:Ichigaki
Version:NOVICE Lv.6
Source:SOUND VOLTEX II -infinite infection-
Tags:KAC2013 SDVX Kuroma Original Song Contest BEMANI KONAMI Masakichi Kurokawa
BeatmapID:659210
BeatmapSetID:292936

[Difficulty]
HPDrainRate:7
CircleSize:4
OverallDifficulty:7
ApproachRate:5
SliderMultiplier:1.4
SliderTickRate:1

[Events]
//Background and Video events
0,0,"black_king_by_uroskrunic-d35f7hn.jpg",0,0
//Break Periods
//Storyboard Layer 0 (Background)
//Storyboard Layer 1 (Fail)
//Storyboard Layer 2 (Pass)
//Storyboard Layer 3 (Foreground)
//Storyboard Sound Samples

[TimingPoints]
475,333.333333333333,4,2,1,15,1,0
475,-92.5925925925926,4,2,1,15,0,0
1808,-92.5925925925926,4,2,1,30,0,0
27142,324.324324324324,4,2,1,50,1,0
27142,-95.2380952380952,4,2,1,50,0,0
58277,333.333333333333,4,2,1,30,1,0
58277,-92.5925925925926,4,2,1,30,0,0
63610,352.941176470588,4,2,1,50,1,0
63610,-86.9565217391304,4,2,1,50,0,0
67845,324.324324324324,4,2,1,50,1,0
67845,-95.2380952380952,4,2,1,50,0,0
68169,324.324324324324,4,2,1,50,1,0
68169,-95.2380952380952,4,2,1,50,0,0
82439,2000,4,2,1,50,1,0
82439,-16,4,2,1,50,0,0
84439,315.789473684211,4,2,1,50,1,0
84439,-97.0873786407767,4,2,1,50,0,0
89491,-97.0873786407767,4,2,1,55,0,1
114754,-97.0873786407767,4,2,1,50,0,0
116017,307.692307692308,4,2,1,40,1,0

[HitObjects]
64,192,808,128,0,1808:0:0:0:0:
320,192,1808,1,0,0:0:0:0:
448,192,1808,1,8,0:0:0:0:
192,192,2141,1,0,0:0:0:0:
320,192,2474,1,0,0:0:0:0:
64,192,2808,1,0,0:0:0:0:
192,192,3141,1,0,0:0:0:0:
448,192,3474,1,0,0:0:0:0:
320,192,3808,1,0,0:0:0:0:
64,192,4141,1,0,0:0:0:0:
448,192,4308,1,2,0:0:0:0:
320,192,4391,1,0,0:0:0:0:
64,192,4474,1,2,0:0:0:0:
448,192,4808,1,2,0:0:0:0:
192,192,5030,1,2,0:0:0:0:
320,192,5252,1,2,0:0:0:0:
64,192,5474,1,2,0:0:0:0:
448,192,5808,1,2,0:0:0:0:
64,192,6141,1,2,0:0:0:0:
320,192,6363,1,2,0:0:0:0:
192,192,6586,1,2,0:0:0:0:
448,192,6808,1,2,0:0:0:0:
320,192,7141,1,2,0:0:0:0:
448,192,7474,1,2,0:0:0:0:
320,192,7697,1,2,0:0:0:0:
192,192,7919,1,2,0:0:0:0:
64,192,8141,1,2,0:0:0:0:
320,192,8474,1,2,0:0:0:0:
64,192,8808,1,2,0:0:0:0:
192,192,9030,1,2,0:0:0:0:
320,192,9252,1,2,0:0:0:0:
448,192,9474,1,2,0:0:0:0:
192,192,9808,1,2,0:0:0:0:
320,192,10141,1,2,0:0:0:0:
64,192,10363,1,2,0:0:0:0:
448,192,10586,1,2,0:0:0:0:
192,192,10808,1,2,0:0:0:0:
320,192,11030,1,2,0:0:0:0:
448,192,11141,128,0,12141:0:0:0:0:
64,192,11141,1,2,0:0:0:0:
192,192,12141,1,8,0:0:0:0:
320,192,12363,1,8,0:0:0:0:
64,192,12586,1,8,0:0:0:0:
448,192,12808,1,8,0:0:0:0:
64,192,13030,1,8,0:0:0:0:
192,192,13391,1,2,0:0:0:0:
448,192,13474,128,0,15141:0:0:0:0:
320,192,13474,1,2,0:0:0:0:
64,192,13808,1,2,0:0:0:0:
192,192,14141,1,2,0:0:0:0:
320,192,14474,1,2,0:0:0:0:
192,192,14808,1,2,0:0:0:0:
64,192,15141,1,8,0:0:0:0:
320,192,15141,1,0,0:0:0:0:
448,192,15391,1,0,0:0:0:0:
192,192,15391,1,8,0:0:0:0:
64,192,15641,1,8,0:0:0:0:
320,192,15641,1,0,0:0:0:0:
192,192,15891,1,8,0:0:0:0:
448,192,15891,1,0,0:0:0:0:
320,192,16141,1,0,0:0:0:0:
64,192,16141,128,8,16474:0:0:0:0:
448,192,16474,1,0,0:0:0:0:
192,192,16474,1,8,0:0:0:0:
320,192,16808,1,2,0:0:0:0:
64,192,16974,1,2,0:0:0:0:
192,192,17308,1,2,0:0:0:0:
448,192,17474,1,2,0:0:0:0:
64,192,17641,1,2,0:0:0:0:
192,192,17724,1,2,0:0:0:0:
320,192,17808,1,8,0:0:0:0:
448,192,17808,128,0,18308:0:0:0:0:
192,192,18141,1,0,0:0:0:0:
320,192,18308,1,8,0:0:0:0:
64,192,18308,128,0,18808:0:0:0:0:
192,192,18641,1,0,0:0:0:0:
320,192,18808,1,8,0:0:0:0:
448,192,18808,128,0,19141:0:0:0:0:
192,192,19141,1,2,0:0:0:0:
64,192,19308,1,2,0:0:0:0:
320,192,19474,1,0,0:0:0:0:
448,192,19641,1,2,0:0:0:0:
192,192,19808,1,2,0:0:0:0:
64,192,19974,1,0,0:0:0:0:
192,192,20141,1,2,0:0:0:0:
320,192,20308,1,0,0:0:0:0:
448,192,20474,1,8,0:0:0:0:
64,192,20474,1,0,0:0:0:0:
320,192,20724,1,8,0:0:0:0:
192,192,20724,1,0,0:0:0:0:
64,192,20974,1,0,0:0:0:0:
448,192,20974,1,8,0:0:0:0:
192,192,21224,1,0,0:0:0:0:
320,192,21224,1,8,0:0:0:0:
320,192,21474,1,8,0:0:0:0:
64,192,21474,1,0,0:0:0:0:
192,192,21724,1,0,0:0:0:0:
448,192,21724,1,8,0:0:0:0:
448,192,22141,128,0,24474:0:0:0:0:
64,192,22141,1,8,0:0:0:0:
192,192,22474,1,2,0:0:0:0:
320,192,22808,1,2,0:0:0:0:
192,192,23141,1,2,0:0:0:0:
64,192,23391,1,2,0:0:0:0:
192,192,23641,1,2,0:0:0:0:
320,192,23808,1,2,0:0:0:0:
64,192,23974,1,2,0:0:0:0:
192,192,24141,1,2,0:0:0:0:
320,192,24308,1,2,0:0:0:0:
192,192,24474,1,2,0:0:0:0:
64,192,24474,128,8,26474:0:0:0:0:
448,192,24724,1,2,0:0:0:0:
320,192,24974,1,2,0:0:0:0:
192,192,25141,1,2,0:0:0:0:
320,192,25308,1,2,0:0:0:0:
448,192,25474,1,0,0:0:0:0:
192,192,25641,1,4,0:0:0:0:
320,192,25974,1,2,0:0:0:0:
448,192,26141,1,2,0:0:0:0:
192,192,26308,1,2,0:0:0:0:
448,192,26474,1,2,0:0:0:0:
320,192,26586,1,2,0:0:0:0:
192,192,26697,1,2,0:0:0:0:
320,192,26808,1,2,0:0:0:0:
192,192,26919,1,2,0:0:0:0:
64,192,27030,1,2,0:0:0:0:
448,192,27141,1,8,0:0:0:0:
320,192,27141,1,0,0:0:0:0:
192,192,27466,1,2,0:0:0:0:
320,192,27790,1,2,0:0:0:0:
64,192,28114,1,2,0:0:0:0:
448,192,28439,1,2,0:0:0:0:
192,192,28763,1,2,0:0:0:0:
320,192,29087,1,2,0:0:0:0:
64,192,29412,1,2,0:0:0:0:
192,192,29736,1,2,0:0:0:0:
448,192,30060,1,2,0:0:0:0:
320,192,30385,1,2,0:0:0:0:
64,192,30709,1,2,0:0:0:0:
448,192,31033,1,2,0:0:0:0:
192,192,31358,1,2,0:0:0:0:
320,192,31682,1,2,0:0:0:0:
448,192,32006,1,2,0:0:0:0:
192,192,32169,1,2,0:0:0:0:
64,192,32331,1,0,0:0:0:0:
320,192,32331,1,8,0:0:0:0:
448,192,32655,1,2,0:0:0:0:
192,192,32979,1,2,0:0:0:0:
320,192,33304,1,2,0:0:0:0:
448,192,33628,1,2,0:0:0:0:
192,192,33952,1,2,0:0:0:0:
64,192,34277,1,2,0:0:0:0:
320,192,34601,1,2,0:0:0:0:
192,192,34925,1,2,0:0:0:0:
448,192,35250,1,2,0:0:0:0:
320,192,35574,1,2,0:0:0:0:
64,192,35898,1,2,0:0:0:0:
192,192,36223,1,2,0:0:0:0:
448,192,36547,1,2,0:0:0:0:
192,192,36871,1,2,0:0:0:0:
320,192,37033,1,2,0:0:0:0:
448,192,37196,1,2,0:0:0:0:
192,192,37358,1,2,0:0:0:0:
64,192,37520,1,2,0:0:0:0:
448,192,37520,1,8,0:0:0:0:
320,192,37844,1,2,0:0:0:0:
192,192,38169,1,2,0:0:0:0:
448,192,38493,1,2,0:0:0:0:
192,192,38817,1,2,0:0:0:0:
320,192,39141,1,2,0:0:0:0:
64,192,39466,1,2,0:0:0:0:
192,192,39790,1,2,0:0:0:0:
448,192,40114,1,2,0:0:0:0:
320,192,40439,1,2,0:0:0:0:
192,192,40763,1,2,0:0:0:0:
320,192,41087,1,2,0:0:0:0:
64,192,41412,1,2,0:0:0:0:
192,192,41736,1,2,0:0:0:0:
448,192,42060,1,2,0:0:0:0:
320,192,42385,1,2,0:0:0:0:
64,192,42547,1,2,0:0:0:0:
448,192,42709,1,8,0:0:0:0:
192,192,42709,1,2,0:0:0:0:
64,192,43033,1,2,0:0:0:0:
320,192,43358,1,2,0:0:0:0:
192,192,43682,1,2,0:0:0:0:
448,192,44006,1,2,0:0:0:0:
64,192,44331,1,2,0:0:0:0:
192,192,44655,1,2,0:0:0:0:
320,192,44979,1,2,0:0:0:0:
192,192,45304,1,2,0:0:0:0:
448,192,45628,1,2,0:0:0:0:
320,192,45952,1,2,0:0:0:0:
64,192,46277,1,2,0:0:0:0:
192,192,46601,1,2,0:0:0:0:
320,192,46925,1,2,0:0:0:0:
64,192,47250,1,2,0:0:0:0:
448,192,47412,1,2,0:0:0:0:
192,192,47574,1,2,0:0:0:0:
320,192,47736,1,2,0:0:0:0:
448,192,47898,1,8,0:0:0:0:
64,192,47898,1,2,0:0:0:0:
192,192,48060,1,2,0:0:0:0:
320,192,48223,1,2,0:0:0:0:
448,192,48385,1,8,0:0:0:0:
64,192,48385,1,2,0:0:0:0:
320,192,48547,1,2,0:0:0:0:
192,192,48709,1,2,0:0:0:0:
64,192,48871,128,2,49196:0:0:0:0:
448,192,48871,1,8,0:0:0:0:
448,192,49196,128,2,49520:0:0:0:0:
192,192,49520,1,2,0:0:0:0:
320,192,49844,1,2,0:0:0:0:
192,192,50169,1,2,0:0:0:0:
448,192,50493,1,8,0:0:0:0:
64,192,50493,1,2,0:0:0:0:
192,192,50655,1,2,0:0:0:0:
320,192,50817,1,2,0:0:0:0:
64,192,50979,1,2,0:0:0:0:
448,192,50979,1,8,0:0:0:0:
320,192,51141,1,2,0:0:0:0:
192,192,51304,1,2,0:0:0:0:
320,192,51466,1,8,0:0:0:0:
448,192,51466,128,2,51790:0:0:0:0:
64,192,51790,128,2,52114:0:0:0:0:
192,192,52114,128,2,52439:0:0:0:0:
320,192,52439,128,2,52763:0:0:0:0:
448,192,52763,128,2,53087:0:0:0:0:
192,192,53087,1,8,0:0:0:0:
64,192,53087,1,0,0:0:0:0:
320,192,53412,1,2,0:0:0:0:
448,192,53736,1,2,0:0:0:0:
192,192,54060,1,2,0:0:0:0:
320,192,54385,1,2,0:0:0:0:
64,192,54709,1,2,0:0:0:0:
448,192,55033,1,2,0:0:0:0:
192,192,55358,1,2,0:0:0:0:
64,192,55682,1,4,0:0:0:0:
448,192,55682,128,8,56006:0:0:0:0:
192,192,56006,1,2,0:0:0:0:
320,192,56169,1,8,0:0:0:0:
64,192,56169,128,0,56493:0:0:0:0:
320,192,56493,1,2,0:0:0:0:
192,192,56655,1,8,0:0:0:0:
448,192,56655,128,4,56979:0:0:0:0:
192,192,56979,1,2,0:0:0:0:
320,192,57141,1,8,0:0:0:0:
64,192,57141,128,0,57466:0:0:0:0:
320,192,57466,1,2,0:0:0:0:
192,192,57628,1,8,0:0:0:0:
448,192,57628,128,4,57952:0:0:0:0:
64,192,57952,1,2,0:0:0:0:
192,192,58114,1,2,0:0:0:0:
320,192,58277,1,2,0:0:0:0:
448,192,58277,1,8,0:0:0:0:
64,192,58610,1,0,0:0:0:0:
320,192,58943,1,0,0:0:0:0:
192,192,59277,1,0,0:0:0:0:
448,192,59610,1,0,0:0:0:0:
64,192,59943,1,0,0:0:0:0:
320,192,60277,1,0,0:0:0:0:
192,192,60610,1,0,0:0:0:0:
448,192,60943,1,0,0:0:0:0:
320,192,61277,1,0,0:0:0:0:
192,192,61610,1,0,0:0:0:0:
320,192,61943,1,0,0:0:0:0:
448,192,62276,1,0,0:0:0:0:
320,192,62610,1,0,0:0:0:0:
64,192,62943,1,0,0:0:0:0:
448,192,63276,1,2,0:0:0:0:
320,192,63388,1,2,0:0:0:0:
192,192,63499,1,2,0:0:0:0:
448,192,63610,1,2,0:0:0:0:
64,192,63610,1,8,0:0:0:0:
448,192,63962,128,2,64315:0:0:0:0:
320,192,64315,128,2,64668:0:0:0:0:
192,192,64668,128,2,65021:0:0:0:0:
64,192,65021,128,2,65374:0:0:0:0:
192,192,65374,128,2,65727:0:0:0:0:
320,192,65727,128,2,66080:0:0:0:0:
64,192,65727,1,4,0:0:0:0:
448,192,66080,128,2,66433:0:0:0:0:
192,192,66080,1,4,0:0:0:0:
64,192,66433,128,2,67845:0:0:0:0:
320,192,66433,1,4,0:0:0:0:
320,192,67727,1,2,0:0:0:0:
448,192,67845,1,4,0:0:0:0:
192,192,68169,1,2,0:0:0:0:
64,192,68169,1,2,0:0:0:0:
448,192,68277,1,2,0:0:0:0:
320,192,68493,1,2,0:0:0:0:
192,192,68709,1,2,0:0:0:0:
64,192,68925,1,2,0:0:0:0:
320,192,69033,1,2,0:0:0:0:
192,192,69250,1,2,0:0:0:0:
448,192,69466,1,2,0:0:0:0:
320,192,69574,1,2,0:0:0:0:
64,192,69790,1,2,0:0:0:0:
192,192,70006,1,2,0:0:0:0:
320,192,70223,1,2,0:0:0:0:
448,192,70331,1,2,0:0:0:0:
192,192,70547,1,2,0:0:0:0:
320,192,70763,1,2,0:0:0:0:
448,192,70763,1,2,0:0:0:0:
64,192,70871,1,2,0:0:0:0:
192,192,71087,1,2,0:0:0:0:
448,192,71304,1,2,0:0:0:0:
320,192,71520,1,2,0:0:0:0:
192,192,71628,1,2,0:0:0:0:
64,192,71844,1,2,0:0:0:0:
320,192,72060,1,2,0:0:0:0:
448,192,72169,1,2,0:0:0:0:
192,192,72385,1,2,0:0:0:0:
320,192,72601,1,2,0:0:0:0:
64,192,72817,1,2,0:0:0:0:
192,192,72925,1,2,0:0:0:0:
448,192,73141,1,2,0:0:0:0:
192,192,73358,1,2,0:0:0:0:
64,192,73358,1,2,0:0:0:0:
320,192,73466,1,2,0:0:0:0:
192,192,73682,1,2,0:0:0:0:
448,192,73898,1,2,0:0:0:0:
64,192,74114,1,2,0:0:0:0:
192,192,74223,1,2,0:0:0:0:
448,192,74439,1,2,0:0:0:0:
320,192,74655,1,2,0:0:0:0:
64,192,74763,1,2,0:0:0:0:
192,192,74979,1,2,0:0:0:0:
320,192,75196,1,2,0:0:0:0:
448,192,75412,1,2,0:0:0:0:
192,192,75520,1,2,0:0:0:0:
320,192,75736,1,2,0:0:0:0:
64,192,75952,1,2,0:0:0:0:
448,192,75952,1,2,0:0:0:0:
192,192,76060,1,2,0:0:0:0:
320,192,76277,1,2,0:0:0:0:
448,192,76493,1,2,0:0:0:0:
192,192,76709,1,2,0:0:0:0:
320,192,76817,1,2,0:0:0:0:
64,192,77033,1,2,0:0:0:0:
448,192,77250,1,2,0:0:0:0:
192,192,77358,1,2,0:0:0:0:
320,192,77574,1,2,0:0:0:0:
64,192,77790,1,2,0:0:0:0:
192,192,78006,1,2,0:0:0:0:
448,192,78114,1,2,0:0:0:0:
320,192,78331,1,2,0:0:0:0:
64,192,78547,1,2,0:0:0:0:
448,192,78547,1,2,0:0:0:0:
192,192,78655,1,2,0:0:0:0:
448,192,78871,1,2,0:0:0:0:
320,192,79087,1,2,0:0:0:0:
192,192,79304,1,2,0:0:0:0:
320,192,79412,1,2,0:0:0:0:
64,192,79628,1,2,0:0:0:0:
448,192,79844,1,4,0:0:0:0:
320,192,79844,1,2,0:0:0:0:
192,192,79952,1,2,0:0:0:0:
320,192,80168,1,2,0:0:0:0:
64,192,80385,1,2,0:0:0:0:
192,192,80601,1,2,0:0:0:0:
448,192,80709,1,2,0:0:0:0:
320,192,80925,1,2,0:0:0:0:
448,192,81141,1,2,0:0:0:0:
192,192,81250,1,2,0:0:0:0:
320,192,81466,1,2,0:0:0:0:
64,192,81574,1,2,0:0:0:0:
448,192,81682,1,2,0:0:0:0:
192,192,81790,1,2,0:0:0:0:
320,192,81898,1,2,0:0:0:0:
192,192,82006,1,2,0:0:0:0:
64,192,82114,1,2,0:0:0:0:
448,192,82439,1,4,0:0:0:0:
64,192,82439,128,0,84439:0:0:0:0:
448,192,84439,128,2,84754:0:0:0:0:
320,192,84754,128,2,85070:0:0:0:0:
192,192,85070,128,2,85386:0:0:0:0:
64,192,85386,128,2,85702:0:0:0:0:
192,192,85702,128,2,86017:0:0:0:0:
320,192,86017,128,2,86333:0:0:0:0:
448,192,86333,128,2,86649:0:0:0:0:
320,192,86649,128,2,86965:0:0:0:0:
192,192,86965,128,2,87281:0:0:0:0:
64,192,87281,128,2,87596:0:0:0:0:
192,192,87596,128,2,87912:0:0:0:0:
320,192,87912,128,2,88228:0:0:0:0:
448,192,88228,128,2,88860:0:0:0:0:
192,192,88860,1,8,0:0:0:0:
64,192,88860,1,0,0:0:0:0:
320,192,89175,1,8,0:0:0:0:
448,192,89175,1,0,0:0:0:0:
64,192,89491,128,2,90123:0:0:0:0:
192,192,89491,1,4,0:0:0:0:
320,192,89807,1,8,0:0:0:0:
448,192,90123,128,2,90360:0:0:0:0:
320,192,90360,128,0,90596:0:0:0:0:
64,192,90439,1,8,0:0:0:0:
192,192,90596,128,0,90754:0:0:0:0:
448,192,90754,128,2,91544:0:0:0:0:
64,192,91070,1,8,0:0:0:0:
192,192,91386,1,2,0:0:0:0:
64,192,91544,128,0,91702:0:0:0:0:
192,192,91702,128,8,91860:0:0:0:0:
448,192,91860,128,0,92017:0:0:0:0:
320,192,92017,128,2,92491:0:0:0:0:
64,192,92017,1,4,0:0:0:0:
448,192,92333,1,8,0:0:0:0:
192,192,92491,128,0,92649:0:0:0:0:
64,192,92649,128,2,93281:0:0:0:0:
320,192,92965,1,8,0:0:0:0:
448,192,93281,128,2,93517:0:0:0:0:
320,192,93517,128,0,93754:0:0:0:0:
64,192,93596,1,8,0:0:0:0:
192,192,93754,128,0,94070:0:0:0:0:
448,192,93912,1,2,0:0:0:0:
320,192,94070,128,0,94228:0:0:0:0:
64,192,94228,128,8,94544:0:0:0:0:
448,192,94544,1,8,0:0:0:0:
320,192,94544,1,4,0:0:0:0:
64,192,95017,1,0,0:0:0:0:
192,192,95017,1,8,0:0:0:0:
192,192,95491,1,8,0:0:0:0:
448,192,95491,1,0,0:0:0:0:
64,192,95965,1,0,0:0:0:0:
320,192,95965,1,8,0:0:0:0:
448,192,96439,1,0,0:0:0:0:
320,192,96439,1,8,0:0:0:0:
192,192,96754,1,8,0:0:0:0:
64,192,96754,1,0,0:0:0:0:
320,192,97070,1,8,0:0:0:0:
448,192,97070,1,4,0:0:0:0:
64,192,97544,1,2,0:0:0:0:
192,192,97702,1,0,0:0:0:0:
448,192,97702,1,8,0:0:0:0:
320,192,97939,1,2,0:0:0:0:
192,192,98175,1,2,0:0:0:0:
64,192,98333,1,0,0:0:0:0:
448,192,98333,1,8,0:0:0:0:
320,192,98491,128,2,98649:0:0:0:0:
192,192,98649,128,2,98807:0:0:0:0:
64,192,98807,128,2,98965:0:0:0:0:
448,192,98965,128,8,99123:0:0:0:0:
320,192,99123,128,2,99281:0:0:0:0:
192,192,99281,128,8,99439:0:0:0:0:
320,192,99439,128,2,99596:0:0:0:0:
448,192,99596,128,2,100228:0:0:0:0:
64,192,99596,1,4,0:0:0:0:
64,192,99912,1,8,0:0:0:0:
192,192,100228,128,2,100465:0:0:0:0:
320,192,100465,128,0,100702:0:0:0:0:
448,192,100544,1,8,0:0:0:0:
64,192,100702,128,0,102123:0:0:0:0:
192,192,100860,1,2,0:0:0:0:
448,192,101175,1,8,0:0:0:0:
320,192,101491,1,2,0:0:0:0:
192,192,101807,1,8,0:0:0:0:
320,192,102123,1,4,0:0:0:0:
448,192,102123,128,2,104649:0:0:0:0:
64,192,102439,1,8,0:0:0:0:
320,192,102754,1,2,0:0:0:0:
192,192,103070,1,8,0:0:0:0:
320,192,103386,1,2,0:0:0:0:
192,192,103702,1,8,0:0:0:0:
64,192,104017,1,2,0:0:0:0:
192,192,104333,1,8,0:0:0:0:
64,192,104649,1,8,0:0:0:0:
320,192,104649,1,4,0:0:0:0:
448,192,105123,1,0,0:0:0:0:
192,192,105123,1,8,0:0:0:0:
64,192,105596,1,0,0:0:0:0:
320,192,105596,1,8,0:0:0:0:
448,192,106070,1,0,0:0:0:0:
192,192,106070,1,8,0:0:0:0:
64,192,106544,1,0,0:0:0:0:
192,192,106544,1,8,0:0:0:0:
192,192,106860,1,0,0:0:0:0:
320,192,106860,1,8,0:0:0:0:
448,192,107175,1,8,0:0:0:0:
64,192,107175,1,4,0:0:0:0:
64,192,107649,1,0,0:0:0:0:
192,192,107807,1,0,0:0:0:0:
448,192,107807,1,8,0:0:0:0:
320,192,108044,1,0,0:0:0:0:
192,192,108281,1,0,0:0:0:0:
64,192,108439,1,0,0:0:0:0:
448,192,108439,1,8,0:0:0:0:
192,192,108596,128,0,109070:0:0:0:0:
320,192,108596,1,0,0:0:0:0:
448,192,109070,1,8,0:0:0:0:
64,192,109070,128,0,109386:0:0:0:0:
320,192,109228,1,0,0:0:0:0:
448,192,109386,128,0,109702:0:0:0:0:
192,192,109386,1,2,0:0:0:0:
64,192,109702,1,4,0:0:0:0:
192,192,109702,1,8,0:0:0:0:
448,192,110175,1,0,0:0:0:0:
320,192,110175,1,8,0:0:0:0:
64,192,110649,1,0,0:0:0:0:
320,192,110649,1,8,0:0:0:0:
448,192,111123,1,0,0:0:0:0:
192,192,111123,1,8,0:0:0:0:
192,192,111439,1,8,0:0:0:0:
320,192,111439,1,0,0:0:0:0:
64,192,111754,1,0,0:0:0:0:
448,192,111754,1,8,0:0:0:0:
192,192,112228,1,2,0:0:0:0:
448,192,112228,128,8,112544:0:0:0:0:
64,192,112544,1,2,0:0:0:0:
320,192,112702,1,2,0:0:0:0:
192,192,112860,1,2,0:0:0:0:
448,192,113017,1,2,0:0:0:0:
64,192,113175,1,8,0:0:0:0:
192,192,113175,128,2,113491:0:0:0:0:
320,192,113491,1,2,0:0:0:0:
64,192,113649,1,2,0:0:0:0:
448,192,113807,1,2,0:0:0:0:
192,192,113965,1,2,0:0:0:0:
64,192,114123,1,2,0:0:0:0:
448,192,114123,128,8,114439:0:0:0:0:
320,192,114281,1,2,0:0:0:0:
192,192,114439,1,2,0:0:0:0:
320,192,114596,1,2,0:0:0:0:
448,192,114754,1,8,0:0:0:0:
64,192,114754,1,2,0:0:0:0:
320,192,115070,1,2,0:0:0:0:
192,192,115386,1,2,0:0:0:0:
320,192,115491,1,2,0:0:0:0:
192,192,115596,1,2,0:0:0:0:
320,192,115702,1,2,0:0:0:0:
448,192,116017,1,8,0:0:0:0:
64,192,116017,128,4,118478:0:0:0:0:
192,192,116478,1,2,0:0:0:0:
320,192,116940,1,2,0:0:0:0:
192,192,117555,1,2,0:0:0:0:
320,192,117863,1,2,0:0:0:0:
448,192,118017,1,2,0:0:0:0:
320,192,118170,1,2,0:0:0:0:
192,192,118324,1,2,0:0:0:0:
320,192,118478,1,2,0:0:0:0:
192,192,118632,1,2,0:0:0:0:
64,192,118786,1,0,0:0:0:0:
448,192,118786,1,8,0:0:0:0:
320,192,118786,1,4,0:0:0:0:
192,192,119093,1,2,0:0:0:0:
320,192,119247,1,8,0:0:0:0:
448,192,119247,1,4,0:0:0:0:
64,192,119247,1,0,0:0:0:0:
