osu file format v5

[General]
AudioFilename: Futurama - Opening.mp3
AudioLeadIn: 1996
PreviewTime: -1
Countdown: 1
SampleSet: Normal
StackLeniency: 0.7
Mode: 0
LetterboxInBreaks: 1

[Editor]
Bookmarks: 1160,1547,1702,1934,2166,2476,2708,3172,3559,3791,4023,4719,4797,4874,5106,5338,6654,6886,7428,8279,8356,8511,8743,9517,10058,10832,11064,11606,12147,12921,13153,13385,13695,14469,14701,15242,15784,16558,16790,17332,17873,18647,18879,19421,19962,20736,20968,21278,21510,21819,22051,22206,22361,22516,22593,22748,22825,22903,23367,23599,23909,24141,24373,24528,24682,24914,25147,25456,25688,25920,26230,26307
DistanceSpacing: 0.800000011920929
BeatDivisor: 6
GridSize: 8

[Metadata]
Title:Futurama Theme
Artist:Christopher Tyng
Creator:foLn
Version:Hard
Source:Futurama
Tags:futurama bender leela fry simpsons matt groening

[Difficulty]
HPDrainRate:7
CircleSize:6
OverallDifficulty:7
SliderMultiplier:1.7
SliderTickRate:2

[Events]
//Background and Video events
0,0,"futurama_title_screen.jpg"
Video,1000,"futurama_backgroundvideo.avi"
//Break Periods
//Storyboard Layer 0 (Background)
//Storyboard Layer 1 (Fail)
//Storyboard Layer 2 (Pass)
//Storyboard Layer 3 (Foreground)
//Storyboard Sound Samples
//Background Colour Transformations
3,100,163,162,255

[TimingPoints]
1174,521.739130434783,4,2,0,90,1,0
5340,-100,4,1,0,80,0,1
5413,-100,4,1,0,80,0,0
24295,-100,4,1,0,80,0,0

[Colours]
Combo1 : 200,4,4
Combo2 : 0,191,5
Combo3 : 225,225,0

[HitObjects]
304,112,1174,2,0,L|192:256,1,170
128,240,1956,1,0
128,176,2217,1,0
128,112,2478,1,0
128,48,2739,2,0,L|240:16,1,85
256,64,3260,2,2,L|336:160,1,85
352,176,3782,1,2
368,240,4043,2,0,L|256:240,1,85
208,240,4565,1,2
160,288,4826,1,0
112,240,5087,1,0
176,224,5347,5,8
304,224,5869,1,8
448,48,6652,1,4
448,112,6913,1,4
448,272,7434,6,8,B|368:352|256:272,1,170
96,176,8739,1,4
144,128,9000,1,4
288,80,9521,6,8,B|384:80|432:208,1,170
96,32,10826,1,4
160,32,11087,1,4
0,32,11608,2,8,B|208:32,1,170
336,208,12913,6,4,L|400:272|320:304,1,170
256,272,13695,1,8
192,144,14217,5,0
160,80,14478,1,4
224,48,14739,1,4
256,112,15000,1,0
320,176,15260,6,8,L|176:304,1,170
264,296,16043,1,0
328,272,16304,1,0
344,208,16565,1,4
400,176,16826,1,4
384,112,17087,1,0
368,48,17347,2,8,L|240:208,1,170
192,160,18130,5,0
240,112,18391,1,0
192,64,18652,1,4
128,64,18913,1,4
192,64,19174,1,0
256,64,19434,2,8,B|256:160|320:256,1,170
368,208,20217,1,8
432,208,20478,1,8
400,144,20739,5,4
400,144,21000,1,4
400,144,21260,2,12,L|336:208,2,85
352,96,22043,6,2,L|304:48|256:80|192:48|144:128|224:160|160:208|96:176|112:256|208:272,1,680
256,272,24391,5,0
320,288,24652,2,8,L|272:368,2,85
256,272,25434,2,10,L|208:352,2,85
296,216,26217,1,14
