osu file format v5

[General]
AudioFilename: 13 - Fun and Mini-Games.mp3
AudioLeadIn: 0
PreviewTime: -1
Countdown: 1
SampleSet: Normal
StackLeniency: 0.7
Mode: 0
LetterboxInBreaks: 1

[Metadata]
Title:Fun and Mini-Games
Artist:Christophe Heral
Creator:dumpsterdiver
Version:BET 1000 AGAINST THE PEARL
Source:Beyond Good and Evil
Tags:

[Difficulty]
HPDrainRate:6
CircleSize:6
OverallDifficulty:7
SliderMultiplier:2
SliderTickRate:1

[Events]
//Background and Video events
0,0,"funnminigames.png"
//Break Periods
2,61916,70863
//Storyboard Layer 0 (Background)
//Storyboard Layer 1 (Failing)
//Storyboard Layer 2 (Passing)
//Storyboard Layer 3 (Foreground)
//Storyboard Sound Samples
//Background Colour Transformations
3,100,163,162,255

[TimingPoints]
30,524.475524475524,4,1,0,100,1

[HitObjects]
384,64,3963,2,0,B|304:64,3,50,0|0|0|0
283,64,4488,2,0,B|203:64,3,50,0|0|0|0
183,62,5012,2,0,B|103:62,3,50,0|0|0|0
134,111,5536,2,0,B|214:111,3,50,0|0|0|0
234,112,6061,1,8
283,112,6192,1,8
332,112,6323,1,8
339,211,6585,2,0,B|419:211,3,50
338,212,7110,2,0,B|266:212,3,50
238,211,7634,2,0,B|158:211,3,50
137,211,8159,2,0,B|57:211,6,50,0|0|0|0|8|8|8
256,192,10257,6,8,B|256:256,2,50
256,192,12355,6,0,B|176:192,3,50
256,192,12879,2,0,B|256:272,3,50
256,192,13404,2,0,B|328:192,3,50
256,192,13928,2,0,B|256:120,3,50
256,88,14453,1,8
296,112,14584,1,8
336,136,14715,1,8
408,200,14977,2,0,B|408:280,3,50
408,200,15502,2,0,B|408:120,3,50
409,100,16026,2,0,B|329:100,3,50
309,100,16550,2,0,B|229:100,6,50,0|0|0|0|8|8|8
256,184,18648,5,8
256,184,18779,1,8
256,184,18911,1,8
56,80,20746,5,8
56,80,20877,1,8
56,80,21009,2,8,B|216:80,1,150,10|8
352,80,21795,1,8
352,80,21926,1,8
352,80,22057,2,8,B|168:80,1,150,10|8
112,200,22844,1,8
144,232,22975,1,8
184,256,23106,1,8
232,272,23238,1,8
328,264,23500,1,8
408,200,23762,1,8
464,120,24024,1,8
320,72,24942,5,8
320,72,25073,1,8
320,72,25204,2,8,B|136:72,1,150,10|8
168,224,25991,1,8
168,224,26122,1,8
168,224,26253,2,8,B|328:224,1,150,10|8
384,152,26909,1,0
392,104,27040,1,8
360,64,27171,1,8
313,44,27302,1,8
263,39,27433,1,8
168,64,27696,1,8
96,136,27958,1,8
88,232,28220,1,8
184,192,29138,5,8
184,192,29269,1,8
184,192,29400,2,8,B|344:192,1,150,10|8
336,192,30187,1,8
336,192,30318,1,8
336,192,30449,2,8,B|160:192,1,150,10|8
256,192,31236,1,8
256,192,31367,1,8
256,192,31498,1,8
256,192,31629,1,8
256,192,31891,1,8
256,192,32154,1,8
256,192,32416,1,8
64,184,33334,5,8
64,184,33465,1,8
64,184,33596,2,8,B|184:304,1,150,10|8
320,272,34383,1,8
320,272,34514,1,8
320,272,34645,2,8,B|448:160,1,150,10|8
336,160,35300,1,8
288,160,35432,1,8
240,160,35563,1,8
192,160,35694,1,8
144,160,35825,1,8
152,256,36087,1,8
256,192,36349,1,8
256,192,36612,1,8
64,88,37529,6,0,B|104:56,1,50
153,57,37792,2,0,B|201:105,1,50
238,96,38054,2,0,B|278:56,1,50
323,61,38316,2,0,B|363:109,1,50,0|0
363,148,38578,2,0,B|291:148,1,50
313,198,38841,2,0,B|385:198,1,50
365,247,39103,2,0,B|365:311,1,50
364,346,39365,2,0,B|292:346,1,50
264,346,39627,1,8
213,346,39759,1,8
163,346,39890,1,8
178,247,40152,6,0,B|106:247,1,50
78,243,40414,2,0,B|110:179,1,50
148,184,40676,2,0,B|204:184,1,50
200,133,40939,2,0,B|128:133,1,50
157,83,41201,2,0,B|85:83,1,50
109,33,41463,2,0,B|173:33,1,50
208,33,41725,2,0,B|248:89,1,50
255,120,41988,2,0,B|199:168,1,50
202,200,42250,1,8
202,249,42381,1,8
200,298,42512,1,8
256,192,43692,6,0,B|176:192,4,50
256,192,44348,1,8
256,192,44479,1,8
256,192,44610,2,8,B|376:192,1,100,8|0
472,48,45921,6,0,B|400:48,1,50
372,48,46183,2,0,B|300:48,1,50
271,49,46446,2,0,B|199:49,1,50
171,49,46708,2,0,B|99:49,1,50
71,51,46970,2,0,B|71:123,1,50
71,150,47232,2,0,B|71:206,1,50
71,250,47495,2,0,B|71:306,1,50
69,349,47757,2,0,B|125:349,1,50
168,352,48019,1,8
217,352,48150,1,8
266,352,48281,1,8
365,350,48543,6,0,B|421:350,1,50
465,347,48806,2,0,B|465:267,1,50
465,247,49068,2,0,B|465:191,1,50
464,147,49330,2,0,B|392:147,1,50
384,187,49592,2,0,B|312:187,1,50
309,230,49855,2,0,B|237:230,1,50
233,272,50117,2,0,B|161:272,1,50
158,315,50379,2,0,B|86:315,1,50
109,315,50641,1,8
109,315,50773,1,8
109,315,50904,1,8
256,192,52084,6,0,B|176:192,4,50
256,136,52739,1,8
312,192,52870,1,8
256,248,53002,1,8
256,192,54313,5,8
256,192,54444,1,8
256,192,54575,2,8,B|416:192,1,150,10|8
272,128,55362,1,8
272,128,55493,1,8
272,128,55624,2,8,B|432:128,1,150,10|8
424,280,56411,1,8
424,280,56542,1,8
376,280,56673,1,8
376,280,56804,1,8
272,280,57066,1,8
272,280,57328,1,8
272,280,57591,1,8
256,192,58509,5,8
256,192,58641,1,8
256,192,58772,2,8,B|416:192,1,150,10|8
272,128,59558,1,8
272,128,59689,1,8
272,128,59821,2,8,B|432:128,1,150
424,224,60475,1,8
424,272,60607,1,8
424,320,60738,1,8
376,320,60870,1,8
328,320,61001,1,8
224,320,61263,1,8
224,320,61525,1,8
328,320,61787,1,8
80,72,72146,5,0
80,72,72277,1,0
80,72,72408,2,0,B|136:80,1,50
128,80,72670,1,0
128,80,72801,1,0
128,80,72932,2,0,B|184:88,1,50
176,88,73194,1,0
176,88,73326,1,0
176,88,73457,2,0,B|232:96,1,50
224,96,73719,1,0
224,96,73850,1,0
224,96,73981,2,0,B|280:104,1,50
320,112,74243,1,8
320,112,74374,1,8
320,112,74505,2,8,B|280:160,1,50,8|0
288,200,74768,6,0,B|344:200,5,50
387,200,75554,2,0,B|427:152,3,50
413,111,76079,2,0,B|341:111,3,50
312,111,76604,1,8
312,111,76735,1,8
312,111,76866,1,8
312,111,76997,1,8
312,111,77128,1,8
256,192,78439,5,8
256,192,78571,1,8
256,192,78702,1,8
432,72,80536,5,0
432,72,80667,1,0
432,72,80798,2,0,B|376:80,1,50
384,80,81060,1,0
384,80,81191,1,0
384,80,81322,2,0,B|328:88,1,50
336,88,81584,1,0
336,88,81716,1,0
336,88,81847,2,0,B|280:96,1,50
288,96,82109,1,0
288,96,82240,1,0
288,96,82371,2,0,B|232:104,1,50
192,112,82633,1,8
192,112,82764,1,8
192,112,82895,2,8,B|232:160,1,50,8|0
224,200,83158,6,0,B|168:200,5,50
125,200,83944,2,0,B|85:152,3,50
99,111,84469,2,0,B|171:111,3,50
200,111,84994,1,8
200,111,85125,1,8
200,111,85256,1,8
200,111,85387,1,8
200,111,85518,1,8
256,192,86830,5,8
256,192,86961,1,8
256,192,87092,1,8
32,32,88928,5,8
32,32,89059,1,8
32,32,89190,2,8,B|192:32,1,150,10|8
480,344,89977,1,8
480,344,90108,1,8
480,344,90239,2,8,B|280:344,1,150,10|8
256,192,91026,1,8
256,192,91157,1,8
256,192,91288,1,8
256,192,91419,1,8
256,192,91681,1,8
256,192,91944,1,8
256,192,92206,1,8
472,32,93124,5,8
472,32,93255,1,8
472,32,93386,2,8,B|472:184,1,150,10|8
40,352,94173,1,8
40,352,94304,1,8
40,352,94435,2,8,B|40:200,1,150,10|8
256,192,95090,1,8
256,192,95222,1,8
256,192,95353,1,8
256,192,95484,1,8
256,192,95615,1,8
256,192,95877,1,8
256,192,96140,1,8
256,192,96402,1,8
32,48,97320,5,8
80,48,97451,1,8
128,48,97582,2,8,B|288:48,1,150,10|8
480,48,98369,1,8
432,48,98500,1,8
384,48,98631,2,8,B|208:48,1,150,10|8
256,192,99417,1,8
256,192,99549,1,8
256,192,99680,1,8
256,192,99811,1,8
256,192,100073,1,8
256,192,100335,1,8
256,192,100598,1,8
480,336,101516,5,8
432,336,101647,1,8
384,336,101778,2,8,B|224:336,1,150,10|8
32,336,102565,1,8
80,336,102696,1,8
128,336,102827,2,8,B|304:336,1,150,10|8
256,192,103482,1,8
256,192,103613,1,8
256,192,103745,1,8
256,192,103876,1,8
256,192,104007,1,8
256,192,104269,1,8
256,192,104531,1,8
256,192,104794,1,12
