osu file format v10

[General]
AudioFilename: 06 Let There Be Love.mp3
AudioLeadIn: 0
PreviewTime: -1
Countdown: 1
SampleSet: Normal
StackLeniency: 0.7
Mode: 0
LetterboxInBreaks: 1

[Editor]
Bookmarks: 115881
DistanceSpacing: 1
BeatDivisor: 4
GridSize: 8

[Metadata]
Title:Let There Be Love
TitleUnicode:Let There Be Love
Artist:Christina Aguilera
ArtistUnicode:Christina Aguilera
Creator:Lehon
Version:Normal
Source:
Tags:
BeatmapID:190339
BeatmapSetID:64782

[Difficulty]
HPDrainRate:5
CircleSize:4
OverallDifficulty:5
ApproachRate:5
SliderMultiplier:1.6
SliderTickRate:1

[Events]
//Background and Video events
0,0,"christina aguilera lotus2.jpg"
//Break Periods
2,74831,88900
2,150300,155696
//Storyboard Layer 0 (Background)
//Storyboard Layer 1 (Fail)
//Storyboard Layer 2 (Pass)
//Storyboard Layer 3 (Foreground)
//Storyboard Sound Samples
//Background Colour Transformations
3,100,163,162,255

[TimingPoints]
15100,468.75,4,1,0,100,1,0
60100,-100,4,1,0,100,0,1
75100,-100,4,1,0,100,0,0
120100,-100,4,1,0,100,0,1
135100,-100,4,1,0,100,0,0
157600,-133.333333333333,4,1,0,100,0,0
163225,-100,4,1,0,100,0,0
168850,-100,4,1,0,100,0,1
183732,-100,4,1,0,100,0,0
183850,-100,4,1,0,100,0,1
198850,-100,4,1,0,100,0,0

[Colours]
Combo1 : 255,255,106
Combo2 : 124,252,124
Combo3 : 121,121,253
Combo4 : 252,105,105

[HitObjects]
184,296,15334,1,0,0:0:0
256,328,15568,1,0,0:0:0
328,296,15803,1,0,0:0:0
296,224,16037,2,0,P|200:224,2,80
328,64,16975,2,0,P|264:40|168:72,2,160
256,208,18381,1,0,0:0:0
256,208,18615,1,2,0:0:0
216,360,19084,6,0,P|136:320,2,80
296,360,19787,2,0,P|376:320,2,80
376,224,20725,1,0,0:0:0
256,120,21193,1,0,0:0:0
136,224,21662,1,0,0:0:0
256,328,22131,2,0,P|256:216,1,80,0|2,0:0|0:0,0:0:0
304,184,22600,6,0,P|368:176|384:152,1,80
352,88,23068,2,0,P|288:96|272:120,2,80
432,104,23771,1,0,0:0:0
456,184,24006,1,0,0:0:0
368,320,24475,1,0,0:0:0
256,208,24943,1,0,0:0:0
144,320,25412,1,0,0:0:0
48,192,25881,2,0,P|16:104,1,80,0|2,0:0|0:0,0:0:0
96,96,26350,6,0,P|128:128|120:176,2,80
136,24,27053,1,0,0:0:0
208,56,27287,1,0,0:0:0
216,136,27521,1,0,0:0:0
400,56,27990,2,0,P|472:112,2,80
352,120,28693,2,0,P|368:152|416:160,1,80
256,208,29396,1,0,0:0:0
112,272,29865,5,0,0:0:0
187,251,30100,2,0,P|257:288|333:237,1,160,0|8,0:0|0:0,0:0:0
328,160,30803,2,0,P|258:123|176:168,1,160,0|0,0:0|0:0,0:0:0
120,112,31506,1,8,0:0:0
256,312,32209,2,2,P|216:256|320:208|248:152,1,160
56,296,33381,5,2,0:0:0
128,256,33615,1,2,0:0:0
168,320,33850,1,2,0:0:0
256,192,34318,1,10,0:0:0
344,320,34787,1,2,0:0:0
384,256,35022,1,2,0:0:0
456,296,35256,1,10,0:0:0
456,216,35490,2,2,P|400:176|321:206,1,160
190,206,36428,2,2,P|112:176|56:216,1,160
136,352,37365,5,0,0:0:0
208,304,37600,2,0,P|240:352|304:288,1,160,0|8,0:0|0:0,0:0:0
304,224,38303,2,0,P|272:176|208:240,1,160
136,264,39006,1,8,0:0:0
184,32,39709,2,2,P|296:56|352:16,1,160
424,256,40881,5,10,0:0:0
424,176,41115,1,2,0:0:0
352,208,41350,1,2,0:0:0
256,96,41818,1,10,0:0:0
96,128,42287,1,2,0:0:0
176,144,42521,1,2,0:0:0
176,224,42756,1,10,0:0:0
208,296,42990,2,2,P|256:352|296:288,2,160
208,136,44396,5,0,0:0:0
256,72,44631,1,0,0:0:0
304,136,44865,1,0,0:0:0
296,216,45100,2,0,P|208:216,2,80,4|0|0,0:0|0:0|0:0,0:0:0
312,296,45803,2,4,P|264:320|200:288,2,120
376,152,46975,1,0,0:0:0
256,48,47443,1,0,0:0:0
136,152,47912,1,0,0:0:0
216,288,48381,6,0,P|304:288,2,80,0|0|4,0:0|0:0|0:0,0:0:0
256,176,49201,2,0,P|256:56,2,120,0|4|4,0:0|0:0|0:0,0:0:0
256,296,50256,1,4,0:0:0
340,133,50725,2,0,P|376:72|328:8,1,160
184,8,51662,2,0,P|136:72|176:136,1,160
176,216,52365,1,0,0:0:0
256,224,52600,6,0,P|256:320,2,80,4|0|8,0:0|0:0|0:0,0:0:0
336,216,53303,1,4,0:0:0
312,96,53654,2,0,P|280:72|192:120,1,120,4|12,0:0|0:0,0:0:0
88,192,54475,1,0,0:0:0
168,328,54943,1,8,0:0:0
328,328,55412,1,0,0:0:0
424,192,55881,5,8,0:0:0
416,112,56115,1,0,0:0:0
336,88,56350,2,0,P|352:48|400:32,2,80,4|0|8,0:0|0:0|0:0,0:0:0
256,96,57053,1,4,0:0:0
256,256,57521,2,0,P|256:336,2,80,0|8|0,0:0|0:0|0:0,0:0:0
176,120,58459,1,0,0:0:0
336,120,58928,1,0,0:0:0
256,256,59396,1,0,0:0:0
256,256,59631,1,0,2:0:0
104,312,60100,5,4,0:0:0
56,248,60334,1,0,0:0:0
88,176,60568,1,8,0:0:0
168,160,60803,2,4,P|224:184|288:152,2,120,4|4|12,0:0|0:0|0:0,0:0:0
256,24,61975,5,0,0:0:0
392,104,62443,1,8,0:0:0
344,256,62912,1,0,0:0:0
424,240,63146,2,0,P|472:232|472:280|520:248,2,80,0|8|0,0:0|0:0|0:0,0:0:0
400,320,63850,6,0,P|352:344|304:328,1,80,4|0,0:0|0:0,0:0:0
256,304,64318,1,8,0:0:0
256,224,64553,2,4,P|256:88,2,120,4|4|12,0:0|0:0|0:0,0:0:0
176,360,65725,5,0,0:0:0
336,360,66193,1,8,0:0:0
328,168,66662,1,0,0:0:0
256,128,66896,1,0,0:0:0
184,168,67131,1,8,0:0:0
256,208,67365,1,0,0:0:0
256,288,67600,2,0,P|256:368,2,80,4|0|8,0:0|0:0|0:0,0:0:0
256,288,68303,1,4,0:0:0
184,168,68654,1,4,0:0:0
328,168,69006,1,12,0:0:0
304,16,69475,2,0,P|272:64|208:0,1,160,0|8,0:0|0:0,0:0:0
168,248,70412,6,0,P|120:184,2,80,0|0|8,0:0|0:0|0:0,0:0:0
256,264,71115,1,0,0:0:0
344,248,71350,2,0,P|392:184,2,80,4|0|8,0:0|0:0|0:0,0:0:0
312,312,72053,2,0,P|256:360|192:296,1,160,4|0,0:0|0:0,0:0:0
256,264,72756,1,8,0:0:0
256,184,72990,2,0,P|208:128|312:88|256:32,2,160
256,328,74396,1,0,0:0:0
256,328,74631,1,0,2:0:0
184,72,90100,6,0,P|264:48|344:88,1,160,0|8,0:0|0:0,0:0:0
328,160,90803,2,0,P|248:184|168:144,1,160
112,112,91506,1,8,0:0:0
176,256,91975,1,0,0:0:0
336,256,92443,1,8,0:0:0
400,112,92912,1,0,0:0:0
416,272,93381,6,2,P|432:192,2,80,10|2|2,0:0|0:0|0:0,0:0:0
256,200,94318,1,10,0:0:0
96,272,94787,2,2,P|80:192,2,80,2|2|10,0:0|0:0|0:0,0:0:0
176,288,95490,2,2,P|256:312|336:288,2,160
408,72,97365,5,0,0:0:0
440,144,97600,2,0,P|360:136|328:64,1,160,0|8,0:0|0:0,0:0:0
256,216,98537,1,0,0:0:0
104,72,99006,1,8,0:0:0
72,144,99241,2,2,P|152:136|184:64,2,160
176,360,100881,5,10,0:0:0
256,360,101115,1,2,0:0:0
336,360,101350,1,2,0:0:0
256,224,101818,1,10,0:0:0
256,64,102287,2,2,P|256:-24,2,80,2|0|10,0:0|0:0|0:0,0:0:0
184,120,102990,2,2,P|256:152|328:120,2,160
184,264,104396,5,0,0:0:0
256,304,104631,1,0,0:0:0
328,264,104865,1,0,0:0:0
400,232,105100,2,0,P|440:256|496:240,2,80,4|0|0,0:0|0:0|0:0,0:0:0
400,152,105803,2,4,P|472:152|512:192,2,120
256,224,106975,1,0,0:0:0
256,64,107443,1,0,0:0:0
256,224,107912,5,0,0:0:0
328,264,108146,1,0,0:0:0
256,304,108381,1,0,0:0:0
184,264,108615,1,0,0:0:0
112,232,108850,2,0,P|72:256|16:240,2,80,4|0|0,0:0|0:0|0:0,0:0:0
112,152,109553,2,4,P|40:152|0:192,2,120
192,16,110725,1,0,0:0:0
256,160,111193,1,0,0:0:0
320,16,111662,1,0,0:0:0
384,160,112131,6,0,P|408:240,1,80
488,248,112600,2,0,P|496:200|488:168,2,80,4|0|8,0:0|0:0|0:0,0:0:0
432,304,113303,1,4,0:0:0
304,288,113654,2,4,P|256:320|208:288,1,120,4|12,0:0|0:0,0:0:0
208,128,114475,5,0,0:0:0
336,32,114943,1,8,0:0:0
176,32,115412,1,0,0:0:0
304,128,115881,1,8,0:0:0
336,200,116115,1,0,0:0:0
296,272,116350,6,0,P|200:272,2,80,4|0|8,0:0|0:0|0:0,0:0:0
376,272,117053,1,0,0:0:0
232,352,117521,2,0,P|144:352,1,80,0|8,0:0|0:0,0:0:0
152,272,117990,1,0,0:0:0
256,152,118459,1,0,0:0:0
360,272,118928,1,0,0:0:0
256,152,119396,2,0,P|240:184|280:208|248:240,1,80,0|0,0:0|2:0,0:0:0
320,80,120100,5,4,0:0:0
256,32,120334,1,0,0:0:0
192,80,120568,1,8,0:0:0
184,160,120803,1,4,0:0:0
256,256,121154,1,4,0:0:0
328,160,121506,1,12,0:0:0
144,256,121975,6,0,P|64:296,1,80
144,328,122443,2,0,P|224:296,1,80,8|0,0:0|0:0,0:0:0
293,298,122912,2,0,P|368:328,1,80
439,291,123380,2,0,P|368:256,1,80,8|0,0:0|0:3,0:3:0
296,216,123850,6,0,P|200:216,2,80,4|0|8,0:0|0:0|0:0,0:0:0
336,144,124553,1,4,0:0:0
256,56,124904,1,4,0:0:0
176,144,125256,1,12,0:0:0
176,304,125725,5,0,0:0:0
336,304,126193,1,8,0:0:0
336,144,126662,1,0,0:0:0
296,72,126896,1,0,0:0:0
216,72,127131,1,8,0:0:0
176,144,127365,1,0,0:0:0
216,216,127600,6,0,P|296:216,2,80,4|0|8,0:0|0:0|0:0,0:0:0
192,296,128303,2,0,P|328:296,2,120,4|4|12,0:0|0:0|0:0,0:0:0
144,144,129475,2,0,P|144:64,1,80
216,96,129943,2,0,P|216:184,1,80,8|0,0:0|0:0,0:0:0
296,176,130412,2,0,P|296:96,1,80
368,64,130880,2,0,P|368:144,1,80,8|0,0:0|0:0,0:0:0
352,224,131350,5,4,0:0:0
296,280,131584,1,0,0:0:0
216,280,131818,1,8,0:0:0
160,224,132053,1,4,0:0:0
216,72,132521,2,0,P|304:72,2,80,0|8|0,0:0|0:0|0:0,0:0:0
256,144,133225,2,0,P|256:208,12,40,0|0|0|0|0|0|0|0|0|0|0|0|8,0:0|0:0|0:0|0:0|0:0|0:0|0:0|0:0|0:0|0:0|0:0|0:0|0:0,0:0:0
256,64,134865,1,0,2:2:0
176,88,135100,6,0,P|168:208,1,120,4|0,0:0|0:0,0:0:0
336,88,135803,2,0,P|344:208,1,120,4|0,0:0|0:0,0:0:0
256,288,136506,1,4,0:0:0
216,136,136975,2,2,P|136:128,2,80,0|2|0,0:0|0:0|0:0,0:0:0
296,136,137678,2,2,P|376:128,2,80,0|2|0,0:0|0:0|0:0,0:0:0
256,208,138381,1,2,0:0:0
408,248,138850,6,0,P|328:344,1,120,4|0,0:0|0:0,0:0:0
180,340,139553,2,0,P|104:248,1,120,4|0,0:0|0:0,0:0:0
256,208,140256,1,4,0:0:0
256,48,140725,2,2,P|344:48,1,80,0|2,0:0|0:0,0:0:0
376,112,141193,2,2,P|288:112,1,80,0|2,0:0|0:0,0:0:0
216,112,141662,2,2,P|136:112,1,80,0|2,0:0|0:0,0:0:0
176,48,142131,2,0,P|256:48,1,80,2|0,0:0|0:0,0:0:0
256,128,142600,6,0,P|224:168|288:216|240:256,4,120,4|0|4|0|4,0:0|0:0|0:0|0:0|0:0,0:0:0
176,264,144475,1,2,0:0:0
208,336,144709,1,2,0:0:0
256,272,144943,1,2,0:0:0
304,336,145178,1,2,0:0:0
336,264,145412,1,2,0:0:0
296,192,145646,1,2,0:0:0
216,192,145881,1,2,0:0:0
320,64,146350,6,0,P|176:64,3,120,4|0|4|0,0:0|0:0|0:0|0:0,0:0:0
256,168,147756,1,4,0:0:0
160,296,148225,1,2,0:0:0
216,352,148459,2,2,P|296:352,1,80,0|2,0:0|0:0,0:0:0
352,296,148928,1,2,0:0:0
296,240,149162,2,2,P|216:240,2,80,0|2|2,0:0|0:0|0:0,0:0:0
256,88,150100,1,0,2:2:0
256,88,156896,5,0,0:0:0
256,88,157131,1,0,0:0:0
200,192,157600,6,0,P|128:176|88:208,1,120.000004577637
312,192,158537,2,0,P|384:176|424:208,1,120.000004577637
312,304,159475,2,0,P|240:328|200:296,2,120.000004577637
256,216,160881,1,0,0:0:0
256,192,161350,12,0,162756,0:0:0
136,192,163225,5,0,0:0:0
216,192,163693,1,0,0:0:0
296,192,164162,1,0,0:0:0
376,192,164631,1,0,0:0:0
296,328,165100,6,0,P|208:328,3,80
216,248,166037,2,0,P|304:248,3,80
256,192,166975,12,0,168381,0:0:0
216,48,168850,6,0,P|304:48,2,80,0|0|8,0:0|0:0|0:0,0:0:0
200,128,169553,2,4,P|264:152|328:112,2,120,4|4|12,0:0|0:0|0:0,0:0:0
136,272,170725,6,0,P|144:320|166:339,1,80
185,212,171193,2,0,P|207:231|215:279,1,80,8|0,0:0|0:0,0:0:0
296,280,171662,2,0,P|304:232|326:212,1,80
345,339,172130,2,0,P|367:319|375:271,1,80,8|0,0:0|0:0,0:0:0
326,211,172600,5,4,0:0:0
256,168,172834,1,0,0:0:0
186,212,173068,1,8,0:0:0
200,288,173303,2,4,P|320:288,2,120,4|4|12,0:0|0:0|0:0,0:0:0
112,152,174475,6,0,P|96:88|104:64,1,80
176,96,174943,1,8,0:0:0
256,72,175178,1,0,0:0:0
336,96,175412,1,0,0:0:0
412,76,175646,2,0,P|416:88|400:152,1,80,0|8,0:0|0:0,0:0:0
328,184,176115,6,0,P|240:184,2,80,0|4|0,0:0|0:0|0:0,0:0:0
288,256,176818,2,0,P|192:256,1,80,8|4,0:0|0:0,0:0:0
192,136,177404,1,4,0:0:0
312,136,177756,1,12,0:0:0
384,280,178225,5,0,0:0:0
328,336,178459,1,0,0:0:0
296,264,178693,2,0,P|256:248|200:288,1,80,8|0,0:0|0:0,0:0:0
184,336,179162,1,0,0:0:0
128,280,179396,1,0,0:0:0
48,288,179631,2,0,P|40:368,2,80,8|0|4,0:0|0:0|0:0,0:0:0
80,216,180334,5,0,0:0:0
40,144,180568,1,8,0:0:0
120,144,180803,2,0,P|192:112|264:152,1,160,4|0,0:0|0:0,0:0:0
256,224,181506,1,8,0:0:0
256,304,181740,2,0,P|323:338|395:306,1,160
400,144,182678,5,0,0:0:0
400,64,182912,2,0,P|400:16,8,40,0|0|0|0|8|0|0|0|6,0:0|0:0|0:0|0:0|0:0|0:0|0:0|0:0|0:0,0:0:0
320,152,184201,5,0,0:0:0
256,48,184553,1,4,0:0:0
192,152,184904,1,0,0:0:0
256,256,185256,1,4,0:0:0
104,304,185725,6,2,P|16:304,2,80,0|0|8,0:0|0:0|0:0,0:0:0
104,224,186428,2,2,P|192:224,2,80,0|0|0,0:0|0:0|0:0,0:0:0
72,152,187131,1,10,0:0:0
104,80,187365,1,0,0:0:0
176,48,187600,6,0,P|176:144,2,80,6|0|8,0:0|0:0|0:0,0:0:0
248,72,188303,2,4,P|296:40|344:104,2,120,4|4|12,0:0|0:0|0:0,0:0:0
288,224,189475,6,2,P|368:216,1,80
376,296,189943,2,2,P|296:304,1,80
216,304,190412,2,2,P|136:296,1,80
144,216,190880,2,2,P|224:224,1,80,8|2,0:0|0:0,0:0:0
256,152,191350,5,6,0:0:0
216,80,191584,1,0,0:0:0
296,80,191818,1,8,0:0:0
312,0,192053,2,4,P|184:0,2,120,4|4|12,0:0|0:0|0:0,0:0:0
376,144,193225,5,2,0:0:0
328,208,193459,1,2,0:0:0
256,232,193693,1,10,0:0:0
184,208,193928,1,2,0:0:0
136,144,194162,1,2,0:0:0
216,120,194396,2,0,P|312:120,2,80,2|10|0,0:0|0:0|0:0,0:0:0
296,48,195100,6,0,P|200:48,2,80,2|0|8,0:0|0:0|0:0,0:0:0
376,48,195803,1,4,0:0:0
256,152,196271,2,0,P|256:232,1,80,0|8,0:0|0:0,0:0:0
184,272,196740,2,0,P|248:312|336:248,2,160
256,128,198146,1,0,0:0:0
256,128,198381,1,4,2:2:0
