osu file format v10

[General]
AudioFilename: 06 Let There Be Love.mp3
AudioLeadIn: 0
PreviewTime: -1
Countdown: 1
SampleSet: Normal
StackLeniency: 0.7
Mode: 0
LetterboxInBreaks: 1

[Editor]
Bookmarks: 115881
DistanceSpacing: 1
BeatDivisor: 8
GridSize: 8

[Metadata]
Title:Let There Be Love
TitleUnicode:Let There Be Love
Artist:Christina Aguilera
ArtistUnicode:Christina Aguilera
Creator:Lehon
Version:Insane
Source:
Tags:
BeatmapID:190338
BeatmapSetID:64782

[Difficulty]
HPDrainRate:8
CircleSize:5
OverallDifficulty:8
ApproachRate:7
SliderMultiplier:2
SliderTickRate:1

[Events]
//Background and Video events
0,0,"christina aguilera lotus2.jpg"
//Break Periods
2,74831,88965
2,150300,155996
//Storyboard Layer 0 (Background)
//Storyboard Layer 1 (Fail)
//Storyboard Layer 2 (Pass)
//Storyboard Layer 3 (Foreground)
//Storyboard Sound Samples
//Background Colour Transformations
3,100,163,162,255

[TimingPoints]
15100,468.75,4,1,0,80,1,0
60100,-100,4,1,0,80,0,1
75100,-100,4,1,0,80,0,0
120100,-100,4,1,0,80,0,1
135100,-100,4,1,0,80,0,0
168850,-100,4,1,0,80,0,1
183732,-100,4,1,0,80,0,0
183850,-100,4,1,0,80,0,1
198850,-100,4,1,0,80,0,0

[Colours]
Combo1 : 255,255,106
Combo2 : 124,252,124
Combo3 : 121,121,253
Combo4 : 252,105,105

[HitObjects]
160,336,15334,1,0,0:0:0
256,368,15568,1,0,0:0:0
352,344,15803,1,0,0:0:0
312,256,16037,2,0,P|208:256,2,100
448,104,16975,1,0,0:0:0
256,40,17443,1,0,0:0:0
64,96,17912,2,0,P|0:160|136:208|24:304,1,200
144,312,18615,1,2,0:0:0
384,96,19084,5,0,0:0:0
296,136,19318,1,0,0:0:0
256,40,19553,1,0,0:0:0
216,136,19787,1,0,0:0:0
128,96,20021,1,0,0:0:0
256,40,20256,1,0,0:0:0
168,216,20725,2,0,P|200:272|336:280|352:192,2,200
304,360,22131,2,0,P|192:360,1,100,0|2,0:0|0:0,0:0:0
136,288,22600,5,0,0:0:0
96,192,22834,1,0,0:0:0
192,208,23068,1,0,0:0:0
256,136,23303,1,0,0:0:0
320,208,23537,1,0,0:0:0
416,192,23771,1,0,0:0:0
376,288,24005,1,0,0:0:0
408,88,24475,1,0,0:0:0
256,0,24943,1,0,0:0:0
104,88,25412,1,0,0:0:0
304,336,25881,2,0,P|176:336,1,100,0|2,0:0|0:0,0:0:0
208,232,26350,6,0,P|280:248|312:208,1,100
296,136,26818,2,0,P|224:120|192:152,1,100
256,40,27287,1,0,0:0:0
256,40,27521,1,0,0:0:0
208,232,27990,2,0,P|312:232,1,100
304,336,28459,2,0,P|200:336,1,100
112,288,28928,1,0,0:0:0
256,152,29396,1,0,0:0:0
392,296,29865,1,0,0:0:0
360,200,30100,6,0,P|392:128|296:64,1,200,0|8,0:0|0:0,0:0:0
152,200,30803,2,0,P|120:128|216:64,1,200
256,0,31506,1,8,0:0:0
256,224,31975,1,0,0:0:0
168,272,32209,2,2,P|264:320|352:256,1,200
208,8,33381,2,2,P|312:8,1,100,10|2,0:0|0:0,0:0:0
400,48,33850,5,2,0:0:0
256,192,34318,1,10,0:0:0
120,48,34787,2,2,P|56:64|56:104,1,100,2|2,0:0|0:0,0:0:0
32,184,35256,2,2,P|96:168|96:128,1,100,10|2,0:0|0:0,0:0:0
256,272,35959,1,2,0:0:0
440,184,36428,1,2,0:0:0
120,48,37365,5,0,0:0:0
56,112,37600,2,0,P|120:136|208:56,1,200,0|8,0:0|0:0,0:0:0
392,48,38303,1,0,0:0:0
456,112,38538,2,0,P|392:136|304:56,1,200,0|8,0:0|0:0,0:0:0
256,248,39475,1,0,0:0:0
168,296,39709,2,2,P|256:344|352:288,1,200
408,16,40881,6,2,P|464:16|512:32,2,100
272,160,41818,1,10,0:0:0
104,16,42287,2,2,P|48:16|0:32,2,100,2|0|10,0:0|0:0|0:0,0:0:0
144,112,42990,1,2,0:0:0
184,24,43225,1,0,0:0:0
256,88,43459,1,2,0:0:0
328,24,43693,1,8,0:0:0
368,112,43928,1,2,0:0:0
312,304,44396,6,0,P|368:280|416:272,2,100
208,304,45100,2,0,P|152:280|104:272,2,100,4|0|0,0:0|0:0|0:0,0:0:0
256,216,45803,1,4,0:0:0
176,88,46154,1,4,0:0:0
328,88,46506,1,4,0:0:0
440,256,46975,1,0,0:0:0
256,336,47443,1,0,0:0:0
72,248,47912,1,0,0:0:0
160,200,48146,6,0,P|160:144|128:120,2,100
352,200,48850,2,0,P|352:144|384:120,2,100,4|0|0,0:0|0:0|0:0,0:0:0
256,184,49553,2,0,P|256:24,2,150,4|4|4,0:0|0:0|0:0,0:0:0
72,264,50725,1,0,0:0:0
256,336,51193,1,0,0:0:0
440,264,51662,1,0,0:0:0
352,224,51896,6,0,P|416:168|432:168,2,100
256,108,52600,2,0,P|256:208,1,100,4|0,0:0|0:0,0:0:0
256,208,52951,1,0,0:0:0
256,208,53068,1,8,0:0:0
160,224,53303,2,0,P|96:168|86:167,2,100
160,224,53889,1,0,0:0:0
160,224,54006,1,8,0:0:0
208,344,54240,2,0,P|328:344,2,100
256,256,54943,1,8,0:0:0
328,184,55178,1,0,0:0:0
256,120,55412,1,0,0:0:0
184,184,55646,2,0,P|144:216,2,50
328,184,56115,2,0,P|368:216,2,50
384,104,56584,1,0,0:0:0
312,40,56818,1,0,0:0:0
208,40,57053,1,0,0:0:0
128,104,57287,1,0,0:0:0
200,176,57521,2,0,P|320:176,2,100
104,208,58225,5,0,0:0:0
112,224,58342,1,0,0:0:0
120,240,58459,1,0,0:0:0
128,256,58576,1,0,0:0:0
136,272,58693,1,0,0:0:0
144,288,58810,1,0,0:0:0
152,304,58928,1,0,0:0:0
160,320,59045,1,0,0:0:0
168,336,59162,1,0,0:0:0
176,352,59279,1,0,0:0:0
184,368,59396,1,0,0:0:0
256,296,59631,1,4,2:2:0
352,112,60100,5,4,0:0:0
304,24,60334,1,0,0:0:0
208,24,60568,1,8,0:0:0
160,112,60803,1,4,0:0:0
192,256,61154,2,4,P|264:288|328:256,1,150,4|12,0:0|0:0,0:0:0
112,184,61975,6,0,P|216:184,1,100
400,184,62443,2,0,P|296:184,1,100,8|0,0:0|0:0,0:0:0
304,80,62912,2,0,P|192:80,2,100,0|0|8,0:0|0:0|0:0,0:0:0
408,96,63615,1,0,0:0:0
408,200,63850,5,4,0:0:0
328,256,64084,1,0,0:0:0
256,192,64318,1,8,0:0:0
184,256,64553,1,4,0:0:0
256,384,64904,1,4,0:0:0
328,256,65256,1,12,0:0:0
144,184,65725,6,0,P|40:184,1,100
104,264,66193,2,0,P|32:264|0:288,2,100,8|0|0,0:0|0:0|0:0,0:0:0
168,336,66896,1,0,0:0:0
256,288,67131,1,8,0:0:0
256,192,67365,1,0,0:0:0
208,104,67600,6,0,P|312:104,2,100,4|0|8,0:0|0:0|0:0,0:0:0
184,8,68303,2,4,P|256:-8|352:24,2,150,4|4|12,0:0|0:0|0:0,0:0:0
360,104,69475,5,0,0:0:0
408,192,69709,1,0,0:0:0
312,184,69943,1,8,0:0:0
256,264,70178,1,0,0:0:0
200,184,70412,1,0,0:0:0
104,192,70646,1,0,0:0:0
152,104,70880,1,8,0:0:0
256,112,71115,1,0,0:0:0
208,24,71350,6,0,P|312:24,2,100,4|0|8,0:0|0:0|0:0,0:0:0
104,24,72053,1,4,0:0:0
208,192,72521,2,0,P|264:184|320:200,1,100,0|8,0:0|0:0,0:0:0
312,296,72990,2,0,P|256:360|200:280,2,200,0|0|0,0:0|0:0|0:0,0:0:0
256,104,74396,1,0,0:0:0
256,104,74631,1,0,0:0:0
256,112,89865,5,0,0:0:0
168,64,90100,2,0,P|264:24|352:80,1,200,0|8,0:0|0:0,0:0:0
304,160,90803,1,0,0:0:0
208,160,91037,1,0,0:0:0
432,312,91506,1,8,0:0:0
256,208,91975,1,0,0:0:0
344,256,92209,2,2,P|256:296|160:248,1,200
344,32,93381,5,2,0:0:0
256,80,93615,1,2,0:0:0
168,32,93850,1,2,0:0:0
152,232,94318,1,10,0:0:0
352,232,94787,2,2,P|456:192,2,100,2|0|10,0:0|0:0|0:0,0:0:0
392,320,95490,2,2,P|296:368|272:272|176:320,2,200
320,248,96662,1,0,0:0:0
312,152,96896,1,0,0:0:0
208,152,97131,1,8,0:0:0
200,248,97365,1,0,0:0:0
176,344,97600,6,0,P|256:392|344:344,1,200,0|8,0:0|0:0,0:0:0
256,288,98303,1,0,0:0:0
312,200,98537,1,0,0:0:0
200,200,98771,1,0,0:0:0
256,112,99006,2,0,P|368:96,2,100,8|2|0,0:0|0:0|0:0,0:0:0
256,8,99709,2,0,P|144:24,2,100,2|8|2,0:0|0:0|0:0,0:0:0
72,248,100881,5,10,0:0:0
144,320,101115,1,2,0:0:0
208,248,101350,2,2,P|264:320|296:232,1,200,2|10,0:0|0:0,0:0:0
400,72,102287,1,2,0:0:0
312,24,102521,1,2,0:0:0
200,24,102756,1,10,0:0:0
112,72,102990,1,2,0:0:0
256,208,103459,1,2,0:0:0
400,72,103928,1,2,0:0:0
200,328,104396,6,0,P|104:296,2,100
312,328,105100,2,0,P|408:296,2,100,4|0|0,0:0|0:0|0:0,0:0:0
256,248,105803,1,4,0:0:0
176,120,106154,1,4,0:0:0
336,120,106506,1,4,0:0:0
152,48,106975,1,0,0:0:0
352,48,107443,1,0,0:0:0
256,224,107912,1,0,0:0:0
208,312,108146,6,0,P|264:328|312:304,2,100
152,232,108850,2,0,P|136:168|160:128,1,100,4|0,0:0|0:0,0:0:0
360,232,109318,2,0,P|376:168|352:128,1,100,0|4,0:0|0:0,0:0:0
264,32,109904,2,4,P|216:96|320:120|248:184,1,150
152,344,110725,1,0,0:0:0
352,344,111193,1,0,0:0:0
256,168,111662,5,0,0:0:0
312,88,111896,1,0,0:0:0
208,88,112131,1,0,0:0:0
256,168,112365,1,0,0:0:0
126,233,112600,2,0,P|152:256|216:264,1,100
215,264,112951,1,0,0:0:0
215,264,113068,1,0,0:0:0
296,264,113303,2,0,P|360:256|392:224,2,100
296,264,113889,1,0,0:0:0
296,264,114006,1,0,0:0:0
360,344,114240,1,0,0:0:0
392,248,114475,1,0,0:0:0
256,352,114709,1,0,0:0:0
160,344,114943,1,0,0:0:0
128,248,115178,1,0,0:0:0
224,264,115412,1,0,0:0:0
232,168,115646,2,0,P|296:168,2,50
256,72,116115,1,0,0:0:0
256,72,116232,1,0,0:0:0
256,72,116350,1,0,0:0:0
304,160,116584,1,0,0:0:0
208,160,116818,1,0,0:0:0
336,88,117053,1,0,0:0:0
256,224,117287,1,0,0:0:0
176,88,117521,1,0,0:0:0
336,232,117756,1,0,0:0:0
176,232,117990,1,0,0:0:0
152,120,118225,5,0,0:0:0
144,136,118342,1,0,0:0:0
136,152,118459,1,0,0:0:0
128,168,118576,1,0,0:0:0
120,184,118693,1,0,0:0:0
112,200,118810,1,0,0:0:0
104,216,118928,1,0,0:0:0
96,232,119045,1,0,0:0:0
88,248,119162,1,0,0:0:0
80,264,119279,1,0,0:0:0
72,280,119396,1,0,0:0:0
256,328,119631,1,0,2:0:0
320,136,120100,5,4,0:0:0
256,56,120334,1,0,0:0:0
192,136,120568,1,8,0:0:0
208,240,120803,2,4,P|248:192|296:256,1,150
432,312,121506,1,12,0:0:0
376,120,121975,5,0,0:0:0
360,104,122092,1,0,0:0:0
344,88,122209,1,0,0:0:0
256,136,122443,1,8,0:0:0
256,32,122678,1,0,0:0:0
168,88,122912,1,0,0:0:0
152,104,123029,1,0,0:0:0
136,120,123146,1,0,0:0:0
176,216,123381,1,8,0:0:0
256,272,123615,1,0,0:0:0
336,216,123850,6,0,P|440:192,2,100,4|0|8,0:0|0:0|0:0,0:0:0
320,320,124553,2,4,P|264:352|184:304,2,150,4|4|12,0:0|0:0|0:0,0:0:0
192,136,125725,5,0,0:0:0
184,160,125842,1,0,0:0:0
176,184,125959,1,0,0:0:0
320,136,126193,1,8,0:0:0
328,160,126310,1,0,0:0:0
336,184,126427,1,0,0:0:0
208,64,126662,1,0,0:0:0
232,64,126779,1,0,0:0:0
256,64,126896,1,0,0:0:0
280,64,127014,1,0,0:0:0
304,64,127131,1,8,0:0:0
256,152,127365,1,0,0:0:0
256,256,127600,6,0,P|256:360,2,100,4|0|8,0:0|0:0|0:0,0:0:0
168,296,128303,1,4,0:0:0
344,296,128654,1,4,0:0:0
256,152,129006,1,12,0:0:0
56,192,129475,6,0,P|32:240|64:288,2,100,0|0|8,0:0|0:0|0:0,0:0:0
56,88,130178,2,0,P|80:0|184:48,1,200
192,24,130764,1,0,0:0:0
216,24,130881,1,8,0:0:0
256,120,131115,1,0,0:0:0
208,208,131350,6,0,P|312:208,2,100,4|0|8,0:0|0:0|0:0,0:0:0
184,304,132053,2,0,P|264:360|344:280,1,200,4|0,0:0|0:0,0:0:0
256,256,132756,1,8,0:0:0
256,256,132990,1,0,0:0:0
224,160,133225,5,0,0:0:0
208,144,133342,1,0,0:0:0
200,120,133459,1,0,0:0:0
200,96,133576,1,0,0:0:0
208,72,133693,1,0,0:0:0
224,56,133810,1,0,0:0:0
248,48,133928,1,0,0:0:0
272,48,134045,1,0,0:0:0
296,56,134162,1,0,0:0:0
312,72,134279,1,0,0:0:0
320,96,134396,1,0,0:0:0
320,120,134514,1,0,0:0:0
312,136,134631,1,0,0:0:0
304,152,134748,1,0,0:0:0
288,160,134865,1,0,0:0:0
264,160,134982,1,0,0:0:0
256,144,135100,5,4,0:0:0
208,304,135451,1,4,0:0:0
336,216,135803,1,4,0:0:0
176,216,136154,1,4,0:0:0
304,304,136506,1,4,0:0:0
256,32,136975,6,0,P|368:32,2,100,0|0|8,0:0|0:0|0:0,0:0:0
256,136,137678,2,0,P|144:136,2,100,0|0|0,0:0|0:0|0:0,0:0:0
256,32,138381,1,8,0:0:0
128,192,138850,5,4,0:0:0
176,336,139201,1,4,0:0:0
256,208,139553,1,4,0:0:0
336,336,139904,1,4,0:0:0
384,192,140255,1,4,0:0:0
176,32,140725,5,0,0:0:0
256,88,140959,1,0,0:0:0
336,32,141193,1,8,0:0:0
184,120,141428,1,0,0:0:0
256,16,141662,1,0,0:0:0
328,120,141896,1,0,0:0:0
256,192,142131,1,8,0:0:0
256,288,142365,1,0,0:0:0
256,288,142482,1,0,0:0:0
256,288,142600,1,4,0:0:0
120,224,142951,5,4,0:0:0
256,288,143303,1,4,0:0:0
392,224,143654,1,4,0:0:0
256,152,144006,1,4,0:0:0
312,344,144475,6,0,P|328:232,2,100,0|0|8,0:0|0:0|0:0,0:0:0
208,336,145178,2,0,P|192:224,2,100,0|0|0,0:0|0:0|0:0,0:0:0
256,264,145881,1,8,0:0:0
208,72,146350,6,0,P|264:24|296:96,1,150,4|4,0:0|0:0,0:0:0
304,224,147053,2,0,P|264:270|208:222,1,150,4|4,0:0|0:0,0:0:0
256,368,147756,1,12,0:0:0
112,224,148225,5,0,0:0:0
88,128,148459,1,0,0:0:0
160,56,148693,1,8,0:0:0
240,112,148928,1,0,0:0:0
256,208,149162,1,0,0:0:0
352,232,149396,1,0,0:0:0
400,144,149631,1,8,0:0:0
400,120,150100,1,4,2:0:0
208,192,156896,5,0,0:0:0
304,192,157131,1,0,0:0:0
256,120,157600,5,0,2:2:0
256,88,158068,1,0,2:2:0
256,56,158537,1,0,2:2:0
256,24,159006,1,0,2:2:0
256,264,159475,5,0,2:2:0
256,296,159943,1,0,2:2:0
256,328,160412,1,0,2:2:0
256,360,160881,1,0,2:2:0
256,192,161350,12,0,162756,2:0:0
208,288,163225,5,0,0:0:0
240,288,163693,1,0,0:0:0
272,288,164162,1,0,0:0:0
304,288,164631,1,0,0:0:0
208,176,165100,5,0,0:0:0
176,80,165334,1,0,0:0:0
256,16,165568,1,0,0:0:0
328,80,165803,1,0,0:0:0
304,176,166037,1,0,0:0:0
208,288,166271,1,0,0:0:0
304,288,166506,1,0,0:0:0
208,176,166740,1,0,0:0:0
232,80,166975,5,0,0:0:0
224,64,167092,1,0,0:0:0
224,48,167209,1,0,0:0:0
232,32,167326,1,0,0:0:0
256,24,167443,1,0,0:0:0
272,32,167560,1,0,0:0:0
280,56,167678,1,0,0:0:0
272,80,167795,1,0,0:0:0
256,112,167912,6,0,P|256:144,7,25
256,160,168381,1,12,0:0:0
336,224,168615,5,0,0:0:0
304,320,168850,1,4,0:0:0
208,320,169084,1,0,0:0:0
176,224,169318,1,8,0:0:0
184,128,169553,2,4,P|344:128,2,150,4|4|12,0:0|0:0|0:0,0:0:0
360,216,170725,6,0,P|400:120,1,100
448,208,171193,2,0,P|400:320,1,100,8|0,0:0|0:0,0:0:0
152,216,171662,2,0,P|112:120,1,100
64,208,172130,2,0,P|112:320,1,100,8|0,0:0|0:0,0:0:0
208,328,172600,6,0,P|312:328,2,100,4|0|8,0:0|0:0|0:0,0:0:0
112,304,173303,1,4,0:0:0
256,248,173654,1,4,0:0:0
400,304,174006,1,12,0:0:0
256,152,174475,5,0,0:0:0
344,104,174709,1,0,0:0:0
376,200,174943,1,8,0:0:0
288,248,175178,1,0,0:0:0
256,152,175412,1,0,0:0:0
168,104,175646,1,0,0:0:0
136,200,175880,1,8,0:0:0
224,248,176115,1,0,0:0:0
208,344,176350,6,0,P|328:344,2,100,4|0|8,0:0|0:0|0:0,0:0:0
256,256,177053,1,4,0:0:0
176,128,177404,1,4,0:0:0
328,128,177756,1,12,0:0:0
152,216,178225,6,0,P|96:240|80:280,1,100
360,168,178693,2,0,P|416:144|432:104,1,100,8|0,0:0|0:0,0:0:0
216,96,179162,2,0,P|160:72|144:32,1,100
296,288,179631,2,0,P|352:312|368:352,1,100,8|0,0:0|0:0,0:0:0
192,192,180100,5,4,0:0:0
256,112,180334,1,0,0:0:0
312,192,180568,1,8,0:0:0
256,272,180803,1,4,0:0:0
344,96,181271,1,0,0:0:0
256,56,181506,1,8,0:0:0
160,88,181740,1,0,0:0:0
232,160,181975,5,0,0:0:0
224,176,182092,1,0,0:0:0
224,192,182209,1,0,0:0:0
232,208,182326,1,0,0:0:0
256,216,182443,1,0,0:0:0
272,208,182560,1,0,0:0:0
280,184,182678,1,0,0:0:0
272,160,182795,1,0,0:0:0
256,128,182912,6,0,P|256:96,7,25
256,80,183381,1,12,0:0:0
336,16,183615,1,0,0:0:0
392,96,183850,6,0,P|392:208,1,100,6|0,0:0|0:0,0:0:0
120,196,184318,2,0,P|120:96,1,100,8|4,0:0|0:0,0:0:0
256,312,184904,1,4,0:0:0
392,96,185256,1,12,0:0:0
424,296,185725,5,0,0:0:0
328,200,185959,1,0,0:0:0
256,312,186193,1,8,0:0:0
184,200,186428,1,0,0:0:0
88,296,186662,1,0,0:0:0
256,232,186896,1,0,0:0:0
424,296,187131,1,8,0:0:0
360,136,187365,1,0,0:0:0
200,40,187600,6,0,P|312:40,2,100,6|0|8,0:0|0:0|0:0,0:0:0
128,112,188303,1,4,0:0:0
256,272,188654,1,4,0:0:0
384,112,189006,1,12,0:0:0
144,240,189475,6,0,P|64:240|48:264,1,100,0|2,0:0|0:0,0:0:0
368,240,189943,2,0,P|448:240|464:264,1,100,8|2,0:0|0:0,0:0:0
256,120,190412,2,0,P|224:88|304:48|240:8,2,100,0|2|10,0:0|0:0|0:0,0:0:0
248,144,190998,1,0,0:0:0
256,168,191115,1,0,0:0:0
248,192,191232,1,0,0:0:0
256,224,191350,5,6,0:0:0
184,352,191584,1,0,0:0:0
328,352,191818,1,8,0:0:0
176,288,192053,2,4,P|336:288,2,150,4|4|12,0:0|0:0|0:0,0:0:0
152,80,193225,6,0,P|48:80,1,100,0|0,0:0|0:0,0:0:0
360,80,193693,2,0,P|464:80,1,100,8|0,0:0|0:0,0:0:0
256,256,194162,2,0,P|256:360,2,100,0|0|8,0:0|0:0|0:0,0:0:0
168,184,194865,5,0,0:0:0
200,80,195100,1,6,0:0:0
312,80,195334,1,0,0:0:0
344,184,195568,1,8,0:0:0
256,256,195803,1,4,0:0:0
200,8,196271,5,0,0:0:0
312,8,196506,1,8,0:0:0
257,70,196740,2,0,P|209:118|321:190|255:256,1,200
256,72,197678,1,0,0:0:0
256,360,198146,5,0,0:0:0
256,312,198381,1,4,2:0:0
